#TITLE:WILD RUSH;
#SUBTITLE:;
#ARTIST:FACTOR-X;
#TITLETRANSLIT:;
#SUBTITLETRANSLIT:;
#ARTISTTRANSLIT:;
#GENRE:;
#CREDIT:;
#BANNER:WILD RUSH.png;
#BACKGROUND:WILD RUSH-bg.png;
#LYRICSPATH:;
#CDTITLE:cdtitle.png;
#MUSIC:WILD RUSH.ogg;
#OFFSET:-0.004000;
#SAMPLESTART:75.946999;
#SAMPLELENGTH:15.000000;
#SELECTABLE:YES;
#DISPLAYBPM:80.000000:180.000000;
#BPMS:0.000000=79.300003
,4.000000=80.000000
,33.000000=79.800003
,36.000000=100.000000
,68.000000=120.000000
,100.000000=137.000000
,103.000000=143.000000
,106.000000=139.000000
,108.000000=140.000000
,130.000000=141.500000
,132.000000=160.000000
,164.000000=182.000000
,166.000000=181.000000
,168.000000=180.000000
;
#STOPS:
;
#BGCHANGES:;
#KEYSOUNDS:;
#ATTACKS:;

//---------------dance-single - ----------------
#NOTES:
     dance-single:
     :
     Beginner:
     3:
     0.084924,0.166706,0.048727,0.000000,0.000000,61.000000,56.000000,5.000000,0.000000,0.000000,0.000000,0.084924,0.166706,0.048727,0.000000,0.000000,61.000000,56.000000,5.000000,0.000000,0.000000,0.000000:
// measure 0
0000
0000
0000
0000
,  // measure 1
0000
0000
0000
0000
,  // measure 2
0000
0000
0000
0000
,  // measure 3
0001
0000
0000
0000
,  // measure 4
1000
0000
0000
0000
,  // measure 5
0010
0000
0000
0000
,  // measure 6
0100
0000
0010
0000
,  // measure 7
1000
0000
0001
0000
,  // measure 8
0010
0100
1000
0000
,  // measure 9
1001
0000
0000
0000
,  // measure 10
0010
0000
0000
0000
,  // measure 11
0100
0000
0000
0000
,  // measure 12
0001
0000
0000
0000
,  // measure 13
0010
0000
0000
0000
,  // measure 14
0100
0000
0000
0000
,  // measure 15
1000
0000
0000
0000
,  // measure 16
0001
0000
1000
0000
,  // measure 17
0110
0100
0000
0000
,  // measure 18
0000
0010
0000
0000
,  // measure 19
1000
0000
0000
0000
,  // measure 20
0001
0000
1000
0000
,  // measure 21
0110
0000
0000
0000
,  // measure 22
0100
0000
0010
0000
,  // measure 23
1001
0000
0000
0000
,  // measure 24
0001
0000
1000
0000
,  // measure 25
0010
0000
0000
0000
,  // measure 26
0000
0000
0000
0100
,  // measure 27
0100
0000
0000
0000
,  // measure 28
0010
0000
0000
0000
,  // measure 29
1000
0000
0001
0000
,  // measure 30
1000
0000
0000
0000
,  // measure 31
0100
0000
0000
0000
,  // measure 32
0000
0000
0000
0000
,  // measure 33
0010
0000
0000
0000
,  // measure 34
0000
0000
0000
0000
,  // measure 35
0001
0000
0000
0000
,  // measure 36
0100
0000
0010
0000
,  // measure 37
1000
0000
0000
0000
,  // measure 38
0001
0000
0000
0000
,  // measure 39
0110
0000
0000
0000
,  // measure 40
0000
0000
0000
0000
,  // measure 41
0001
0000
0000
0000
,  // measure 42
1000
0000
0000
0000
,  // measure 43
0010
0000
0000
0000
,  // measure 44
0100
0000
0010
0000
,  // measure 45
0100
0000
0000
0000
,  // measure 46
0010
0000
0000
0000
,  // measure 47
1000
0000
0000
0000
,  // measure 48
0001
0000
0000
0000
0000
0000
0000
0010
;

//---------------dance-single - ----------------
#NOTES:
     dance-single:
     :
     Easy:
     7:
     0.267301,0.381043,0.087708,0.243634,0.034109,192.000000,183.000000,9.000000,25.000000,0.000000,0.000000,0.267301,0.381043,0.087708,0.243634,0.034109,192.000000,183.000000,9.000000,25.000000,0.000000,0.000000:
// measure 0
0000
0000
0000
0000
,  // measure 1
0000
0000
0000
0000
,  // measure 2
0000
0000
0000
0000
,  // measure 3
2200
0000
0000
3300
0101
0000
0001
0000
,  // measure 4
0100
0000
0010
0000
0000
0100
0010
1000
,  // measure 5
0000
0202
0000
0000
0000
0000
0303
0000
0000
0001
0000
0000
0010
0000
0000
0000
,  // measure 6
0100
0000
0000
1000
0000
0000
0010
0000
0000
0000
0100
0000
0010
0000
1000
0000
,  // measure 7
0000
0000
0001
0000
1000
0000
0100
0000
0010
0000
0000
0100
0000
0000
1000
0000
,  // measure 8
0000
0000
0001
0000
1000
0001
0100
0001
0000
0001
0100
0000
0010
0000
1000
0000
,  // measure 9
0002
1000
1003
0000
,  // measure 10
1000
0000
0001
0000
0100
0000
0000
0010
,  // measure 11
0020
0000
0130
0000
0001
0100
0001
0000
,  // measure 12
0100
0000
1010
0000
1000
0100
1000
0000
,  // measure 13
0200
0000
0310
0000
0001
0010
0001
0000
,  // measure 14
0100
0000
0101
0000
0100
0010
0100
0200
,  // measure 15
0320
0000
1030
0000
0100
0010
0001
0000
,  // measure 16
0001
0100
0000
0001
0000
1000
0000
0100
,  // measure 17
0020
0130
1000
0010
,  // measure 18
1000
0000
0001
0000
0010
0000
0100
0020
,  // measure 19
0032
1003
0001
0100
,  // measure 20
0001
1000
0100
0010
,  // measure 21
0012
0013
0100
1000
,  // measure 22
0010
0100
0001
1000
,  // measure 23
1002
1003
0001
0010
,  // measure 24
0001
1000
0010
1000
,  // measure 25
0002
1003
0001
1000
,  // measure 26
0010
0000
0100
0000
0010
0000
0100
0020
,  // measure 27
0230
0310
1000
0001
,  // measure 28
0010
0100
1000
0100
,  // measure 29
0010
0100
1000
0010
,  // measure 30
0100
0010
1000
0001
,  // measure 31
0220
0000
0000
0330
,  // measure 32
0000
0000
0000
0000
,  // measure 33
1000
0000
0001
0000
0000
0010
0000
0000
,  // measure 34
0100
0100
0000
0000
,  // measure 35
0010
0001
0000
0100
,  // measure 36
0010
1000
0001
0010
,  // measure 37
0100
0010
0001
1000
,  // measure 38
0010
0100
0010
1000
,  // measure 39
0202
0000
0000
0000
,  // measure 40
0303
0000
0000
0000
,  // measure 41
2000
3100
1000
0010
,  // measure 42
1000
0001
0010
0010
,  // measure 43
0001
0200
0301
1000
,  // measure 44
0100
0010
0100
1000
,  // measure 45
0002
0103
0001
0020
,  // measure 46
0130
1000
0100
1000
,  // measure 47
0010
1000
0001
0010
,  // measure 48
0100
0000
1000
0000
0001
0000
0100
0010
;

//---------------dance-single - ----------------
#NOTES:
     dance-single:
     :
     Medium:
     11:
     0.413481,0.738271,0.233888,0.038981,0.204652,297.000000,273.000000,24.000000,4.000000,0.000000,0.000000,0.413481,0.738271,0.233888,0.038981,0.204652,297.000000,273.000000,24.000000,4.000000,0.000000,0.000000:
// measure 0
0000
0000
0000
0000
,  // measure 1
0000
0000
0000
0000
,  // measure 2
0000
0000
0000
0000
,  // measure 3
1000
0000
0000
0000
0000
0000
0001
0000
0000
0000
0000
0000
0100
0000
0000
0000
0010
0000
0000
0010
0000
0000
0010
0000
0000
0000
0000
0000
0000
0000
0000
0000
,  // measure 4
0100
0000
0000
0010
0000
0000
1000
0000
0000
0001
0100
1000
0100
0001
1000
0100
,  // measure 5
0000
0011
0000
0000
0000
0000
0000
0000
0000
0010
0001
0000
0001
0100
0000
0100
,  // measure 6
0010
0000
0010
0100
0000
0100
0001
0000
0000
1000
0001
0010
0100
0010
0001
1000
,  // measure 7
0100
0010
0010
0100
1000
1000
0001
0100
0001
0000
1000
1000
0000
0001
0001
0001
,  // measure 8
0000
0000
0100
0000
0010
0000
0000
0000
1000
0001
1000
0001
1000
0001
1000
0000
0000
0000
0001
0000
0010
0000
1000
0000
0010
0000
0001
0000
0100
0000
1000
0000
,  // measure 9
0100
0000
0001
0000
0010
0000
0100
0010
,  // measure 10
1000
0001
1000
0100
0010
0000
0100
0000
,  // measure 11
1000
0000
0011
0000
0001
0001
0101
0000
,  // measure 12
0100
0000
0110
0000
1000
1000
1001
0000
,  // measure 13
0001
0000
1100
0000
0100
0010
0011
0000
,  // measure 14
0001
0000
1010
0000
0100
0001
1001
0110
,  // measure 15
0110
0000
0100
0000
0010
1000
1010
0000
,  // measure 16
0001
1000
0001
0010
1000
0010
0001
0100
,  // measure 17
0020
0000
0000
0000
1030
0000
0000
0000
0001
0000
0000
0010
0000
0000
0100
0000
,  // measure 18
0010
0000
0000
0001
0000
0000
0001
0000
0100
0000
0000
0010
0000
0000
1000
0000
,  // measure 19
0001
0000
0000
0000
0010
0000
0000
0000
0100
0000
0000
1000
0000
0000
0100
0000
,  // measure 20
1000
0000
0000
0010
0000
0000
0100
0000
0001
0000
0000
1000
0000
0000
0001
0000
,  // measure 21
1000
0100
0001
0000
0100
0000
0101
0000
,  // measure 22
0001
0100
1000
0000
0100
0000
1100
0000
,  // measure 23
1000
0010
0001
0000
0001
0000
0011
0000
,  // measure 24
0001
0010
1000
0000
1000
0010
0100
0000
,  // measure 25
0001
0100
0000
0010
0000
1000
0000
0001
,  // measure 26
0000
0010
0000
1000
0000
0010
0000
0001
,  // measure 27
0100
1000
0100
0001
0000
1000
0001
0010
,  // measure 28
0000
0100
0010
0001
0000
0010
0100
1000
,  // measure 29
0000
0100
1000
0010
0000
0100
0001
0010
,  // measure 30
0000
0100
0010
0001
0000
0010
0100
1000
,  // measure 31
0022
0000
0000
0033
,  // measure 32
1000
0100
0010
0002
0000
0000
0000
0000
,  // measure 33
1003
0000
0001
0000
0000
0100
0000
0010
,  // measure 34
1000
0001
0001
0000
0000
0010
0000
0000
,  // measure 35
0100
1000
1000
0000
0000
0100
0000
0000
,  // measure 36
1000
0100
0010
0001
,  // measure 37
0100
0000
0010
0000
1000
0001
0100
0000
,  // measure 38
0010
0000
1000
0000
0100
0010
0001
0010
,  // measure 39
0000
0000
0000
0000
0100
0000
0000
0100
0000
0000
0100
0000
0000
0000
0000
0000
,  // measure 40
0000
0110
0000
1001
0000
0110
0000
0000
,  // measure 41
1000
0010
0100
0000
0001
0000
0101
0000
,  // measure 42
0001
0010
0100
0000
0010
0001
0001
1000
,  // measure 43
0001
0100
0010
0000
1000
0000
1100
0000
,  // measure 44
0100
0010
0100
1000
0001
0100
0001
1000
,  // measure 45
0100
1000
0010
0000
0100
0000
0110
0000
,  // measure 46
0100
0001
0010
0000
0100
0000
0110
0000
,  // measure 47
0100
0010
0001
0000
0010
0100
1000
0000
,  // measure 48
0100
0010
0001
1000
0100
0010
0001
1001
;

//---------------dance-single - ----------------
#NOTES:
     dance-single:
     :
     Hard:
     14:
     0.604212,0.745520,0.428796,0.360578,0.487268,434.000000,390.000000,44.000000,37.000000,0.000000,0.000000,0.604212,0.745520,0.428796,0.360578,0.487268,434.000000,390.000000,44.000000,37.000000,0.000000,0.000000:
// measure 0
0000
0000
0000
0000
,  // measure 1
0000
0000
0000
0000
,  // measure 2
0000
0000
0000
0000
,  // measure 3
2010
0000
0000
0000
0000
0000
0100
0000
0000
0000
0000
0000
3010
0000
0000
0000
0101
0000
0000
0011
0000
0000
0001
1000
0001
0000
0000
0000
0000
0000
0000
0000
,  // measure 4
1000
0000
0100
0000
0100
0000
0000
0000
1000
0000
0000
0000
0000
0000
1000
0001
0000
0000
1000
0000
0001
0000
0100
0000
1000
0000
0100
0000
0001
0000
1000
0000
,  // measure 5
0000
0202
0000
0000
0000
0000
0000
0000
0303
1000
1000
0001
0010
0010
0100
1000
,  // measure 6
1000
0001
1000
0001
0010
0100
1000
0000
0000
1000
0100
0001
0100
1000
0010
1000
,  // measure 7
0020
0100
0130
0001
0010
0010
0100
0010
0010
0000
0010
0001
0000
1000
1000
1000
,  // measure 8
0000
0000
1000
0000
0001
0000
0000
0000
0100
0010
0100
0010
0100
0000
0010
0000
0000
0000
2000
0000
3100
0000
0002
0000
0103
0000
2000
0000
3010
0000
0200
0000
,  // measure 9
0301
0000
0010
0000
0100
1000
0001
1000
0000
0000
0000
1000
0010
0000
1000
0000
,  // measure 10
0001
0000
0001
0000
0010
0100
0010
0001
0000
0001
0000
0010
0100
0000
1000
0000
,  // measure 11
0001
0100
0000
0010
2000
0000
0000
0000
0100
0000
3100
0000
0012
0000
0000
0000
,  // measure 12
1003
0001
0000
0010
0200
0000
0000
0000
1000
0000
1300
0000
2010
0000
0000
0000
,  // measure 13
3001
0010
0000
0001
0200
0000
0000
0000
0010
0000
0310
0000
1002
0000
0000
0000
,  // measure 14
0013
0100
0000
0010
0021
0000
0000
0000
0100
0000
0130
0000
2100
0000
0010
0000
,  // measure 15
3010
0100
0000
0001
0020
0000
0100
0000
0031
0000
0001
0000
2001
0000
3100
0000
,  // measure 16
1000
0000
0001
0010
0000
1000
0010
0000
0001
0100
0000
1000
0100
0000
1000
0000
,  // measure 17
0201
0000
0000
0000
0310
0000
0000
1000
0001
0000
0001
1000
0000
1000
0010
0000
,  // measure 18
0100
0000
0001
0010
0000
0010
0100
0000
0100
0000
1000
0100
0000
0100
0020
0030
,  // measure 19
0020
0000
0031
0000
0001
0010
0000
0010
0100
0000
0100
0010
0000
0010
0001
0000
,  // measure 20
1000
0000
0001
0100
0000
0010
1000
0000
0001
0010
0100
0010
0000
0001
1000
0000
,  // measure 21
0200
0000
0010
0000
0310
0000
0100
0000
1000
0010
1000
0001
0000
0010
0100
0000
,  // measure 22
0010
0000
0100
0000
1000
0000
0010
0000
0100
0001
0010
0001
0000
1000
0001
0000
,  // measure 23
0200
0000
0001
0000
0301
0000
0010
0000
0001
0000
1000
0010
0000
0010
0100
0000
,  // measure 24
1001
0000
0001
0100
0000
0010
1000
0000
1001
0000
1000
0010
0000
0100
0001
0000
,  // measure 25
1000
1000
0100
0001
0100
0100
1000
0010
,  // measure 26
0001
0001
0010
1000
0001
0100
0001
1001
,  // measure 27
1001
0001
0011
0100
0010
1000
1010
1000
,  // measure 28
0100
0010
0011
0001
0100
0010
1010
1000
,  // measure 29
0002
0103
0002
1003
0002
0013
0100
1000
,  // measure 30
0200
0301
0200
1300
0200
0310
0200
1300
,  // measure 31
0021
0100
0001
0100
,  // measure 32
0031
0010
0100
2000
0000
0000
0000
0000
,  // measure 33
3001
0000
0000
0000
1100
0000
0000
0000
0000
0000
1010
0000
0000
0000
0001
0100
,  // measure 34
0001
1000
1000
0010
0100
0001
0000
1000
,  // measure 35
0020
0000
0130
0000
1001
0000
0000
0000
0000
0000
1100
0000
0000
0000
0001
0010
,  // measure 36
0001
0010
0100
1000
1001
0000
0110
0000
,  // measure 37
0001
0100
0001
0010
0001
1000
0100
0010
,  // measure 38
0100
0000
1000
0000
0010
0000
0100
0000
0001
0010
0001
0010
0100
1000
0100
1000
,  // measure 39
0002
0000
0000
0000
1000
0000
0000
0010
0000
0000
1000
0000
0003
0000
0000
0001
,  // measure 40
2000
0100
0000
0010
0000
3100
0000
0000
,  // measure 41
0010
0001
0101
0001
1000
1000
1001
0000
,  // measure 42
0010
1000
1100
1000
0001
1001
1001
0000
,  // measure 43
1000
0010
0110
0100
1001
0010
1001
0000
,  // measure 44
0001
0010
0110
0100
1100
0000
1100
0000
,  // measure 45
0011
0000
0001
0000
0101
0000
0001
0000
0010
0000
0100
0000
1000
0100
1000
0100
,  // measure 46
1000
0001
1001
1000
0001
0010
0110
0010
,  // measure 47
0001
0000
0100
0000
0110
0000
1000
0000
0001
0000
0100
0000
1010
0000
1000
0001
,  // measure 48
1000
0001
0010
0100
1000
0100
0010
0021
,  // measure 49
0000
0100
0000
0002
0000
0000
0000
0000
,  // measure 50
0000
0000
0000
0000
,  // measure 51
0033
0000
0000
0000
;
