#VERSION:0.83;
#TITLE:WELCOME TO MY GAME;
#SUBTITLE:;
#ARTIST:GUCHON;
#TITLETRANSLIT:;
#SUBTITLETRANSLIT:;
#ARTISTTRANSLIT:;
#GENRE:;
#ORIGIN:;
#CREDIT:;
#BANNER:WELCOME TO MY GAME-banner.png;
#BACKGROUND:WELCOME TO MY GAME-bg.png;
#PREVIEWVID:;
#JACKET:WELCOME TO MY GAME-jacket.png;
#CDIMAGE:;
#DISCIMAGE:;
#LYRICSPATH:;
#CDTITLE:;
#MUSIC:WELCOME TO MY GAME.ogg;
#OFFSET:-0.204000;
#SAMPLESTART:34.194000;
#SAMPLELENGTH:15.990000;
#SELECTABLE:YES;
#BPMS:0.000=120.000;
#STOPS:;
#DELAYS:;
#WARPS:;
#TIMESIGNATURES:0.000=4=4;
#TICKCOUNTS:0.000=4;
#COMBOS:0.000=1;
#SPEEDS:0.000=1.000=0.000=0;
#SCROLLS:0.000=1.000;
#FAKES:;
#LABELS:0.000=Song Start;
#BGCHANGES:;
#KEYSOUNDS:;
#ATTACKS:
;

//---------------dance-single - ----------------
#NOTEDATA:;
#CHARTNAME:;
#STEPSTYPE:dance-single;
#DESCRIPTION:;
#CHARTSTYLE:;
#DIFFICULTY:Beginner;
#METER:2;
#RADARVALUES:0.112877,0.163263,0.028559,0.000000,0.000000,83.000000,80.000000,3.000000,0.000000,0.000000,0.000000,0.000000,0.000000,0.000000,0.112877,0.163263,0.028559,0.000000,0.000000,83.000000,80.000000,3.000000,0.000000,0.000000,0.000000,0.000000,0.000000,0.000000;
#CREDIT:Pandemonium X;
#NOTES:
// measure 0
0000
0000
0000
0000
,  // measure 1
0000
0000
0000
0000
,  // measure 2
0000
0000
0000
0000
,  // measure 3
0000
0000
0000
0000
,  // measure 4
0000
0000
0000
0000
,  // measure 5
0001
0000
0000
0000
,  // measure 6
0000
0000
0000
0000
,  // measure 7
1000
0000
0000
0000
,  // measure 8
0000
0000
0000
0000
,  // measure 9
0110
0000
0000
0000
,  // measure 10
1000
0000
0000
0000
,  // measure 11
0001
0000
0001
0000
,  // measure 12
0001
0000
0000
0000
,  // measure 13
1000
0000
0000
0000
,  // measure 14
0001
0000
0000
0000
,  // measure 15
0100
0000
0010
0000
,  // measure 16
1001
0000
0000
0000
,  // measure 17
1000
1000
1000
0000
,  // measure 18
0001
0000
0000
0000
,  // measure 19
0100
0000
0100
0000
,  // measure 20
0100
0100
0100
0000
,  // measure 21
0010
0010
0010
0000
,  // measure 22
1000
0000
0000
0000
,  // measure 23
0100
0000
0100
0000
,  // measure 24
0100
0100
0100
0000
,  // measure 25
0010
0000
0000
0000
,  // measure 26
0001
0000
0000
0000
,  // measure 27
0100
0000
0100
0000
,  // measure 28
0100
0100
0100
0000
,  // measure 29
0010
0000
0000
0000
,  // measure 30
1000
0000
0000
0000
,  // measure 31
0001
0000
0001
0000
,  // measure 32
0001
0001
0001
0000
,  // measure 33
0100
0000
0010
0000
,  // measure 34
1000
0000
0000
0000
,  // measure 35
0001
0000
0001
0000
,  // measure 36
0001
0001
0001
0000
,  // measure 37
1000
0000
0000
0000
,  // measure 38
0100
0000
0000
0000
,  // measure 39
0010
0000
0010
0000
,  // measure 40
0010
0010
0010
0000
,  // measure 41
0100
0100
0100
0000
,  // measure 42
1000
0000
0001
0000
,  // measure 43
0100
0000
0100
0000
,  // measure 44
0100
0010
0100
0000
,  // measure 45
0010
0010
0010
0000
,  // measure 46
1000
0000
0001
0000
,  // measure 47
0010
0000
0100
0000
,  // measure 48
0010
0100
0010
0000
,  // measure 49
1001
0000
0000
0000
;

//---------------dance-single - ----------------
#NOTEDATA:;
#CHARTNAME:;
#STEPSTYPE:dance-single;
#DESCRIPTION:;
#CHARTSTYLE:;
#DIFFICULTY:Easy;
#METER:5;
#RADARVALUES:0.218954,0.303203,0.171355,0.000000,0.000000,161.000000,143.000000,18.000000,0.000000,0.000000,0.000000,0.000000,0.000000,0.000000,0.218954,0.303203,0.171355,0.000000,0.000000,161.000000,143.000000,18.000000,0.000000,0.000000,0.000000,0.000000,0.000000,0.000000;
#CREDIT:Pandemonium X;
#NOTES:
// measure 0
0000
0000
0000
0000
,  // measure 1
0000
0000
0000
0000
,  // measure 2
0000
0000
0000
0000
,  // measure 3
0000
0000
0000
0000
,  // measure 4
0000
0000
0000
0000
,  // measure 5
0001
0000
1000
0000
,  // measure 6
0010
0000
1000
0000
,  // measure 7
0100
0000
0010
0000
,  // measure 8
0001
0000
1000
0000
,  // measure 9
0001
1000
0001
1000
,  // measure 10
0010
0100
0010
0100
,  // measure 11
0001
0001
1000
1000
,  // measure 12
0001
1000
0110
0000
,  // measure 13
1000
1000
1000
1000
,  // measure 14
0001
0001
0001
0001
,  // measure 15
0010
0001
0100
0010
,  // measure 16
1000
0100
0110
0000
,  // measure 17
0100
0100
1000
0010
,  // measure 18
0100
0001
0010
0100
,  // measure 19
1000
1000
0001
0001
,  // measure 20
1000
0001
0110
0000
,  // measure 21
0100
0100
0001
0010
,  // measure 22
0001
1000
0100
0010
,  // measure 23
0001
0001
0100
0100
,  // measure 24
0010
0100
1001
0000
,  // measure 25
0001
0000
1000
0000
,  // measure 26
0010
0000
1000
0000
,  // measure 27
0100
0100
0010
0010
,  // measure 28
0100
0010
0110
0000
,  // measure 29
0100
0000
1000
0000
,  // measure 30
0001
0000
0100
0000
,  // measure 31
0001
0001
1000
1000
,  // measure 32
0001
1000
1001
0000
,  // measure 33
0001
0000
0100
0000
,  // measure 34
0010
0010
0010
0000
,  // measure 35
1000
0000
0100
0000
,  // measure 36
0010
0100
1100
0000
,  // measure 37
1000
0000
0001
0000
,  // measure 38
0100
0001
0010
0000
,  // measure 39
0001
0001
0100
0100
,  // measure 40
0001
0100
0101
0000
,  // measure 41
1001
1001
0001
1000
,  // measure 42
0010
1000
0100
0010
,  // measure 43
0001
0001
1000
1000
,  // measure 44
1001
0110
1001
0000
,  // measure 45
0110
0110
1000
0001
,  // measure 46
0010
0001
1000
0100
,  // measure 47
0010
0010
0001
0001
,  // measure 48
1001
0110
1001
0000
,  // measure 49
0010
0000
0000
0000
;

//---------------dance-single - ----------------
#NOTEDATA:;
#CHARTNAME:;
#STEPSTYPE:dance-single;
#DESCRIPTION:;
#CHARTSTYLE:;
#DIFFICULTY:Medium;
#METER:7;
#RADARVALUES:0.296472,0.326527,0.171355,0.076158,0.000000,218.000000,200.000000,18.000000,8.000000,0.000000,0.000000,0.000000,0.000000,0.000000,0.296472,0.326527,0.171355,0.076158,0.000000,218.000000,200.000000,18.000000,8.000000,0.000000,0.000000,0.000000,0.000000,0.000000;
#CREDIT:Pandemonium X;
#NOTES:
// measure 0
0000
0000
0000
0000
,  // measure 1
0000
0000
0000
0000
,  // measure 2
0000
0000
0000
0000
,  // measure 3
0000
0000
0000
0000
,  // measure 4
0000
0000
0000
0000
,  // measure 5
1001
0001
1000
0000
,  // measure 6
1000
0001
1000
0000
,  // measure 7
0110
0000
1001
0000
,  // measure 8
0110
1001
0110
0000
,  // measure 9
1000
0001
0010
0001
,  // measure 10
0100
0010
1000
0100
,  // measure 11
0110
0010
0110
0100
,  // measure 12
0110
1001
0110
0000
,  // measure 13
1000
1000
0001
0001
,  // measure 14
0010
0010
0100
0100
,  // measure 15
1000
0100
1000
0000
0001
0100
0001
0000
,  // measure 16
1000
0100
1000
0001
0100
0000
0000
0000
,  // measure 17
0110
0101
0001
1000
,  // measure 18
0100
1000
0010
0100
,  // measure 19
0001
0100
0001
0000
0100
0001
0100
0000
,  // measure 20
0001
0100
0010
1000
0002
0000
0003
0000
,  // measure 21
1000
0010
1000
0100
,  // measure 22
0010
0100
1000
0010
,  // measure 23
1000
0010
1000
0000
0010
1000
0010
0000
,  // measure 24
1000
0010
0100
0001
0020
0000
0030
0000
,  // measure 25
0100
0000
1000
0000
,  // measure 26
0010
0100
0001
0100
,  // measure 27
0010
1000
0010
0000
0010
1000
0010
0000
,  // measure 28
0010
1000
0010
0100
0002
0000
0003
0000
,  // measure 29
0010
0000
0100
0000
,  // measure 30
1000
0001
1000
0000
,  // measure 31
0010
0100
0010
0000
0010
0100
0010
0000
,  // measure 32
0010
0100
0001
1000
0200
0000
0300
0000
,  // measure 33
0010
0000
0100
1000
0100
0000
0100
1000
,  // measure 34
0100
1000
0010
0100
,  // measure 35
0001
0100
0001
0000
0001
0100
0001
0000
,  // measure 36
0001
0100
0010
1000
0002
0000
0003
0000
,  // measure 37
0010
0000
0100
1000
0100
0000
0100
1000
,  // measure 38
0100
1000
0010
0100
,  // measure 39
0001
1000
0001
0000
1000
0001
1000
0000
,  // measure 40
0001
1000
0001
0010
0200
0000
1300
0000
,  // measure 41
0011
0011
0001
0100
,  // measure 42
0010
1000
0001
1000
,  // measure 43
0100
1000
0010
0000
0100
0001
0010
0000
,  // measure 44
0100
1000
0010
0100
0002
0000
0013
0000
,  // measure 45
0110
0110
0100
1000
,  // measure 46
0001
0100
0010
1000
,  // measure 47
0001
0010
0100
0000
0010
0001
0100
0000
,  // measure 48
0010
0100
0001
1000
0002
0000
1003
0000
,  // measure 49
0110
0000
0000
0000
;

//---------------dance-single - ----------------
#NOTEDATA:;
#CHARTNAME:;
#STEPSTYPE:dance-single;
#DESCRIPTION:;
#CHARTSTYLE:;
#DIFFICULTY:Hard;
#METER:9;
#RADARVALUES:0.341350,0.373173,0.218954,0.104717,0.085678,251.000000,228.000000,23.000000,11.000000,0.000000,0.000000,0.000000,0.000000,0.000000,0.341350,0.373173,0.218954,0.104717,0.085678,251.000000,228.000000,23.000000,11.000000,0.000000,0.000000,0.000000,0.000000,0.000000;
#CREDIT:Pandemonium X;
#NOTES:
// measure 0
0000
0000
0000
0000
,  // measure 1
0000
0000
0000
0000
,  // measure 2
0000
0000
0000
0000
,  // measure 3
0000
0000
0000
0000
,  // measure 4
0000
0000
0000
0000
,  // measure 5
1001
0001
0000
0001
,  // measure 6
0000
1000
0000
1000
,  // measure 7
0010
0100
0010
0100
,  // measure 8
0010
1000
0001
1000
,  // measure 9
0001
0001
1000
1000
,  // measure 10
0010
0100
0001
1000
,  // measure 11
0100
1000
0100
0000
1000
0100
1000
0000
,  // measure 12
0100
1000
0100
0010
0001
0000
1000
0000
,  // measure 13
0001
0101
1000
1100
,  // measure 14
0001
0101
1000
1100
,  // measure 15
0010
0100
0010
0000
0010
0100
0010
0000
,  // measure 16
0010
0100
0010
0100
0010
0000
0110
0000
,  // measure 17
1001
0000
0000
0000
1000
0000
0000
0000
0010
0000
0000
0010
0000
0000
0010
0000
,  // measure 18
0000
0000
1000
0000
0000
0100
0000
0000
0010
0000
0000
0001
0000
0000
1000
0000
,  // measure 19
0001
0100
0010
0000
0100
0001
0010
0000
,  // measure 20
0100
0010
0001
1000
0100
0000
1001
0000
,  // measure 21
0101
0000
0000
0000
1000
0000
0000
0000
0100
0000
0000
0100
0000
0000
0100
0000
,  // measure 22
0000
0000
0010
0000
0000
0010
0000
0000
0100
0000
0000
0100
0000
0000
1000
0000
,  // measure 23
0100
0010
0001
0000
0001
0010
0100
0000
,  // measure 24
0100
0010
0001
1000
0010
0000
0110
0000
,  // measure 25
0002
0103
2000
3100
,  // measure 26
1000
0010
0100
0001
0010
0100
0010
0001
,  // measure 27
0200
0310
0200
0301
,  // measure 28
0200
0320
2000
3030
,  // measure 29
0002
1003
0200
0310
,  // measure 30
0200
1300
0020
0130
,  // measure 31
0001
0100
0010
0000
0010
1000
0100
0000
,  // measure 32
0010
0100
1000
0001
0100
0000
1001
0000
,  // measure 33
0110
0000
0010
1000
0100
0000
1000
0100
,  // measure 34
0010
0000
0010
0000
0001
0000
0000
0010
0000
0000
0001
0000
0010
0000
0100
0000
,  // measure 35
1000
0010
0100
0000
0010
0100
0001
0000
,  // measure 36
1000
0100
0010
0001
1000
0000
1001
0000
,  // measure 37
0001
0000
1000
0010
0100
0001
0010
0000
,  // measure 38
0100
0000
0000
0010
0000
0000
0001
0000
0000
1000
0000
0000
0001
0000
1000
0000
,  // measure 39
0010
0100
0001
0000
0001
1000
0100
0000
,  // measure 40
0010
0100
1000
0001
0100
0000
1001
0000
,  // measure 41
0101
0000
0000
0000
0101
0000
0000
0000
0001
0000
0000
0001
0000
0000
0001
0000
,  // measure 42
0000
0000
0010
0000
0000
0100
0000
0000
1000
0000
0000
0100
0000
0000
0010
0000
,  // measure 43
0110
0000
0000
0000
0110
0000
0000
0000
0100
0000
0000
0100
0000
0000
1000
0000
,  // measure 44
0000
0000
0001
0000
0000
1000
0000
0000
0010
0000
0000
0100
0000
0000
0010
0000
,  // measure 45
1010
0000
0000
0000
1010
0000
0000
0000
0010
0000
0000
1000
0000
0000
0001
0000
,  // measure 46
0000
0000
0010
0000
0000
0010
0000
0000
0100
0000
0000
0100
0000
0000
0010
0000
,  // measure 47
0001
0100
0010
0000
0100
0010
1000
0000
,  // measure 48
0001
0100
0010
1000
1001
0000
0110
0000
,  // measure 49
1001
0000
0000
0000
;
