#VERSION:0.83;
#TITLE:Virtual Sunrise;
#SUBTITLE:;
#ARTIST:kors k;
#TITLETRANSLIT:;
#SUBTITLETRANSLIT:;
#ARTISTTRANSLIT:;
#GENRE:;
#ORIGIN:;
#CREDIT:;
#BANNER:Virtual Sunrise.png;
#BACKGROUND:Virtual Sunrise-bg.png;
#PREVIEWVID:;
#JACKET:Virtual Sunrise-jacket.png;
#CDIMAGE:600px-Virtual_Sunrise.png;
#DISCIMAGE:;
#LYRICSPATH:;
#CDTITLE:;
#MUSIC:Virtual Sunrise.ogg;
#OFFSET:-0.195000;
#SAMPLESTART:67.934998;
#SAMPLELENGTH:11.316000;
#SELECTABLE:YES;
#BPMS:0.000=170.000;
#STOPS:;
#DELAYS:;
#WARPS:;
#TIMESIGNATURES:0.000=4=4;
#TICKCOUNTS:0.000=4;
#COMBOS:0.000=1;
#SPEEDS:0.000=1.000=0.000=0;
#SCROLLS:0.000=1.000;
#FAKES:;
#LABELS:0.000=Song Start;
#BGCHANGES:;
#KEYSOUNDS:;
#ATTACKS:
;

//---------------dance-single - ----------------
#NOTEDATA:;
#CHARTNAME:;
#STEPSTYPE:dance-single;
#DESCRIPTION:;
#CHARTSTYLE:;
#DIFFICULTY:Beginner;
#METER:2;
#RADARVALUES:0.100636,0.169068,0.037571,0.000000,0.000000,75.000000,71.000000,4.000000,0.000000,0.000000,0.000000,0.000000,0.000000,0.000000,0.100636,0.169068,0.037571,0.000000,0.000000,75.000000,71.000000,4.000000,0.000000,0.000000,0.000000,0.000000,0.000000,0.000000;
#CREDIT:Pandemonium X;
#NOTES:
// measure 0
0000
0000
0000
0000
,  // measure 1
0000
0000
0000
0000
,  // measure 2
0000
0000
0000
0000
,  // measure 3
0000
0000
0000
0000
,  // measure 4
0000
0000
0000
0000
,  // measure 5
0000
0000
0000
0000
,  // measure 6
0000
0000
0000
0000
,  // measure 7
0000
0000
0000
0000
,  // measure 8
1000
0001
0000
0000
,  // measure 9
0010
0000
0000
0000
,  // measure 10
0100
0000
0000
0000
,  // measure 11
1000
0000
0000
0000
,  // measure 12
0001
0000
0000
0000
,  // measure 13
0100
0000
0000
0000
,  // measure 14
0010
0000
0000
0000
,  // measure 15
1000
0000
0001
0000
,  // measure 16
1000
0000
0000
0000
,  // measure 17
0010
0000
0000
0000
,  // measure 18
0100
0000
0000
0000
,  // measure 19
0001
0000
0000
0000
,  // measure 20
0010
0000
0000
0000
,  // measure 21
0100
0000
0000
0000
,  // measure 22
1000
0000
0000
0000
,  // measure 23
0001
0000
1000
0000
,  // measure 24
0010
0000
0000
0000
,  // measure 25
0100
0000
0000
0000
,  // measure 26
0010
0000
0000
0000
,  // measure 27
1000
0000
0000
0000
,  // measure 28
0001
0000
0000
0000
,  // measure 29
0010
0000
0000
0000
,  // measure 30
0100
0000
1000
0000
,  // measure 31
0001
0000
0000
0000
,  // measure 32
0110
0000
0000
0000
,  // measure 33
0000
0000
0000
0000
,  // measure 34
1000
0000
0000
0000
,  // measure 35
0000
0000
0000
0000
,  // measure 36
0001
0000
0000
0000
,  // measure 37
0000
0000
0000
0000
,  // measure 38
0010
0000
0000
0000
,  // measure 39
0000
0000
0000
0000
,  // measure 40
0100
0000
0000
0000
,  // measure 41
1000
0000
0000
0000
,  // measure 42
0010
0000
0000
0000
,  // measure 43
0100
0000
0000
0000
,  // measure 44
0001
0000
0000
0000
,  // measure 45
1000
0000
0000
0000
,  // measure 46
0010
0000
0100
0000
,  // measure 47
1001
0000
0000
0000
,  // measure 48
0001
0000
0001
0000
,  // measure 49
0001
0000
0000
0000
,  // measure 50
1000
0000
1000
0000
,  // measure 51
1000
0000
0000
0000
,  // measure 52
0010
0000
0010
0000
,  // measure 53
0010
0000
0000
0000
,  // measure 54
0100
0000
0100
0000
,  // measure 55
0100
0000
0000
0000
,  // measure 56
0010
0000
0100
0000
,  // measure 57
0001
0000
0000
0000
,  // measure 58
1000
0000
0010
0000
,  // measure 59
0100
0000
0000
0000
,  // measure 60
0010
0000
1000
0000
,  // measure 61
0001
0000
0000
0000
,  // measure 62
0010
0000
0001
0000
,  // measure 63
1000
0000
0000
0000
,  // measure 64
0110
0000
0000
0000
,  // measure 65
1000
0000
0000
0000
,  // measure 66
0000
0000
0000
0000
,  // measure 67
0001
0000
0000
0000
,  // measure 68
0000
0000
0000
0000
,  // measure 69
0010
0000
0000
0000
,  // measure 70
0000
0000
0000
0000
,  // measure 71
0100
0000
0000
0000
,  // measure 72
1001
0000
0000
0000
;

//---------------dance-single - ----------------
#NOTEDATA:;
#CHARTNAME:;
#STEPSTYPE:dance-single;
#DESCRIPTION:;
#CHARTSTYLE:;
#DIFFICULTY:Easy;
#METER:6;
#RADARVALUES:0.275071,0.371950,0.103319,0.018785,0.000000,205.000000,194.000000,11.000000,2.000000,0.000000,0.000000,0.000000,0.000000,0.000000,0.275071,0.371950,0.103319,0.018785,0.000000,205.000000,194.000000,11.000000,2.000000,0.000000,0.000000,0.000000,0.000000,0.000000;
#CREDIT:Pandemonium X;
#NOTES:
// measure 0
0000
0000
0000
0000
,  // measure 1
0000
0000
0000
0000
,  // measure 2
0000
0000
0000
0000
,  // measure 3
0000
0000
0000
0000
,  // measure 4
0000
0000
0000
0000
,  // measure 5
0000
0000
0000
0000
,  // measure 6
0000
0000
0000
0000
,  // measure 7
0000
0000
0000
0000
,  // measure 8
0010
1001
0001
0001
,  // measure 9
1000
1000
1000
1000
,  // measure 10
0001
0001
0001
0001
,  // measure 11
1000
1000
1000
1000
,  // measure 12
0010
0010
0010
0010
,  // measure 13
0100
0100
0100
0100
,  // measure 14
0010
0100
0001
1000
,  // measure 15
1001
0000
0000
0000
,  // measure 16
1000
0100
0010
0001
,  // measure 17
1000
0100
0010
0001
,  // measure 18
1000
0100
0010
0001
,  // measure 19
1000
0100
0010
0001
,  // measure 20
0100
0010
1000
0001
,  // measure 21
0100
0010
1000
0001
,  // measure 22
0100
0010
1000
0001
,  // measure 23
1000
1001
0001
1001
,  // measure 24
0001
0001
1000
1000
,  // measure 25
0010
0010
0100
0100
,  // measure 26
0001
0001
0100
0100
,  // measure 27
0010
0010
1000
1000
,  // measure 28
0001
0100
1000
0100
,  // measure 29
0001
0010
1000
0010
,  // measure 30
0001
0100
1000
0100
,  // measure 31
0001
1000
0010
0100
,  // measure 32
1001
0000
0000
0000
,  // measure 33
1000
0100
0010
0001
,  // measure 34
0000
0000
0000
0000
,  // measure 35
0001
0010
0001
1000
,  // measure 36
0000
0000
0000
0000
,  // measure 37
0001
0100
0010
0100
,  // measure 38
0000
0000
0000
0000
,  // measure 39
0010
0100
0001
1000
,  // measure 40
1001
0000
0001
0000
,  // measure 41
1000
1000
1000
0000
,  // measure 42
0010
0000
0100
0000
,  // measure 43
0010
0010
0010
0000
,  // measure 44
0100
0000
0010
0000
,  // measure 45
1000
1000
1000
0000
,  // measure 46
0001
0000
1000
0000
,  // measure 47
0220
0000
0000
0330
,  // measure 48
1000
1000
1000
1000
,  // measure 49
0010
0000
0100
0000
,  // measure 50
0001
0001
0001
0001
,  // measure 51
0010
0000
0100
0000
,  // measure 52
1000
1000
1000
1000
,  // measure 53
0100
0000
1000
0000
,  // measure 54
0010
0010
0010
0010
,  // measure 55
0100
1001
0000
0000
,  // measure 56
0110
0100
0100
0100
,  // measure 57
0010
0000
0001
0000
,  // measure 58
0100
0100
0100
0100
,  // measure 59
0010
0000
1000
0000
,  // measure 60
0001
0001
0001
0001
,  // measure 61
1000
0000
0001
0000
,  // measure 62
0100
0100
0100
0100
,  // measure 63
0010
0000
0100
0000
,  // measure 64
1001
0000
0000
0000
,  // measure 65
1000
0100
0010
0001
,  // measure 66
0000
0000
0000
0000
,  // measure 67
0010
0001
0100
0010
,  // measure 68
0000
0000
0000
0000
,  // measure 69
0100
0001
1000
0100
,  // measure 70
0000
0000
0000
0000
,  // measure 71
0010
0001
0100
0010
,  // measure 72
1001
0000
0000
0000
;

//---------------dance-single - ----------------
#NOTEDATA:;
#CHARTNAME:;
#STEPSTYPE:dance-single;
#DESCRIPTION:;
#CHARTSTYLE:;
#DIFFICULTY:Medium;
#METER:10;
#RADARVALUES:0.391809,0.608645,0.432063,0.403885,0.075141,292.000000,246.000000,46.000000,43.000000,0.000000,0.000000,2.000000,0.000000,0.000000,0.391809,0.608645,0.432063,0.403885,0.075141,292.000000,246.000000,46.000000,43.000000,0.000000,0.000000,2.000000,0.000000,0.000000;
#CREDIT:Pandemonium X;
#NOTES:
// measure 0
0000
0000
0000
0000
,  // measure 1
0000
0000
0000
0000
,  // measure 2
0000
0000
0000
0000
,  // measure 3
0000
0000
0000
0000
,  // measure 4
0000
0000
0000
0000
,  // measure 5
0000
0000
0000
0000
,  // measure 6
0000
0000
0000
0000
0000
0000
0000
0001
,  // measure 7
0000
0000
1000
0000
0000
1000
0000
0000
2000
0000
0000
0000
3002
0000
0000
0000
,  // measure 8
1003
0110
0010
1000
,  // measure 9
0001
0010
0001
0100
,  // measure 10
0010
1000
0100
0010
,  // measure 11
0100
1000
0001
0100
,  // measure 12
0010
1000
0001
0010
,  // measure 13
0100
0010
0001
0100
,  // measure 14
0010
1000
0001
0010
,  // measure 15
0100
0100
0100
0100
,  // measure 16
2100
0100
0100
3100
,  // measure 17
0201
0001
0001
0301
,  // measure 18
0012
0010
0010
0013
,  // measure 19
2010
0010
0010
3010
,  // measure 20
0201
0010
0001
0310
,  // measure 21
1020
0100
1000
0130
,  // measure 22
2001
0010
0001
3010
,  // measure 23
0001
0100
0110
0000
0201
0000
0320
0000
,  // measure 24
1030
0101
0011
0101
,  // measure 25
1001
0110
1001
0110
,  // measure 26
1010
1100
1010
1100
,  // measure 27
1001
1010
1001
0011
,  // measure 28
0101
0110
1010
1100
,  // measure 29
0110
0011
0110
1100
,  // measure 30
0110
0101
1001
1010
,  // measure 31
0110
0101
0110
1001
,  // measure 32
0110
0000
0000
0000
,  // measure 33
2000
3000
0200
0300
0020
0030
0002
0003
,  // measure 34
0000
0000
0000
0000
,  // measure 35
0020
0030
0200
0300
2000
3000
0020
0030
,  // measure 36
0000
0000
0000
0000
,  // measure 37
0200
0300
0020
0030
2000
3000
0002
0003
,  // measure 38
0000
0000
0000
0000
,  // measure 39
0020
0030
0200
0300
2000
3000
0002
0003
,  // measure 40
1000
1000
0001
0001
,  // measure 41
1000
0001
1000
0001
,  // measure 42
1000
1000
0001
0001
,  // measure 43
1000
0001
1000
0001
,  // measure 44
0100
0100
0010
0010
,  // measure 45
0100
0010
0100
0010
,  // measure 46
0100
0010
1000
0001
,  // measure 47
4000
0004
0000
0000
0000
0000
0000
0000
0000
0000
0000
0000
3003
0000
0000
0000
,  // measure 48
0110
1000
0001
0010
,  // measure 49
0100
0000
0000
0100
0000
0000
0100
0000
1000
0000
0000
1000
0000
0000
1000
0000
,  // measure 50
0001
1000
0010
1000
,  // measure 51
0100
0000
0000
0100
0000
0000
0100
0000
1000
0000
0000
1000
0000
0000
1000
0000
,  // measure 52
0001
0100
0010
1000
,  // measure 53
0010
0000
0000
0010
0000
0000
0010
0000
0100
0000
0000
0100
0000
0000
0100
0000
,  // measure 54
0001
0010
0100
1000
,  // measure 55
0100
1000
1100
0000
0100
0000
1000
0000
,  // measure 56
0001
1000
0010
0100
,  // measure 57
0001
0000
0000
0100
0000
0000
0001
0000
0100
0000
0000
0010
0000
0000
1000
0000
,  // measure 58
0001
0010
0100
1000
,  // measure 59
0100
0000
0000
0010
0000
0000
0100
0000
0010
0000
0000
0001
0000
0000
0100
0000
,  // measure 60
0010
1000
0001
0010
,  // measure 61
0100
0000
0000
1000
0000
0000
0100
0000
1000
0000
0000
0100
0000
0000
0010
0000
,  // measure 62
0001
0100
0010
1000
,  // measure 63
0001
0000
0000
1000
0000
0000
0010
0000
0100
0000
0000
0001
0000
0000
1000
0000
,  // measure 64
1010
0000
0000
0000
,  // measure 65
2000
3000
0020
0030
2000
3000
0002
0003
,  // measure 66
0000
0000
0000
0000
,  // measure 67
0020
0030
0002
0003
2000
3000
0002
0003
,  // measure 68
0000
0000
0000
0000
,  // measure 69
0200
0300
0020
0030
2000
3000
0200
0300
,  // measure 70
0000
0000
0000
0000
,  // measure 71
0020
0030
0200
0300
2000
3000
0002
0003
,  // measure 72
1001
0000
0000
0000
;

//---------------dance-single - ----------------
#NOTEDATA:;
#CHARTNAME:;
#STEPSTYPE:dance-single;
#DESCRIPTION:;
#CHARTSTYLE:;
#DIFFICULTY:Hard;
#METER:14;
#RADARVALUES:0.542091,0.676272,0.159675,0.103319,0.629309,404.000000,387.000000,17.000000,11.000000,0.000000,0.000000,0.000000,0.000000,0.000000,0.542091,0.676272,0.159675,0.103319,0.629309,404.000000,387.000000,17.000000,11.000000,0.000000,0.000000,0.000000,0.000000,0.000000;
#CREDIT:Pandemonium X;
#NOTES:
// measure 0
0000
0000
0000
0000
,  // measure 1
0000
0000
0000
0000
,  // measure 2
0000
0000
0000
0000
,  // measure 3
0000
0000
0000
0000
,  // measure 4
0000
0000
0000
0000
,  // measure 5
0000
0000
0000
0000
,  // measure 6
0000
0000
0000
0000
0000
0000
0000
0000
0000
0000
0000
0000
1000
0001
1000
0000
,  // measure 7
0000
0000
1100
0000
0000
0101
0000
0000
2001
0000
0000
0000
3020
0000
0000
0000
,  // measure 8
0130
0000
1010
0000
0100
0001
0010
0000
,  // measure 9
0100
0000
0010
0000
0001
1000
0100
0000
,  // measure 10
0010
0000
0100
0000
1000
0010
0100
0000
,  // measure 11
0010
0000
0100
0000
0001
1000
0100
0010
,  // measure 12
0100
0000
1000
0000
0100
1000
0010
0000
,  // measure 13
0100
0000
0001
0000
0100
0001
1000
0000
,  // measure 14
1001
0000
0110
0000
0001
0100
0010
0000
,  // measure 15
1001
0000
0000
0000
0110
0000
0000
0000
1100
0000
0000
0000
1001
0000
0000
0001
,  // measure 16
0100
0000
0000
0100
0010
0000
0000
0010
1000
0000
0000
1000
0001
0000
0000
0001
,  // measure 17
0010
0000
0000
0010
0100
0000
0000
0100
1000
0000
0000
1000
0010
0000
0000
0010
,  // measure 18
0100
0000
0000
0100
0001
0000
0000
0001
1000
0000
0000
1000
0100
0000
0000
0100
,  // measure 19
0010
0000
0000
0010
0001
0000
0000
0001
0100
0000
0000
0100
0010
0000
0000
0010
,  // measure 20
1000
0000
0000
1000
0100
0000
0000
0100
0010
0000
0000
0010
0001
0000
0000
0001
,  // measure 21
0010
0000
0000
0010
0001
0000
0000
0001
0100
0000
0000
0100
0010
0000
0000
0010
,  // measure 22
1000
0000
0000
1000
0001
0000
0000
0001
0010
0000
0000
0010
0001
0000
0010
0000
,  // measure 23
0100
0000
0100
0000
0100
0010
0100
0000
0010
0000
0001
0100
0010
0000
1000
0000
,  // measure 24
0001
0000
1000
0000
0110
0000
0000
1000
0010
0000
0000
0100
0010
0000
0000
0010
,  // measure 25
1000
0000
0000
0010
0100
0000
0000
0010
1000
0000
0000
1000
0001
0000
0000
0001
,  // measure 26
0010
0000
0000
0100
0010
0000
0000
0001
0010
0000
0000
0100
0010
0000
0000
0001
,  // measure 27
0010
0000
0000
0100
0010
0000
0000
0001
1000
0000
0000
0010
1000
0000
0000
0001
,  // measure 28
1000
0000
0000
0010
0100
0000
0000
0001
1000
0000
0000
0010
0100
0000
0000
1000
,  // measure 29
0001
0000
0000
0010
0100
0000
0000
1000
0001
0000
0000
0010
0100
0000
0000
1000
,  // measure 30
0100
0000
0000
0010
0001
0000
0000
1000
0100
0000
0000
0010
0001
0000
0000
0001
,  // measure 31
0100
0000
0000
0010
1000
0000
0000
0001
0100
0000
0000
0010
1000
0000
0000
0000
,  // measure 32
2001
0000
0000
0000
,  // measure 33
0100
0010
0100
3002
,  // measure 34
0000
0000
0000
0000
,  // measure 35
0100
0010
1000
2003
,  // measure 36
0000
0000
0000
0000
,  // measure 37
0010
0010
0100
3002
,  // measure 38
0000
0000
0000
0000
,  // measure 39
0010
0010
1000
0103
,  // measure 40
1001
0001
0010
0100
,  // measure 41
0010
0000
0000
0010
0000
0000
0010
0000
0100
0000
0000
1000
0000
0000
0010
0000
,  // measure 42
0100
0001
0010
0001
,  // measure 43
0010
0000
0000
0010
0000
0000
0010
0000
0001
0000
0000
1000
0000
0000
0010
0000
,  // measure 44
0100
1000
0100
0001
,  // measure 45
1000
0000
0000
1000
0000
0000
1000
0000
0100
0000
0000
0010
0000
0000
0001
0000
,  // measure 46
0100
0010
1000
0100
0010
0001
1000
0010
,  // measure 47
0100
0000
0010
1000
0000
0010
0100
0000
0001
0000
0010
0100
2000
0000
0000
0000
,  // measure 48
3001
0000
0000
0001
0010
0000
0000
0010
0100
0000
0000
0100
1000
0000
0000
1000
,  // measure 49
0100
0000
0000
1000
0000
0000
0010
0000
0100
0000
0000
0001
0000
0010
0100
1000
,  // measure 50
0001
0000
0000
1000
0001
0000
0000
0001
0010
0000
0000
0010
0001
0000
0000
0001
,  // measure 51
0100
0000
0000
0100
0000
0000
0100
0000
0010
0000
0000
1000
0000
0010
1000
0100
,  // measure 52
0010
0000
0000
0010
0100
0000
0000
0100
1000
0000
0000
1000
0001
0000
0000
0001
,  // measure 53
0010
0000
0000
0001
0000
0000
0100
0000
0010
0000
0000
1000
0000
0010
1000
0001
,  // measure 54
1000
0000
0000
0010
0100
0000
0000
0010
1000
0000
0000
0100
0010
0000
0000
0100
,  // measure 55
1000
0000
0000
0010
0000
0000
1000
0000
0001
0000
1000
0010
0000
0100
0001
1000
,  // measure 56
0100
0000
0000
0010
0001
0000
0000
1000
0100
0000
0000
0010
0001
0000
0000
1000
,  // measure 57
0100
0000
0000
1000
0000
0000
0010
0000
0100
0000
0000
0001
0000
1000
0001
0010
,  // measure 58
0100
0000
0000
0010
0001
0000
0000
0010
0100
0000
0000
0010
0001
0000
0000
0010
,  // measure 59
0100
0000
0000
1000
0000
0000
0100
0000
1000
0000
0000
0010
0000
0100
0010
1000
,  // measure 60
0010
0000
0000
1000
0010
0000
0000
0100
0001
0000
0000
1000
0010
0000
0000
0100
,  // measure 61
0001
0000
0000
0010
0000
0000
0001
0000
1000
0000
0000
0100
0000
0010
0100
1000
,  // measure 62
0001
0000
0000
0100
0010
0000
0000
1000
0001
0000
0000
0010
0100
0000
0000
1000
,  // measure 63
0001
0000
0000
0101
0000
0000
1000
0000
1100
0000
0000
0001
0000
1000
0010
0000
,  // measure 64
0102
0000
0000
0000
,  // measure 65
1000
0100
0010
0203
,  // measure 66
0000
0000
0000
0000
,  // measure 67
1000
0001
1000
0320
,  // measure 68
0000
0000
0000
0000
,  // measure 69
1000
1000
0001
0230
,  // measure 70
0000
0000
0000
0000
,  // measure 71
0010
1000
0001
0301
,  // measure 72
1001
0000
0000
0000
;
