#VERSION:0.83;
#TITLE:Trance ReBorn;
#SUBTITLE:(FYH 100 Anthem);
#ARTIST:Andrew Rayel & David Gravell;
#TITLETRANSLIT:;
#SUBTITLETRANSLIT:;
#ARTISTTRANSLIT:;
#GENRE:;
#ORIGIN:;
#CREDIT:;
#BANNER:Trance ReBorn.png;
#BACKGROUND:Trance ReBorn-bg.png;
#PREVIEWVID:;
#JACKET:Trance ReBorn-jacket.png;
#CDIMAGE:;
#DISCIMAGE:;
#LYRICSPATH:;
#CDTITLE:cdtitle.png;
#MUSIC:Trance_ReBorn.ogg;
#OFFSET:0.000000;
#SAMPLESTART:52.751999;
#SAMPLELENGTH:15.000000;
#SELECTABLE:YES;
#BPMS:0.000=132.000;
#STOPS:;
#DELAYS:;
#WARPS:;
#TIMESIGNATURES:0.000=4=4;
#TICKCOUNTS:0.000=4;
#COMBOS:0.000=1;
#SPEEDS:0.000=1.000=0.000=0;
#SCROLLS:0.000=1.000;
#FAKES:;
#LABELS:0.000=Song Start;
#BGCHANGES:;
#KEYSOUNDS:;
#ATTACKS:
;

//---------------dance-single - ----------------
#NOTEDATA:;
#CHARTNAME:;
#STEPSTYPE:dance-single;
#DESCRIPTION:;
#CHARTSTYLE:;
#DIFFICULTY:Easy;
#METER:8;
#RADARVALUES:0.318155,0.367127,0.281236,0.030404,0.003800,293.000000,256.000000,37.000000,4.000000,0.000000,0.000000,0.000000,0.000000,0.000000,0.318155,0.367127,0.281236,0.030404,0.003800,293.000000,256.000000,37.000000,4.000000,0.000000,0.000000,0.000000,0.000000,0.000000;
#CREDIT:darkanine;
#NOTES:
// measure 0
0000
0000
0000
0000
,  // measure 1
0000
0000
0000
0000
,  // measure 2
0000
0000
0000
0000
,  // measure 3
1000
0000
1000
0000
1000
0000
0000
0100
,  // measure 4
1000
1000
0010
0010
,  // measure 5
0001
0000
0001
0000
0001
0000
0000
0010
,  // measure 6
0100
0100
0001
0001
,  // measure 7
0010
0000
0010
0000
0010
0000
0000
0100
,  // measure 8
0010
0010
0010
0001
,  // measure 9
1000
0010
0100
0001
,  // measure 10
1000
0100
0010
0001
,  // measure 11
0010
0000
0010
0000
0010
0000
0000
1000
,  // measure 12
0010
0010
0001
0001
,  // measure 13
1000
0000
1000
0000
1000
0000
0000
0100
,  // measure 14
1000
1000
0010
0010
,  // measure 15
0001
0000
0001
0000
0001
0000
0000
0010
,  // measure 16
0100
0100
0100
0001
,  // measure 17
0010
0100
1000
0100
,  // measure 18
0001
0100
1000
0001
,  // measure 19
0010
0000
0010
0000
0010
0000
0000
0100
,  // measure 20
0010
0010
0010
0001
,  // measure 21
1000
0000
1000
0000
1000
0000
0000
0100
,  // measure 22
1000
1000
0010
0010
,  // measure 23
0100
0000
0100
0000
0100
0000
0000
0001
,  // measure 24
0100
0100
0100
1000
,  // measure 25
0100
0001
1000
0100
,  // measure 26
0010
0001
1000
0010
,  // measure 27
0000
0000
0000
0000
,  // measure 28
0000
0000
0000
0000
,  // measure 29
1000
1000
1000
0000
,  // measure 30
0100
0100
1000
1000
,  // measure 31
0001
0001
0001
0000
,  // measure 32
1000
1000
0100
0100
,  // measure 33
0010
0010
0010
0000
,  // measure 34
0100
0100
0010
0010
,  // measure 35
0001
0001
0001
0000
,  // measure 36
1000
1000
0001
0001
,  // measure 37
1100
1100
1100
0000
,  // measure 38
1000
1000
0010
0010
,  // measure 39
0101
0101
0101
0000
,  // measure 40
0001
0001
0010
0010
,  // measure 41
1010
1010
1010
0000
,  // measure 42
0010
0010
0001
0001
,  // measure 43
1001
1001
1001
0000
,  // measure 44
1000
1000
0020
0130
,  // measure 45
0001
0001
0010
0010
,  // measure 46
1000
1000
0100
0100
,  // measure 47
0001
0001
0010
0010
,  // measure 48
1000
1000
0100
0100
,  // measure 49
0001
0010
0100
1000
,  // measure 50
0001
0100
0010
2000
,  // measure 51
0100
0100
0100
0100
,  // measure 52
0100
0100
0100
3000
,  // measure 53
0110
0000
1001
0000
0110
0000
1000
0010
,  // measure 54
1000
0100
0001
0001
,  // measure 55
0110
0000
1001
0000
0110
0000
0001
0100
,  // measure 56
0001
0001
0010
0010
,  // measure 57
1100
0000
0011
0000
1100
0000
0100
1000
,  // measure 58
0100
0100
0010
0010
,  // measure 59
0101
0000
1010
0000
0101
0000
1000
0001
,  // measure 60
1000
2000
3000
0110
,  // measure 61
0101
0000
1100
0000
0101
0000
1000
0100
,  // measure 62
1000
0010
0100
0100
,  // measure 63
1010
0000
0011
0000
1010
0000
0001
0010
,  // measure 64
0001
0000
0000
0000
1000
0000
0000
0000
0010
0000
0000
0010
0000
0000
0010
0000
,  // measure 65
0100
0000
1010
0000
0110
0000
1000
0001
,  // measure 66
1000
0100
0001
0001
,  // measure 67
0110
0000
0011
0000
1001
0000
1000
0001
,  // measure 68
2000
0000
0100
0000
0010
3000
1000
0000
,  // measure 69
0101
0000
0000
0000
;

//---------------dance-single - ----------------
#NOTEDATA:;
#CHARTNAME:;
#STEPSTYPE:dance-single;
#DESCRIPTION:;
#CHARTSTYLE:;
#DIFFICULTY:Hard;
#METER:13;
#RADARVALUES:0.509266,0.578482,0.372448,0.159621,0.326842,469.000000,420.000000,49.000000,21.000000,6.000000,1.000000,0.000000,0.000000,0.000000,0.509266,0.578482,0.372448,0.159621,0.326842,469.000000,420.000000,49.000000,21.000000,6.000000,1.000000,0.000000,0.000000,0.000000;
#CREDIT:darkanine;
#NOTES:
// measure 0
0000
0000
0000
0000
,  // measure 1
0000
0000
0000
0000
,  // measure 2
0000
0000
0000
0000
,  // measure 3
1000
0000
1000
0000
1000
0000
0000
0200
,  // measure 4
1000
1000
0001
0001
,  // measure 5
0010
0000
0010
0000
0010
0300
0M00
0002
,  // measure 6
0010
0010
0100
0100
,  // measure 7
1000
0000
1000
0000
1000
0003
000M
0020
,  // measure 8
1000
1000
1000
0001
,  // measure 9
0230
1000
0010
0302
,  // measure 10
2003
3200
0010
0302
,  // measure 11
0100
0000
0100
0000
0100
0003
000M
0020
,  // measure 12
0100
0000
0100
0000
1000
1000
1000
0000
,  // measure 13
0001
0000
0001
0000
0001
0030
00M0
2000
,  // measure 14
0001
0000
0001
0000
0100
0100
0100
0000
,  // measure 15
0010
0000
0010
0000
0010
3000
M000
0200
,  // measure 16
0010
0010
0010
1000
,  // measure 17
0302
0000
0023
0000
0130
1000
0010
0100
,  // measure 18
1000
0100
0001
1000
0100
0010
0001
2000
,  // measure 19
0010
0000
0010
0000
0010
3000
M000
0200
,  // measure 20
0010
0000
0010
0300
0001
0100
0001
1000
,  // measure 21
0100
0010
0100
0010
0200
0000
0300
1000
,  // measure 22
0100
0010
0100
0010
0001
0010
0001
1000
,  // measure 23
0010
0100
0010
0100
0020
0000
0030
1000
,  // measure 24
0010
0100
0010
0100
0010
0100
0001
0010
,  // measure 25
0100
0001
0100
1000
0001
0100
1000
0100
,  // measure 26
0001
1000
0100
0010
1000
0010
0001
1000
,  // measure 27
0000
0000
0000
0000
,  // measure 28
0000
0000
0000
0000
,  // measure 29
1001
0000
0000
1001
0000
0001
1000
0000
1001
0000
0000
0000
0001
1000
0001
1000
,  // measure 30
0100
0000
0000
0100
0000
1000
0001
0000
0010
0000
0000
0010
0000
0001
1000
0000
,  // measure 31
1010
0000
0000
1010
0000
0010
1000
0000
1010
0000
0000
0000
0010
1000
0010
1000
,  // measure 32
0001
0000
0000
0001
0000
0100
0010
0000
1000
0000
0000
1000
0000
0010
0100
0000
,  // measure 33
0011
0000
0000
0011
0000
0001
0010
0000
0011
0000
0000
0000
0001
0010
0001
0010
,  // measure 34
0100
0000
0000
0100
0000
1000
0010
0000
0001
0000
0000
0001
0000
0010
1000
0000
,  // measure 35
1001
0000
0000
1001
0000
0001
1000
0000
1001
0000
0000
0000
0001
1000
0001
1000
,  // measure 36
0100
0000
0000
0100
0000
0010
0001
0000
1000
0000
0000
1000
0000
0001
0010
0000
,  // measure 37
0001
0000
0000
1000
0001
0000
0100
0000
0001
0000
0000
0000
1001
0000
1000
0000
,  // measure 38
1001
0000
0000
0001
0100
0000
0010
0000
1000
0000
0000
1000
0001
0000
0010
0000
,  // measure 39
0100
0000
0000
0010
0100
0000
1000
0000
0100
0000
0000
0000
0110
0000
0010
0000
,  // measure 40
0110
0000
0000
1000
0100
0000
0001
0000
1000
0000
0000
0001
0100
0000
1000
0000
,  // measure 41
0010
0000
0000
0100
0010
0000
0001
0000
0010
0000
0000
0000
1010
0000
0010
0000
,  // measure 42
1010
0000
0000
0100
0001
0000
1000
0000
1001
0000
0000
0010
0001
0000
1000
0000
,  // measure 43
0100
0000
0000
0001
0100
0000
0010
0000
0100
0000
0000
0000
1100
0000
0100
0000
,  // measure 44
1000
0000
0000
1000
0000
0000
1000
0000
0001
0000
0000
0001
0200
0000
0000
0000
,  // measure 45
0310
0000
0010
1000
0010
0000
0010
0001
,  // measure 46
0010
0000
0010
1000
0010
0100
0100
0000
,  // measure 47
0100
0000
0100
0001
0100
0000
0100
1000
,  // measure 48
0100
0000
0100
0001
0100
0010
0010
0000
,  // measure 49
1000
1000
0100
0010
1000
1000
0010
0100
,  // measure 50
1000
1000
0100
0001
1000
1000
0010
0001
,  // measure 51
1000
1000
0001
0001
1000
1000
0001
0001
,  // measure 52
0200
0010
0010
0010
0010
0010
0300
0000
,  // measure 53
0110
0000
0000
0000
1001
0000
0000
0000
0110
0000
0000
0000
1000
0001
0010
0100
,  // measure 54
1000
0000
0000
1000
0000
1000
0100
0000
0001
0000
0000
0001
0000
0000
0001
0000
,  // measure 55
0110
0000
0000
0000
1010
0000
0000
0000
0101
0000
0000
0000
1000
0010
1000
0010
,  // measure 56
0100
0000
0000
0100
0000
0001
0010
0000
0100
0000
0000
0100
0000
1000
0010
0000
,  // measure 57
0110
0000
0000
0000
1100
0000
0000
0000
0011
0000
0000
0000
0100
1000
0100
1000
,  // measure 58
0010
0000
0000
0010
0000
0001
1000
0000
0100
0000
0000
0100
0000
0001
1000
0000
,  // measure 59
1001
0000
0000
0000
0110
0000
0000
0000
1001
0000
0000
0000
1000
0100
0001
0100
,  // measure 60
1000
0000
0000
1000
0000
0100
1000
0000
2000
0000
0000
0000
3101
0000
0000
0000
,  // measure 61
1010
0000
0000
0000
0011
0000
0000
0000
1100
0000
0000
0000
0100
1000
0001
0100
,  // measure 62
0010
0000
0000
0010
0000
0100
0010
0000
0100
0000
0000
0100
0000
0010
1000
0000
,  // measure 63
0011
0000
0000
0000
1010
0000
0000
0000
0011
0000
0000
0000
0001
0010
1000
0010
,  // measure 64
0001
0000
0000
0001
0000
0000
0001
0000
1010
0000
0000
1001
0000
0000
0110
0000
,  // measure 65
0110
0000
0000
0000
1100
0000
0000
0000
0110
0000
0000
0000
0001
1000
0100
1000
,  // measure 66
0001
0000
0000
0001
0000
0100
0010
0000
0001
0000
0000
0001
0000
0010
0100
0000
,  // measure 67
0110
0000
0000
0000
0110
0000
0000
0000
0110
0000
0000
0000
0010
1000
0010
0001
,  // measure 68
0010
0000
0000
1000
0000
1000
0100
0000
0001
0000
0000
0000
0110
0000
0000
0000
,  // measure 69
2000
0000
0000
3000
0000
0000
0000
0000
0000
0000
0000
0000
0000
0000
0000
0000
;

//---------------dance-single - ----------------
#NOTEDATA:;
#CHARTNAME:;
#STEPSTYPE:dance-single;
#DESCRIPTION:;
#CHARTSTYLE:;
#DIFFICULTY:Challenge;
#METER:15;
#RADARVALUES:0.601563,0.789552,0.205226,0.820906,0.513066,554.000000,525.000000,27.000000,108.000000,17.000000,10.000000,0.000000,0.000000,0.000000,0.601563,0.789552,0.205226,0.820906,0.513066,554.000000,525.000000,27.000000,108.000000,17.000000,10.000000,0.000000,0.000000,0.000000;
#CREDIT:Pandemonium X;
#NOTES:
0000
0000
0000
0000
,
0000
0000
0000
0000
,
0000
0000
0000
0000
,
1000
0100
1000
0100
1000
0000
0000
0001
,
0100
0010
0100
0010
0100
0001
0100
0001
,
0010
0001
0010
0001
0010
0000
0000
0100
,
1000
0001
1000
0001
0100
0001
0100
0001
,
0100
0010
0100
0010
0100
0000
0000
0010
,
1000
0100
1000
0100
1000
0100
0010
0001
,
1000
0010
0100
0010
0001
0010
1000
0001
,
0010
0100
1000
0001
1000
0100
0010
0001
,
1000
1000
0001
1000
0001
0000
0000
1000
,
0010
0010
0100
0010
0100
0200
0310
2000
,
3001
0001
0100
0001
0100
0000
0000
0010
,
1000
1000
0001
1000
0001
0002
1003
0002
,
0013
0010
0100
0010
0100
0000
0000
0010
,
0001
0000
0001
0000
1000
0000
0001
0000
1000
0000
1000
0100
0010
0000
0200
0000
,
0310
0001
0100
1000
0200
0302
0023
0032
,
1003
0010
0001
0010
1000
0100
0001
0100
,
1000
1000
0001
0001
1000
0000
0000
0001
,
0020
1030
0020
0130
0020
0032
0203
0320
,
2030
3100
2000
3001
2000
0000
3000
0001
,
0200
0301
0200
0310
0200
2300
3200
0302
,
2003
3010
2000
3100
2000
0000
3000
0010
,
0200
1300
0200
0301
0200
0310
2000
3001
,
0200
0320
2030
3002
0023
2030
3020
0032
,
0203
2300
3200
0320
2030
3002
0023
0230
,
0300
0000
0000
0000
,
0000
0000
0000
0000
,
1000
0000
0000
1000
0000
1000
0001
0000
2000
0000
0000
0000
3100
0010
0100
0010
,
0100
0000
0000
1000
0000
0010
0100
0000
0001
0000
0000
0010
0000
0100
0010
0000
,
0001
0000
0000
0001
0000
0001
1000
0000
0020
0000
0000
0000
0130
0001
0100
0001
,
0010
0000
0000
0010
0000
0100
0010
0000
0100
0000
0000
0100
0000
1000
0100
0000
,
0010
0000
0000
0010
0000
0010
0001
0000
0200
0000
0000
0000
0301
0010
0001
0010
,
0001
0000
0000
0001
0000
1000
0010
0000
0100
0000
0000
0100
0000
0010
1000
0000
,
0100
0000
0000
0100
0000
0100
0010
0000
0002
0000
0000
0000
1003
0010
1000
0010
,
0100
0000
0000
0100
0000
0100
0010
0000
1000
0000
0000
1000
0000
1000
0001
0000
,
0010
0000
0001
0010
0000
0010
0100
0000
2000
0000
0000
0000
3001
1000
0001
1000
,
0002
0000
0000
0100
0000
1003
0200
0000
0320
0000
0000
0001
0000
0130
1000
0000
,
0010
0000
1000
0010
0000
0100
0001
0000
0020
0000
0000
0000
0130
1000
0100
1000
,
0200
0000
0000
0010
0000
1300
0010
0000
0200
0000
0000
0001
0000
0310
1000
0000
,
0001
0000
1000
0010
0000
0100
0001
0000
0020
0000
0000
0000
0130
1000
0100
1000
,
0200
0000
0000
1000
0000
0310
0001
0000
0200
0000
0000
0010
0000
0301
1000
0000
,
0100
0000
0010
0100
0000
0010
0001
0000
2000
0000
0000
0000
3010
0100
0010
0100
,
0020
0000
0000
1000
0000
0130
0001
0000
0010
0000
0000
0000
1011
0000
0000
0000
,
0001
0000
0000
0001
0000
0000
0002
0000
1000
0000
0000
1000
0000
0000
2003
0000
,
0010
0000
0000
0010
0000
0000
3020
0000
0100
0000
0000
0100
0000
0000
0230
0000
,
0001
0000
0000
0001
0000
0000
0302
0000
0010
0000
0000
0010
0000
0000
0023
0000
,
0100
0000
0000
0100
0000
0000
0230
0000
0010
0000
0000
0010
0000
0000
0310
0000
,
0100
1000
0100
1000
0100
0010
0001
1000
,
0001
0100
0001
0100
0001
0100
0010
1000
,
0001
1000
0001
1000
0001
1000
0001
1000
0010
0100
0010
0100
0010
0100
0010
0100
,
0001
0100
0001
0100
0010
0100
0010
1000
0010
0100
0001
1000
0000
0000
0000
0000
,
2002
0000
0000
0000
3223
0000
M00M
0000
2332
0000
0MM0
0003
3001
0100
M001
0100
,
0001
0000
0100
0010
0000
1000
0100
0000
0010
0000
0100
1000
0000
0001
0100
0000
,
2002
0000
0000
0000
3223
0000
M00M
0000
2332
0000
0MM0
3000
1003
0100
1000
0100
,
0010
0000
0100
0010
0000
0100
1000
0000
0010
0000
0100
0001
0000
0010
0100
0000
,
2002
0000
0000
0000
3223
0000
M00M
0000
2332
0000
0MM0
0003
3001
0010
0001
0010
,
0001
0000
0010
0100
0000
0010
0001
0000
0100
0000
0010
1000
0000
0010
0100
0000
,
2002
0000
0000
0000
3223
0000
M00M
0000
2332
0000
0MM0
3000
1003
0100
1000
0100
,
0010
0000
0100
1000
0000
0010
0100
0000
0001
0000
0000
0000
1101
0000
0000
0000
,
0201
0000
0310
0000
0102
0000
0013
0000
0201
0000
0310
0000
1000
0001
1000
0001
,
0010
0000
0100
0010
0000
0001
0100
0000
0010
0000
1000
0100
0000
0010
0001
0000
,
2010
0000
3100
0000
2100
0000
3010
0000
2010
0000
3100
0000
0010
0001
0010
0001
,
0010
0000
0001
0100
0000
0001
0010
0000
0100
0000
0010
0100
0000
1000
0001
0000
,
0201
0000
0310
0000
0102
0000
0013
0000
0201
0000
0310
0000
1000
0010
1000
0010
,
1000
0000
0010
0100
0000
0001
1000
0000
0100
0000
0010
0001
0000
0010
0100
0000
,
2100
0000
3010
0000
2010
0000
3100
0000
2100
0000
3010
0000
0100
0010
0100
0010
,
0100
0000
0000
0100
0000
0100
0010
0000
1000
0000
0000
1000
0000
1000
0001
0000
,
0220
0330
0000
0000
;

//---------------dance-single - ----------------
#NOTEDATA:;
#CHARTNAME:;
#STEPSTYPE:dance-single;
#DESCRIPTION:;
#CHARTSTYLE:;
#DIFFICULTY:Beginner;
#METER:5;
#RADARVALUES:0.162878,0.209787,0.053207,0.000000,0.000000,150.000000,143.000000,7.000000,0.000000,0.000000,0.000000,0.000000,0.000000,0.000000,0.162878,0.209787,0.053207,0.000000,0.000000,150.000000,143.000000,7.000000,0.000000,0.000000,0.000000,0.000000,0.000000,0.000000;
#CREDIT:Pandemonium X;
#NOTES:
0000
0000
0000
0000
,
0000
0000
0000
0000
,
0000
0000
0000
0000
,
0001
0000
0000
0000
,
1000
0000
0001
0000
,
0100
0000
0000
0000
,
0100
0000
0010
0000
,
1000
0000
0000
0000
,
1000
0000
0001
0000
,
0010
0000
0100
0000
,
1000
0000
0100
0000
,
0010
0000
0000
0000
,
0001
0000
1000
0000
,
0001
0000
0000
0000
,
0100
0000
0010
0000
,
1000
0000
0000
0000
,
0100
0000
0010
0000
,
0100
0000
1000
0000
,
0001
0000
0100
0000
,
0010
0010
0010
0000
,
0100
0000
0010
0000
,
1000
1000
1000
0000
,
0001
0000
1000
0000
,
0100
0100
0100
0000
,
0010
0000
0001
0000
,
0100
0000
0010
0000
,
1000
0000
0001
0000
,
0000
0000
0000
0000
,
0000
0000
0000
0000
,
0110
0000
0000
0100
,
0010
0000
1000
0000
,
1001
0000
0000
0001
,
0010
0000
0100
0000
,
0110
0000
0000
0010
,
0001
0000
1000
0000
,
0110
0000
0000
0100
,
0010
0000
1000
0000
,
0001
0001
0001
0000
,
1000
0000
0010
0000
,
0100
0100
0100
0000
,
0010
0000
1000
0000
,
0100
0100
0100
0000
,
0010
0000
0001
0000
,
1000
1000
1000
0000
,
0001
0000
1000
0110
,
0001
0000
1000
0000
,
0010
0000
1000
0000
,
0100
0000
0010
0000
,
0001
0000
0010
0000
,
0100
0000
1000
0000
,
0010
0000
0100
0000
,
0001
0000
1000
0000
,
0010
0000
0100
0000
,
0010
0010
0010
0010
,
0100
0000
0001
0000
,
1000
1000
1000
1000
,
0001
0000
0010
0000
,
0100
0100
0100
0100
,
0010
0000
0100
0000
,
1000
1000
1000
0001
,
1000
0000
0000
0110
,
0100
0010
1000
0000
,
0001
0000
1000
0000
,
0100
0010
0001
0000
,
0010
0000
0001
0000
,
0100
0010
0100
0000
,
0010
0000
1000
0000
,
0001
1000
0001
0000
,
0010
0000
0100
0000
,
1001
0000
0000
0000
;

//---------------dance-single - ----------------
#NOTEDATA:;
#CHARTNAME:;
#STEPSTYPE:dance-single;
#DESCRIPTION:;
#CHARTSTYLE:;
#DIFFICULTY:Medium;
#METER:11;
#RADARVALUES:0.393079,0.473731,0.121616,0.380049,0.159621,362.000000,346.000000,16.000000,50.000000,0.000000,0.000000,0.000000,0.000000,0.000000,0.393079,0.473731,0.121616,0.380049,0.159621,362.000000,346.000000,16.000000,50.000000,0.000000,0.000000,0.000000,0.000000,0.000000;
#CREDIT:Pandemonium X;
#NOTES:
// measure 0
0000
0000
0000
0000
,  // measure 1
0000
0000
0000
0000
,  // measure 2
0000
0000
0000
0000
,  // measure 3
0001
0000
0001
0000
0010
0000
0000
0100
,  // measure 4
0010
0010
0001
0100
,  // measure 5
0010
0000
0010
0000
1000
0000
0000
0100
,  // measure 6
1000
1000
0001
0001
,  // measure 7
0010
0000
0010
0000
0100
0000
0000
0010
,  // measure 8
0001
0001
1000
1000
,  // measure 9
0001
0100
0010
0000
0100
0010
1000
0000
,  // measure 10
0100
0010
0001
0000
0010
0100
1000
0010
,  // measure 11
0100
0000
0100
0000
0010
0000
0000
0100
,  // measure 12
0001
0000
0001
0000
1000
0200
0000
0320
,  // measure 13
0130
0000
1000
0000
0010
0000
0000
0100
,  // measure 14
0010
0000
0010
0000
0100
0002
0000
0023
,  // measure 15
0130
0000
0010
0000
0001
0000
0000
0010
,  // measure 16
0001
0000
0001
0000
0001
1000
0001
0100
,  // measure 17
0002
0000
0023
0000
0130
0010
0001
1000
,  // measure 18
0200
0000
0320
0000
0130
1000
0001
0010
,  // measure 19
0100
0000
0100
0000
1000
0000
0000
0100
,  // measure 20
0010
0000
0100
0000
0010
0001
0100
0010
,  // measure 21
1000
0000
1000
0000
0002
0000
0003
1000
,  // measure 22
0100
0000
0100
0000
1000
0100
0010
0100
,  // measure 23
1000
0000
1000
0000
0020
0000
0030
0100
,  // measure 24
0001
0000
0001
0000
0001
0010
0100
0010
,  // measure 25
0001
0100
0020
0000
0130
0010
2000
0000
,  // measure 26
3002
0023
2030
3020
0230
0320
0032
2000
,  // measure 27
3003
0000
0000
0000
,  // measure 28
0000
0000
0000
0000
,  // measure 29
0001
0000
0000
0001
0000
0000
1000
0000
0200
0000
0000
0000
0310
0000
0000
0000
,  // measure 30
0100
1000
0010
0100
,  // measure 31
0001
0000
0000
0001
0000
0000
0100
0000
0020
0000
0000
0000
1030
0000
0000
0000
,  // measure 32
0001
0010
0001
0100
,  // measure 33
0010
0000
0000
0010
0000
0000
1000
0000
0002
0000
0000
0000
0013
0000
0000
0000
,  // measure 34
0100
0010
0001
1000
,  // measure 35
0100
0000
0000
0100
0000
0000
0010
0000
0002
0000
0000
0000
0103
0000
0000
0000
,  // measure 36
0010
1000
0001
0010
,  // measure 37
0100
0000
0000
0010
0000
0001
0100
0000
0020
0000
0000
0000
1030
0000
1000
0000
,  // measure 38
0010
0100
0001
1000
,  // measure 39
0100
0000
0000
0010
0000
0100
1000
0000
0020
0000
0000
0000
0130
0000
0100
0000
,  // measure 40
0010
1000
0001
0010
,  // measure 41
0100
0000
0000
0010
0000
0001
0100
0000
0002
0000
0000
0000
0103
0000
0100
0000
,  // measure 42
0010
1000
0001
0010
,  // measure 43
0100
0000
0000
0010
0000
0100
1000
0000
2000
0000
0000
0000
3100
0000
0100
0000
,  // measure 44
0010
0001
1000
0110
,  // measure 45
0002
0103
2000
3100
,  // measure 46
0002
0103
2000
3100
,  // measure 47
2000
3010
2000
3001
,  // measure 48
0002
0013
0002
1003
,  // measure 49
0001
0100
0001
0000
0100
0010
0100
0000
,  // measure 50
0010
1000
0010
0000
1000
0100
1000
0000
,  // measure 51
0001
0010
0100
1000
0100
0010
0100
1000
,  // measure 52
0001
0010
0100
1000
0010
0100
0000
0000
,  // measure 53
0101
0000
1100
0000
0101
0000
0001
1000
,  // measure 54
0100
0000
0000
0100
0000
0100
0010
0000
0010
0000
0000
0010
0000
0010
0001
0000
,  // measure 55
1001
0000
0110
0000
1001
0000
0001
0001
,  // measure 56
1000
0000
0000
1000
0000
1000
0010
0000
0010
0000
0000
0010
0000
0010
0100
0000
,  // measure 57
0110
0000
1001
0000
0110
0000
0100
0100
,  // measure 58
0010
0000
0000
0010
0000
0100
0001
0000
0001
0000
0000
1000
0000
0001
1000
0000
,  // measure 59
1100
0000
0101
0000
1100
0000
0100
0010
,  // measure 60
0001
0000
0000
0010
0000
0100
1000
0000
0010
0000
0000
0000
1001
0000
0000
0000
,  // measure 61
0201
0000
2300
0000
3200
0000
0301
0100
,  // measure 62
0010
0000
0000
1000
0000
0010
1000
0000
0010
0000
0000
0100
0000
0001
0100
0000
,  // measure 63
0002
0000
0023
0000
2030
0000
3010
0001
,  // measure 64
1000
0000
0000
0001
0000
0010
0100
0000
0010
0000
0000
0001
0000
0100
0010
0000
,  // measure 65
2000
0000
3200
0000
0302
0000
0103
1000
,  // measure 66
0010
0000
0000
0100
0000
0010
1000
0000
0001
0000
0000
0010
0000
0100
0010
0000
,  // measure 67
0002
0000
0023
0000
2030
0000
3010
0001
,  // measure 68
0100
0000
0000
0010
0000
1000
0001
0000
0010
0000
0000
0100
0000
1000
0010
0000
,  // measure 69
0202
0303
0000
0000
;
