#VERSION:0.83;
#TITLE:TRUST IN DREAM;
#SUBTITLE:;
#ARTIST:PP;
#TITLETRANSLIT:;
#SUBTITLETRANSLIT:;
#ARTISTTRANSLIT:;
#GENRE:;
#ORIGIN:;
#CREDIT:;
#BANNER:TRUST IN DREAM.png;
#BACKGROUND:TRUST IN DREAM-bg.png;
#PREVIEWVID:;
#JACKET:TRUST IN DREAM-jacket.png;
#CDIMAGE:;
#DISCIMAGE:;
#LYRICSPATH:;
#CDTITLE:cdtitle.png;
#MUSIC:TRUST IN DREAM.ogg;
#OFFSET:-0.020000;
#SAMPLESTART:93.934998;
#SAMPLELENGTH:12.165000;
#SELECTABLE:YES;
#BPMS:0.000=138.000;
#STOPS:203.500=3.478,
236.000=0.217,
236.250=0.217,
236.500=0.217,
236.750=0.217;
#DELAYS:;
#WARPS:;
#TIMESIGNATURES:0.000=4=4;
#TICKCOUNTS:0.000=4;
#COMBOS:0.000=1;
#SPEEDS:0.000=1.000=0.000=0;
#SCROLLS:0.000=1.000;
#FAKES:;
#LABELS:0.000=Song Start;
#BGCHANGES:;
#KEYSOUNDS:;
#ATTACKS:
;

//---------------dance-single - ----------------
#NOTEDATA:;
#CHARTNAME:;
#STEPSTYPE:dance-single;
#DESCRIPTION:;
#CHARTSTYLE:;
#DIFFICULTY:Beginner;
#METER:2;
#RADARVALUES:0.101380,0.215918,0.067946,0.000000,0.000000,94.000000,85.000000,9.000000,0.000000,0.000000,0.000000,0.000000,0.000000,0.000000,0.101380,0.215918,0.067946,0.000000,0.000000,94.000000,85.000000,9.000000,0.000000,0.000000,0.000000,0.000000,0.000000,0.000000;
#CREDIT:PURE;
#NOTES:
// measure 0
0000
0000
0000
0000
,  // measure 1
0000
0000
0000
0000
,  // measure 2
0000
0000
0000
0000
,  // measure 3
0110
0000
0000
0000
,  // measure 4
0001
0000
0000
0000
,  // measure 5
1000
0000
0000
0100
,  // measure 6
1000
0000
0000
0000
,  // measure 7
0010
0000
0000
0100
,  // measure 8
0001
0000
0000
0000
,  // measure 9
0001
0000
0000
0010
,  // measure 10
0100
0000
0000
0000
,  // measure 11
0010
0000
0000
0000
,  // measure 12
1001
0000
0000
0000
,  // measure 13
0001
0000
0000
1000
,  // measure 14
0010
0000
0000
0000
,  // measure 15
0100
0000
0000
0010
,  // measure 16
1000
0000
0000
0000
,  // measure 17
0100
0000
0000
0100
,  // measure 18
0010
0000
0000
0000
,  // measure 19
0001
0000
0000
1000
0000
0000
0010
0000
,  // measure 20
1001
0000
0000
0000
,  // measure 21
0000
0000
0001
0000
,  // measure 22
1000
0000
0000
0000
,  // measure 23
0000
0000
0001
0000
,  // measure 24
1000
0000
0000
0000
,  // measure 25
0000
0000
0010
0000
,  // measure 26
0100
0000
0000
0000
,  // measure 27
0010
0000
0000
0000
,  // measure 28
1001
0000
0000
0000
,  // measure 29
0000
0000
1000
0000
,  // measure 30
0001
0000
0000
0000
,  // measure 31
0000
0000
1000
0000
,  // measure 32
0001
0000
0000
0000
,  // measure 33
0000
0000
0000
0000
,  // measure 34
0100
0000
0000
0000
,  // measure 35
0010
0000
0000
0000
,  // measure 36
1001
0000
0000
0000
,  // measure 37
0000
0000
0001
0000
,  // measure 38
0000
0000
0000
0000
,  // measure 39
1000
0000
0001
0000
,  // measure 40
0100
0000
0000
0000
,  // measure 41
0000
0000
0000
0000
,  // measure 42
0010
0000
0000
0000
,  // measure 43
0100
0000
0010
0000
,  // measure 44
1000
0000
0000
0000
,  // measure 45
0100
0000
0000
0000
,  // measure 46
0010
0000
0000
0000
,  // measure 47
0001
0000
0000
0000
,  // measure 48
0100
0000
0000
0000
,  // measure 49
0010
0000
0000
0000
,  // measure 50
1000
0000
0000
0000
,  // measure 51
1001
0000
0000
0110
0000
0000
1001
0000
,  // measure 52
0001
0000
0000
0000
,  // measure 53
1000
0000
0000
0010
,  // measure 54
0100
0000
0000
0000
,  // measure 55
0010
0000
0000
1000
,  // measure 56
0100
0000
0000
0000
,  // measure 57
0010
0000
0000
0001
,  // measure 58
0100
0000
0000
0000
,  // measure 59
0000
0010
1000
0000
,  // measure 60
0000
0000
0001
0000
,  // measure 61
0000
0000
0100
0000
,  // measure 62
0000
0000
0001
0000
,  // measure 63
0010
0000
0100
0000
,  // measure 64
0000
0000
1000
0000
,  // measure 65
0000
0000
0001
0000
,  // measure 66
0000
0000
0100
0000
,  // measure 67
0010
0000
1000
0000
,  // measure 68
0000
0000
0001
0000
,  // measure 69
0000
0000
0100
0000
,  // measure 70
0000
0000
0010
0000
,  // measure 71
0100
0000
1001
0000
;

//---------------dance-single - ----------------
#NOTEDATA:;
#CHARTNAME:;
#STEPSTYPE:dance-single;
#DESCRIPTION:;
#CHARTSTYLE:;
#DIFFICULTY:Easy;
#METER:5;
#RADARVALUES:0.207074,0.323876,0.181190,0.203838,0.000000,192.000000,168.000000,24.000000,27.000000,0.000000,0.000000,0.000000,0.000000,0.000000,0.207074,0.323876,0.181190,0.203838,0.000000,192.000000,168.000000,24.000000,27.000000,0.000000,0.000000,0.000000,0.000000,0.000000;
#CREDIT:STAR;
#NOTES:
// measure 0
0000
0000
0000
0000
,  // measure 1
0000
0000
0000
0000
,  // measure 2
0000
0000
0000
0000
,  // measure 3
2002
0000
0000
3003
0000
0000
0000
0000
,  // measure 4
0010
1000
0100
0010
,  // measure 5
0100
1000
0001
0100
,  // measure 6
0001
0010
0001
1000
,  // measure 7
0100
0010
0100
1000
,  // measure 8
0001
0100
0001
0010
,  // measure 9
0001
0100
0010
1000
,  // measure 10
0001
0010
0100
1000
,  // measure 11
0100
1000
0010
0100
,  // measure 12
1001
0001
0100
1000
,  // measure 13
0100
0001
1000
0001
,  // measure 14
1000
0010
0001
0010
,  // measure 15
1000
0010
0100
0001
,  // measure 16
1000
0100
0001
0100
,  // measure 17
1000
0010
0100
0001
,  // measure 18
0010
1000
0010
0001
,  // measure 19
1000
0001
0010
0001
,  // measure 20
0101
0000
0000
0000
,  // measure 21
0000
0000
0010
1000
,  // measure 22
1100
0000
0000
0000
,  // measure 23
0000
0000
0100
0010
,  // measure 24
0011
0000
0000
0000
,  // measure 25
0000
0000
1100
0000
,  // measure 26
0101
0000
0000
0000
,  // measure 27
0110
0000
0000
0000
,  // measure 28
1001
0000
0000
0000
,  // measure 29
0000
0000
0001
1000
,  // measure 30
1010
0000
0000
0000
,  // measure 31
0000
0000
1000
0001
,  // measure 32
0011
0000
0000
0000
,  // measure 33
0000
0000
0000
0000
,  // measure 34
0002
0003
2000
3000
,  // measure 35
0020
0030
0200
0300
,  // measure 36
1001
0000
0000
0000
,  // measure 37
0000
0000
1000
0000
,  // measure 38
0000
0000
0000
0000
,  // measure 39
0000
0000
0001
0000
,  // measure 40
1000
0000
0000
0000
,  // measure 41
0000
0000
0000
0000
,  // measure 42
0010
0000
0000
0000
,  // measure 43
0100
0000
0001
0000
,  // measure 44
0020
0000
0000
0030
,  // measure 45
0200
0000
0000
0300
,  // measure 46
2000
0000
0000
3000
,  // measure 47
0002
0000
0000
0003
,  // measure 48
0200
0000
0000
0300
,  // measure 49
0020
0000
0000
0030
,  // measure 50
2000
0000
0000
3000
,  // measure 51
0110
0000
0000
1001
0000
0000
0110
0000
,  // measure 52
0001
0100
0001
0101
,  // measure 53
1000
0100
1000
1100
,  // measure 54
1000
0010
1000
1010
,  // measure 55
0001
0010
0001
0011
,  // measure 56
1000
0001
1000
1001
,  // measure 57
0100
0010
0100
0110
,  // measure 58
1000
0100
0010
0001
,  // measure 59
1001
1100
0200
0000
,  // measure 60
2300
0000
3020
0000
,  // measure 61
0230
0000
0302
0000
,  // measure 62
0023
0000
0230
0000
,  // measure 63
1300
0001
2000
0000
,  // measure 64
3002
0000
0203
0000
,  // measure 65
0302
0000
0023
0000
,  // measure 66
0230
0000
2300
0000
,  // measure 67
3100
1000
0001
0001
,  // measure 68
0001
0001
1000
1000
,  // measure 69
1000
1000
0010
0010
,  // measure 70
0010
0010
0100
0100
,  // measure 71
0100
0100
1001
0000
;

//---------------dance-single - ----------------
#NOTEDATA:;
#CHARTNAME:;
#STEPSTYPE:dance-single;
#DESCRIPTION:;
#CHARTSTYLE:;
#DIFFICULTY:Medium;
#METER:8;
#RADARVALUES:0.277177,0.431835,0.150991,0.422776,0.011324,257.000000,237.000000,20.000000,56.000000,0.000000,0.000000,0.000000,0.000000,0.000000,0.277177,0.431835,0.150991,0.422776,0.011324,257.000000,237.000000,20.000000,56.000000,0.000000,0.000000,0.000000,0.000000,0.000000;
#CREDIT:HI SCHOOL;
#NOTES:
// measure 0
0000
0000
0000
0000
,  // measure 1
0000
0000
0000
0000
,  // measure 2
0000
0000
0000
0000
,  // measure 3
0010
0000
0000
0010
0000
0000
0010
0000
0000
0000
0000
0000
0000
0000
0000
0000
,  // measure 4
1000
0001
0010
0100
,  // measure 5
0010
0000
0001
0000
1000
0000
0010
0100
,  // measure 6
0001
0010
0100
0010
,  // measure 7
0001
0000
1000
0000
0100
0000
0010
0100
,  // measure 8
1000
0100
1000
0010
,  // measure 9
0100
0000
0001
0000
1000
0000
0010
1000
,  // measure 10
0100
0010
0001
0010
,  // measure 11
0001
0000
0100
0000
1000
0000
1000
0100
,  // measure 12
0001
0010
0001
1000
,  // measure 13
0100
0000
1000
0000
0010
0000
0001
0010
,  // measure 14
1000
0100
0010
0100
,  // measure 15
1000
0000
0001
0000
0010
0000
0100
0010
,  // measure 16
0001
0010
0001
1000
,  // measure 17
0010
0000
0001
0000
0010
0000
0100
0010
,  // measure 18
1000
0001
0010
1000
,  // measure 19
0010
0000
0100
0000
0010
0000
0100
0010
,  // measure 20
0011
0000
0000
0000
,  // measure 21
0000
0000
0000
0001
0100
0010
1000
0100
,  // measure 22
0010
0000
0000
0000
,  // measure 23
0000
0000
0000
0100
1000
0010
0100
0001
,  // measure 24
0010
0000
0000
0000
,  // measure 25
0000
0000
0000
0100
1000
0010
0000
0000
,  // measure 26
0101
0000
0000
0000
,  // measure 27
0011
0000
0000
0000
,  // measure 28
1001
0000
0000
0000
,  // measure 29
0000
0000
0000
0001
0010
0100
0010
0001
,  // measure 30
1000
0000
0000
0000
,  // measure 31
0000
0000
0000
1000
0100
0010
0100
1000
,  // measure 32
0001
0000
0000
0000
,  // measure 33
0000
0000
0000
0000
,  // measure 34
0001
0010
0100
1000
,  // measure 35
0001
0000
0100
0000
0010
0000
1000
0001
,  // measure 36
0110
0000
0000
0000
,  // measure 37
0000
0000
0010
0000
,  // measure 38
0000
0000
0000
0000
,  // measure 39
1000
0100
0010
0100
,  // measure 40
1000
0000
0000
0000
,  // measure 41
0000
0000
0000
0000
,  // measure 42
0001
0000
0000
0000
,  // measure 43
0100
0000
0010
0000
,  // measure 44
2001
0000
3002
0000
,  // measure 45
2003
0000
3020
0000
,  // measure 46
2030
0000
3200
0000
,  // measure 47
0320
0000
0032
0000
,  // measure 48
0203
0000
0320
0000
,  // measure 49
2030
0000
3002
0000
,  // measure 50
0203
0000
0000
0000
0320
0000
0000
0030
,  // measure 51
1001
0000
0000
0010
0000
0000
1001
0000
0000
0100
0000
0000
1001
0000
0001
0000
,  // measure 52
1002
2003
3200
0310
,  // measure 53
0200
0000
2300
0000
3020
0000
0130
0010
,  // measure 54
2000
3002
0023
0230
,  // measure 55
0320
0000
0032
0000
0203
0000
0310
0100
,  // measure 56
0002
2003
3200
2300
,  // measure 57
3020
0000
0230
0000
0302
0000
0013
0100
,  // measure 58
2000
3200
2300
3001
,  // measure 59
0102
0000
1003
0001
2001
0000
0010
0000
,  // measure 60
3010
1000
0201
0010
,  // measure 61
0310
1000
2001
0100
,  // measure 62
3100
1000
0021
0100
,  // measure 63
0130
0000
0010
0001
2001
0000
0001
0000
,  // measure 64
3001
0100
0120
1000
,  // measure 65
1030
0100
2001
0010
,  // measure 66
3010
0100
1020
0130
,  // measure 67
0010
0100
0001
1000
0002
0000
2003
0000
,  // measure 68
3200
0320
0032
0023
,  // measure 69
0230
0000
2300
0000
3001
0100
0002
0000
,  // measure 70
1003
0100
2000
0000
3001
0100
0001
0100
,  // measure 71
1000
0100
1000
0100
1100
0000
0000
0000
;

//---------------dance-single - ----------------
#NOTEDATA:;
#CHARTNAME:;
#STEPSTYPE:dance-single;
#DESCRIPTION:;
#CHARTSTYLE:;
#DIFFICULTY:Hard;
#METER:12;
#RADARVALUES:0.400127,0.582638,0.203838,0.060397,0.415226,371.000000,344.000000,27.000000,8.000000,0.000000,0.000000,0.000000,0.000000,0.000000,0.400127,0.582638,0.203838,0.060397,0.415226,371.000000,344.000000,27.000000,8.000000,0.000000,0.000000,0.000000,0.000000,0.000000;
#CREDIT:POWER;
#NOTES:
// measure 0
0000
0000
0000
0000
,  // measure 1
0000
0000
0000
0000
,  // measure 2
0000
0000
0000
0000
,  // measure 3
0011
0000
0000
0101
0000
0000
1001
0000
0000
0000
0000
0000
0000
0000
0000
0000
,  // measure 4
1000
0000
0000
0010
0000
0000
1000
0000
0000
0001
0000
0000
0010
0000
0000
0000
,  // measure 5
0001
0000
0000
1000
0000
0000
0100
0000
0000
1000
0000
0000
0001
0000
0010
0000
,  // measure 6
0100
0000
0000
0010
0000
0000
0001
0000
0000
0100
0000
0000
0010
0000
0000
0000
,  // measure 7
0100
0000
0000
0010
0000
0000
1000
0000
0000
0100
0000
0000
0010
0000
0001
0000
,  // measure 8
1000
0000
0000
0001
0000
0000
0100
0000
0000
0001
0000
0000
1000
0000
0000
0000
,  // measure 9
0001
0000
0000
0010
0000
0000
0100
0000
0000
0010
0000
0000
0100
0000
1000
0000
,  // measure 10
0010
0000
0000
0100
0000
0000
0001
0000
0000
0010
0000
0000
0100
0000
0000
0000
,  // measure 11
0010
0000
0000
0010
0000
0000
0100
0000
0000
0100
0000
0000
0010
0000
0001
0000
,  // measure 12
1000
0000
0000
0010
0000
0000
0001
0000
0000
0010
0000
0000
1000
0000
0000
0000
,  // measure 13
0001
0000
0000
1000
0000
0000
0100
0000
0000
1000
0000
0000
0001
0000
1000
0000
,  // measure 14
0100
0000
0000
0001
0000
0000
0100
0000
0000
1000
0000
0000
0010
0000
0000
0000
,  // measure 15
0100
0000
0000
0001
0000
0000
0010
0000
0000
0001
0000
0000
1000
0000
0001
0000
,  // measure 16
0010
0000
0000
1000
0000
0000
0010
0000
0000
0001
0000
0000
1000
0000
0000
0000
,  // measure 17
0010
0000
0000
0100
0000
0000
0001
0000
0000
1000
0000
0000
0001
0000
1000
0000
,  // measure 18
0010
0000
0000
0001
0000
0000
0010
0000
0000
1000
0000
0000
0001
0000
0000
0000
,  // measure 19
0010
0000
0000
0100
0000
0000
1000
0000
0000
0100
0000
0000
0010
0000
0001
0000
,  // measure 20
1001
0001
1000
0010
,  // measure 21
1000
0000
0100
0010
0100
1000
0010
0100
,  // measure 22
0001
0010
0001
0100
,  // measure 23
0001
0000
1000
0001
0010
0100
1000
0010
,  // measure 24
0100
0001
0010
0001
,  // measure 25
0100
0000
0010
1000
0100
0010
0000
0000
,  // measure 26
1100
0100
1000
0010
,  // measure 27
0101
0000
0001
0000
0010
0000
0100
0100
,  // measure 28
1100
1000
0010
0100
,  // measure 29
0001
0000
0010
0001
1000
0010
0100
0001
,  // measure 30
0010
0001
1000
0100
,  // measure 31
1000
0000
0010
0100
0001
0010
0100
1000
,  // measure 32
0001
1000
0100
1000
,  // measure 33
0010
0100
0001
0010
,  // measure 34
0100
0010
0001
1000
,  // measure 35
0010
1000
0100
0010
0001
0010
0100
1000
,  // measure 36
1001
0000
0000
0000
,  // measure 37
0000
0000
1001
0000
,  // measure 38
0000
0000
0000
0000
,  // measure 39
0000
0000
0000
0000
0000
0000
0000
0000
0000
0000
0000
0000
1000
0000
0000
0000
0000
0000
0000
0000
0000
0000
0000
0000
0000
0000
0000
0000
0000
0000
0000
0001
0000
0000
0000
0000
0000
0000
0000
0000
0000
0000
0000
0000
0000
0000
0000
0000
0000
0000
0000
0000
0000
0000
0000
0000
0000
0000
0000
0000
0000
0000
0000
0000
,  // measure 40
0000
0100
0000
0000
0000
0000
0000
0000
0000
0000
0000
0000
0000
0000
0000
0000
,  // measure 41
0000
0000
0000
0000
0000
0000
0000
0010
,  // measure 42
0000
0000
0000
0000
,  // measure 43
0100
0000
0000
0001
0000
0000
0010
0000
0100
0000
0000
0010
0000
0000
0001
0000
,  // measure 44
2000
0000
0000
3000
,  // measure 45
0200
0000
0000
0300
,  // measure 46
0020
0000
0000
0030
,  // measure 47
0002
0000
0003
0100
,  // measure 48
0020
1000
1000
1030
,  // measure 49
0002
0010
0010
0013
,  // measure 50
0200
1000
1000
1300
,  // measure 51
1001
0000
0000
0110
0000
0000
1001
0000
0000
0110
0000
0000
0001
0000
1000
0000
,  // measure 52
0110
0000
0000
0010
0000
0000
1000
0000
0000
0100
0000
0000
0110
0000
0000
0000
,  // measure 53
1100
0000
0000
1000
0000
0000
0010
0000
0000
0100
0000
0000
0001
0000
0010
0000
,  // measure 54
0110
0000
0000
0010
0000
0000
0001
0000
0000
1000
0000
0000
1001
0000
0000
0000
,  // measure 55
0101
0000
0000
0001
0000
0000
0010
0000
0000
0100
0000
0000
0010
0000
0001
0000
,  // measure 56
0101
0000
0000
0001
0000
0000
0100
0000
0000
0010
0000
0000
1010
0000
0000
0000
,  // measure 57
0011
0000
0000
0010
0000
0000
0100
0000
0000
0010
0000
0000
0100
0000
1000
0000
,  // measure 58
1100
0000
0000
0001
0000
0000
0100
0000
0000
0001
0000
0000
0110
0000
0000
0000
,  // measure 59
1000
0100
0010
0001
0010
0000
0010
0000
1001
0000
0000
1000
0000
1000
0000
1000
,  // measure 60
0000
0000
0100
0000
0000
1000
0000
0010
0100
0000
0000
0010
0000
0010
0000
0010
,  // measure 61
0000
0000
0100
0000
0000
0001
0000
0010
0100
0000
0000
0010
0000
0010
0000
0010
,  // measure 62
0000
0000
0100
0000
0000
0010
0000
0001
1000
0000
0000
0001
0000
0001
0000
1000
,  // measure 63
0000
0000
0010
0000
0000
0100
0000
0001
0010
0000
0000
0100
0000
0100
0000
0100
,  // measure 64
0000
0000
0010
0000
0000
0001
0000
1000
0001
0000
0000
0100
0000
0100
0000
0100
,  // measure 65
0000
0000
0010
0000
0000
1000
0000
0001
1000
0000
0000
0001
0000
0001
0000
0001
,  // measure 66
0000
0000
0010
0000
0000
0001
0000
0100
0010
0000
0000
0100
0000
0010
0000
1010
,  // measure 67
0000
0000
0101
0000
0001
0100
0000
0100
0010
0000
0000
1000
0000
1000
0000
1000
,  // measure 68
0000
0000
0100
0000
0000
1000
0000
0100
0010
0000
0000
0100
0000
0100
0000
0100
,  // measure 69
0000
0000
0010
0000
0000
0001
0000
0100
0010
0000
0100
0000
0010
0000
0100
0000
,  // measure 70
0010
0100
0010
0100
0001
1000
0001
1000
,  // measure 71
0001
1000
0001
1000
0001
1000
0001
1000
0002
0000
0000
0000
0000
0000
0000
0000
,  // measure 72
0000
0000
0000
0000
,  // measure 73
0000
0000
0003
0000
;

//---------------dance-single - ----------------
#NOTEDATA:;
#CHARTNAME:;
#STEPSTYPE:dance-single;
#DESCRIPTION:;
#CHARTSTYLE:;
#DIFFICULTY:Challenge;
#METER:14;
#RADARVALUES:0.571610,0.776850,0.234036,0.150991,0.743632,530.000000,499.000000,31.000000,20.000000,2.000000,0.000000,0.000000,0.000000,0.000000,0.571610,0.776850,0.234036,0.150991,0.743632,530.000000,499.000000,31.000000,20.000000,2.000000,0.000000,0.000000,0.000000,0.000000;
#CREDIT:TRUST;
#NOTES:
// measure 0
0000
0000
0000
0000
,  // measure 1
0000
0000
0000
0000
,  // measure 2
0000
0000
0000
0000
,  // measure 3
1100
0000
0000
0011
0000
0000
1001
0000
0001
1000
0000
1000
0001
0000
0000
0000
,  // measure 4
0011
0000
0010
0001
0000
0001
0100
0000
0100
0010
0000
0010
1000
0000
0000
0000
,  // measure 5
0100
0000
0010
0100
0000
0100
1000
0000
1000
0010
0000
0010
0100
0000
0001
0000
,  // measure 6
0010
0000
0100
0010
0000
0010
0001
0000
0001
1000
0000
1000
0010
0000
0000
0000
,  // measure 7
0010
0000
0100
0010
0000
0010
1000
0000
1000
0100
0000
0100
0010
0000
0001
0000
,  // measure 8
1000
0000
0001
0100
0000
0100
0010
0000
0010
1000
0000
1000
0001
0000
0000
0000
,  // measure 9
0001
0000
0010
0001
0000
0001
1000
0000
1000
0100
0000
0100
0010
0000
0100
0000
,  // measure 10
1000
0000
1000
0100
0000
0100
0010
0000
0010
0001
0000
0001
0100
0000
0000
0000
,  // measure 11
0001
0000
0100
0010
0000
1000
0100
0000
0010
0001
0000
0010
0100
0000
1000
0000
,  // measure 12
0001
0000
1000
0010
0000
0100
0001
0000
0010
0100
0000
0010
0001
0000
0000
0000
,  // measure 13
1000
0000
0001
0100
0000
0010
1000
0000
0100
0010
0000
0100
1000
0000
0010
0000
,  // measure 14
0100
0000
0001
0010
0000
0100
1000
0000
0100
0010
0000
0100
1000
0000
0000
0000
,  // measure 15
0001
0000
1000
0010
0000
0100
0010
0000
0100
0001
0000
0100
0010
0000
1000
0000
,  // measure 16
0001
0000
0010
0001
0000
0010
0100
0000
0010
0001
0000
1000
0010
0000
0000
0000
,  // measure 17
0100
0000
0010
1000
0000
0100
0010
0000
0100
1000
0000
0001
0100
0000
0010
0000
,  // measure 18
1000
0000
0001
0100
0000
1000
0100
0000
0001
0010
0000
0001
0100
0000
0000
0000
,  // measure 19
0001
0000
0001
0100
0000
0100
0010
0000
0010
1000
0000
1000
0100
0000
0010
0000
,  // measure 20
0011
0001
0100
0010
,  // measure 21
1000
0000
0001
0100
1000
0100
0001
1000
,  // measure 22
0100
0010
0001
1000
,  // measure 23
0010
0000
1000
0010
0001
0010
1000
0001
,  // measure 24
0010
0100
1000
0100
,  // measure 25
1000
0000
0001
0010
0100
0010
0000
0000
,  // measure 26
1001
1000
0001
1000
,  // measure 27
1010
0000
0010
0000
0100
0000
0010
0010
,  // measure 28
1001
0001
1000
0010
,  // measure 29
1000
0000
0001
0010
0100
0001
0100
0010
,  // measure 30
0001
0100
0010
1000
,  // measure 31
0100
0000
1000
0100
0010
1000
0010
0100
,  // measure 32
0010
0100
0010
0001
,  // measure 33
0010
0100
1000
0010
,  // measure 34
1000
0001
1000
0001
1000
0001
1000
0001
,  // measure 35
1000
0010
1000
0010
1000
0010
1000
0010
0100
0010
0100
0010
1000
0100
1000
0001
,  // measure 36
1000
0000
0000
0000
,  // measure 37
0000
0000
0000
0000
0000
0000
0000
0000
0100
1000
0000
0000
0000
0000
0000
0000
,  // measure 38
0000
0000
0000
0000
,  // measure 39
0000
0000
0000
0000
0000
0000
0000
0000
0000
0000
0000
0000
0000
0000
0000
0000
0000
0000
0000
0000
0000
0000
0000
0000
0000
0000
0000
0000
0000
0000
0000
0000
0000
0000
0000
0000
0001
0000
0000
0000
0000
0000
0000
0000
0000
0000
0000
0000
0000
0000
0000
0000
0000
0000
0000
0000
0000
0000
0000
0000
0000
0000
0000
0000
0000
0000
1000
0000
0000
0000
0000
0000
0000
0000
0000
0000
0000
0000
0000
0000
0000
0000
0000
0000
0000
0000
0000
0000
0000
0000
0000
0000
0000
1010
0000
0000
0000
0000
0000
0000
0000
0000
0000
0000
0000
0000
0000
0000
0000
0000
0000
0000
0000
0000
0000
0000
0000
0000
0000
0000
0000
0000
0000
0000
0000
0000
0000
0000
0110
0000
0000
0000
0000
0000
0000
0000
0000
0000
0000
0000
0000
0000
0000
0000
0000
0000
0000
0000
0000
0000
0000
0000
0000
0000
0000
0000
0000
0000
0000
0000
0000
0000
0000
0000
1010
0000
0000
0000
0000
0000
0000
0000
0000
0000
0000
0000
0000
0000
0000
0000
0000
0000
0000
0000
0000
0000
0000
0000
0000
0000
0000
0000
,  // measure 40
0000
0101
0000
0000
0000
0000
0000
0000
0000
0000
0000
0000
0000
0000
0000
0000
,  // measure 41
0000
0000
0000
0000
0000
0000
0000
0000
0000
0000
0000
0000
0000
1000
0100
0010
,  // measure 42
0000
0000
0000
0100
,  // measure 43
0010
0000
0000
0010
0000
0000
0100
0000
0010
0000
0000
1000
0000
0000
0001
0000
,  // measure 44
2010
0000
0000
0100
0000
0000
0010
0000
0000
0100
0000
0000
3001
0000
0000
0000
,  // measure 45
0102
0000
0000
0010
0000
0000
0100
0000
0000
0010
0000
0000
1003
0000
0001
0000
,  // measure 46
0201
0000
0000
0010
0000
0000
0001
0000
0000
0010
0000
0000
0301
0000
0000
0000
,  // measure 47
1200
0000
0000
0001
0000
0000
1000
0000
0000
0001
0000
0000
1300
0000
0100
0000
,  // measure 48
0021
0000
0000
0130
0000
0000
1020
0000
0000
0130
0000
0000
1001
0000
0000
0000
,  // measure 49
0201
0000
0000
0310
0000
0000
1200
0000
0000
0310
0000
0000
0100
0000
1000
0000
,  // measure 50
0010
1000
0010
1000
0001
0100
0001
0100
0001
1000
0010
0100
0001
0010
0000
0000
,  // measure 51
1001
0000
0001
0010
M000
0010
1000
0000
1000
0100
000M
0100
0001
0000
1000
0000
,  // measure 52
1001
0000
1000
0001
0000
0010
0100
0000
0010
0001
0000
1000
0010
0000
0000
0000
,  // measure 53
0100
0000
0010
1000
0000
0001
0010
0000
0100
0010
0000
0100
1000
0000
0001
0000
,  // measure 54
0100
0000
0010
1000
0000
0001
0010
0000
0100
0010
0000
0100
1000
0000
0000
0000
,  // measure 55
0100
0000
1000
0100
0000
0010
0001
0000
0100
0010
0000
0100
0001
0000
0010
0000
,  // measure 56
0100
0000
0010
0001
0000
0100
0010
0000
1000
0001
0000
0010
0100
0000
0000
0000
,  // measure 57
0010
0000
0001
0100
0000
0010
1000
0000
0100
0010
0000
0100
1000
0000
0010
0000
,  // measure 58
0100
0000
0001
0100
0000
0010
1000
0000
0100
0010
0000
0100
1000
0000
0001
0000
,  // measure 59
1100
0110
0011
0101
1001
0000
0010
0000
0201
0000
0000
0010
0000
0010
0000
0310
,  // measure 60
0000
0000
0100
0000
0000
0001
0000
0010
0200
0000
0000
1000
0000
1000
0000
1300
,  // measure 61
0000
0000
0100
0000
0000
0010
0000
0100
0020
0000
0000
0001
0000
0001
0000
0031
,  // measure 62
0000
0000
0100
0000
0000
0010
0000
1000
0002
0000
0000
1000
0000
1000
0000
0103
,  // measure 63
0000
0000
0010
0000
0000
0100
0000
0001
2000
0000
0000
0100
0000
0100
0000
3100
,  // measure 64
0000
0000
0010
0000
0000
0001
0000
0010
0200
0000
0000
0010
0000
0010
0000
0310
,  // measure 65
0000
0000
0100
0000
1000
0100
0000
0100
0020
0000
0000
0001
0000
0001
0000
0031
,  // measure 66
0000
0000
0010
0000
0000
0100
0000
1000
0002
0000
0000
0100
0000
0103
0000
0011
,  // measure 67
0000
0000
0110
0000
1000
0001
0000
0100
0020
0000
0000
1000
0000
1000
0000
1030
,  // measure 68
0000
0000
0100
0000
0000
0010
0000
0001
2000
0000
0000
0010
0000
0010
0000
3010
,  // measure 69
0000
0000
0100
0000
0000
0010
0000
1000
0001
0000
1000
0000
0001
0000
1000
0000
,  // measure 70
0010
0000
0100
0000
0010
0000
0100
0000
0001
0100
0001
0100
0010
1000
0010
1000
,  // measure 71
0001
0010
0100
1000
0001
0010
0100
2000
0002
0000
0000
0000
0000
0000
0000
0000
,  // measure 72
0000
0000
0000
0000
,  // measure 73
0000
0000
3003
0000
;
