#TITLE:THE NINJA;
#SUBTITLE:;
#ARTIST:DAISHI DANCE feat. HIMEKAMI;
#TITLETRANSLIT:;
#SUBTITLETRANSLIT:;
#ARTISTTRANSLIT:;
#GENRE:;
#CREDIT:;
#BANNER:THE NINJA.png;
#BACKGROUND:THE NINJA-bg.png;
#LYRICSPATH:;
#CDTITLE:;
#MUSIC:THE NINJA (feat. HIMEKAMI).ogg;
#OFFSET:0.020000;
#SAMPLESTART:74.985001;
#SAMPLELENGTH:15.000000;
#SELECTABLE:YES;
#BPMS:0.000000=128.000000
;
#STOPS:
;
#BGCHANGES:;
#KEYSOUNDS:;
#ATTACKS:;

//---------------dance-single - ----------------
#NOTES:
     dance-single:
     :
     Beginner:
     2:
     0.103899,0.179027,0.087915,0.000000,0.000000,91.000000,80.000000,11.000000,0.000000,0.000000,0.000000,0.103899,0.179027,0.087915,0.000000,0.000000,91.000000,80.000000,11.000000,0.000000,0.000000,0.000000:
// measure 0
0000
0000
0000
0000
,  // measure 1
0000
0000
0000
0000
,  // measure 2
0000
0000
0000
0000
,  // measure 3
0000
0000
0000
0000
,  // measure 4
0001
0000
0000
0000
,  // measure 5
1000
0000
0000
0000
,  // measure 6
0001
0000
0000
0000
,  // measure 7
0100
0000
0000
0000
,  // measure 8
0110
0000
0000
0000
,  // measure 9
0010
0000
0000
0000
,  // measure 10
1000
0000
0000
0000
,  // measure 11
0100
0000
0000
0000
,  // measure 12
0010
0000
0000
0000
,  // measure 13
0001
0000
0000
0000
,  // measure 14
0100
0000
0010
0000
,  // measure 15
1000
0000
0001
0000
,  // measure 16
0110
0000
0000
0000
,  // measure 17
0000
0000
0000
0000
,  // measure 18
1001
0000
0000
0000
,  // measure 19
0000
0000
0000
0000
,  // measure 20
0001
0000
0000
0000
,  // measure 21
1000
0000
0000
0000
,  // measure 22
0110
0000
0000
0000
,  // measure 23
0100
0000
0000
0000
,  // measure 24
0010
0010
0010
0000
,  // measure 25
1000
1000
1000
0000
,  // measure 26
0001
0001
0001
0000
,  // measure 27
0010
0010
0010
0000
,  // measure 28
0100
0000
0000
0000
,  // measure 29
1000
0000
0000
0000
,  // measure 30
0010
0000
0100
0000
,  // measure 31
1001
0000
0000
0000
,  // measure 32
0001
0000
0001
0000
,  // measure 33
0001
0000
0000
0000
,  // measure 34
1000
0000
1000
0000
,  // measure 35
1000
0000
0000
0000
,  // measure 36
0010
0000
0010
0000
,  // measure 37
0010
0000
0000
0000
,  // measure 38
0100
0000
0100
0000
,  // measure 39
0110
0000
0000
0000
,  // measure 40
1000
0000
0001
0000
,  // measure 41
1000
0000
0000
0000
,  // measure 42
0010
0000
0100
0000
,  // measure 43
0010
0000
0000
0000
,  // measure 44
0001
0000
1000
0000
,  // measure 45
0001
0000
0000
0000
,  // measure 46
0010
0000
0100
0000
,  // measure 47
0010
0000
0000
0000
,  // measure 48
1001
0000
0000
0000
,  // measure 49
1000
0000
0000
0000
,  // measure 50
0110
0000
0000
0000
,  // measure 51
0001
0000
0000
0000
,  // measure 52
1001
0000
0000
0000
,  // measure 53
0010
0000
0000
0000
,  // measure 54
0110
0000
0000
0000
,  // measure 55
0100
0000
0010
0000
,  // measure 56
1000
0000
0000
0000
,  // measure 57
0001
0000
0000
0000
,  // measure 58
0010
0000
0000
0000
,  // measure 59
0100
0000
0000
0000
,  // measure 60
1000
0000
0000
0000
,  // measure 61
0001
0000
0000
0000
,  // measure 62
0100
0000
0000
0000
,  // measure 63
0010
0000
0100
0000
,  // measure 64
1001
0000
0000
0000
;

//---------------dance-single - ----------------
#NOTES:
     dance-single:
     :
     Easy:
     7:
     0.297997,0.423590,0.559458,0.071930,0.000000,261.000000,191.000000,70.000000,9.000000,0.000000,0.000000,0.297997,0.423590,0.559458,0.071930,0.000000,261.000000,191.000000,70.000000,9.000000,0.000000,0.000000:
// measure 0
0000
0000
0000
0000
,  // measure 1
0000
0000
0000
0000
,  // measure 2
0000
0000
0000
0000
,  // measure 3
0000
0000
0000
0000
,  // measure 4
0001
1000
0010
0000
,  // measure 5
0100
0001
0010
0100
,  // measure 6
0010
0001
0100
0000
,  // measure 7
0010
2000
0000
0000
0000
0000
3000
0000
,  // measure 8
0001
0000
1000
0000
,  // measure 9
0100
0000
0010
0001
,  // measure 10
0000
0100
0010
0100
,  // measure 11
0000
0001
0100
0001
,  // measure 12
0000
1000
0100
1000
,  // measure 13
0100
0010
0100
0010
,  // measure 14
0001
0010
0001
0010
,  // measure 15
0001
2000
0000
0000
0000
0000
3000
0000
,  // measure 16
0120
0000
0000
0000
,  // measure 17
0000
0000
0000
0000
0000
0000
0000
0130
,  // measure 18
0210
0000
0000
0000
,  // measure 19
0000
0000
0000
0300
,  // measure 20
1001
1000
0000
0001
,  // measure 21
0000
0000
0010
0000
0000
0000
0001
0001
,  // measure 22
1001
1000
0000
0001
,  // measure 23
0000
0010
0000
0100
,  // measure 24
1100
1100
1100
0000
,  // measure 25
0101
0101
0101
0000
,  // measure 26
0011
0011
0011
0000
,  // measure 27
1010
1010
1010
0000
,  // measure 28
0001
1000
0010
0200
,  // measure 29
0301
0010
0001
0200
,  // measure 30
0310
0010
0010
0010
,  // measure 31
2002
0000
0000
3003
,  // measure 32
0001
0101
1000
1100
,  // measure 33
1001
0110
0101
0110
,  // measure 34
1000
1010
1000
1001
,  // measure 35
0011
0011
1100
0110
,  // measure 36
0001
0101
0001
1001
,  // measure 37
0110
1001
1010
1100
,  // measure 38
1000
1010
0010
0110
,  // measure 39
1001
0110
1001
0110
,  // measure 40
0001
0011
0010
0110
,  // measure 41
1100
0011
1100
0011
,  // measure 42
1000
1010
0010
0110
,  // measure 43
0101
1010
0101
1001
,  // measure 44
1000
0011
0001
1010
,  // measure 45
1001
0110
1001
0110
,  // measure 46
1000
0011
0001
1010
,  // measure 47
0101
0011
0101
0011
,  // measure 48
1100
0100
1000
0010
,  // measure 49
0100
0001
0010
0100
,  // measure 50
1100
0100
1000
0010
,  // measure 51
0100
0010
1000
0001
,  // measure 52
0011
0001
0100
0010
,  // measure 53
1000
0001
0010
0001
,  // measure 54
0101
0001
0100
0010
,  // measure 55
1000
0100
0010
0001
,  // measure 56
1000
0001
0000
1000
,  // measure 57
0000
0010
0000
0100
,  // measure 58
0000
0010
0000
1000
,  // measure 59
0000
0100
0000
0010
,  // measure 60
0000
0001
0000
0100
,  // measure 61
0000
0010
0000
1000
,  // measure 62
0000
0001
0000
0100
,  // measure 63
0010
1000
0001
0010
,  // measure 64
1200
0000
0000
0000
,  // measure 65
0000
0000
0000
0000
,  // measure 66
0000
0300
0000
0000
;

//---------------dance-single - ----------------
#NOTES:
     dance-single:
     :
     Medium:
     11:
     0.404180,0.511505,0.231776,0.127876,0.139865,354.000000,325.000000,29.000000,16.000000,0.000000,0.000000,0.404180,0.511505,0.231776,0.127876,0.139865,354.000000,325.000000,29.000000,16.000000,0.000000,0.000000:
// measure 0
0000
0000
0000
0000
,  // measure 1
0000
0000
0000
0000
,  // measure 2
0000
0000
0000
0000
,  // measure 3
0000
0000
0000
0000
,  // measure 4
0001
0100
0001
0000
0100
0000
1010
0000
,  // measure 5
1000
0100
1000
0000
0100
0000
0011
0000
,  // measure 6
0001
0100
0010
0000
1000
0000
1100
0000
,  // measure 7
0000
1000
0100
0000
0100
0000
0100
0000
0100
0000
0100
0000
0100
0000
0010
0000
,  // measure 8
0001
0010
0001
0100
,  // measure 9
0010
0000
1000
0000
0001
1000
0100
0010
,  // measure 10
0000
0000
0100
0000
1000
0000
0010
0100
,  // measure 11
0000
0000
0010
0000
1000
0000
0001
0010
,  // measure 12
0100
0000
0010
0000
0001
0000
0100
0010
,  // measure 13
1000
0000
0001
0000
0010
0000
0100
0010
,  // measure 14
0001
1000
0010
0100
,  // measure 15
0000
0001
0100
0000
0100
0000
0100
0000
0100
0000
0100
0000
0100
0000
0010
0000
,  // measure 16
2002
0000
0000
0000
,  // measure 17
0000
0000
0000
0000
0000
0000
3003
0110
,  // measure 18
2002
0000
0000
0000
,  // measure 19
0000
0000
0000
3003
,  // measure 20
0021
0130
1020
0130
,  // measure 21
2001
0000
3010
0000
0201
0000
0310
0110
,  // measure 22
2001
3010
0201
0310
,  // measure 23
1200
0310
0021
0130
,  // measure 24
1000
0000
0000
0000
1000
0000
0000
0000
1000
0000
0000
0000
0001
1000
0001
1000
,  // measure 25
0001
0000
0000
0000
0001
0000
0000
0000
0001
0000
0000
0000
1000
0001
1000
0001
,  // measure 26
1000
0000
0000
0000
1000
0000
0000
0000
1000
0000
0000
0000
1000
0001
1000
0001
,  // measure 27
1000
0000
0000
0000
0001
0000
0000
0000
0001
0000
0000
0000
0001
1000
0001
1000
,  // measure 28
0001
0010
1000
0010
0001
1000
0001
0000
,  // measure 29
1000
0100
0001
0100
1000
0001
1000
0000
,  // measure 30
0001
0100
0001
0100
0001
0100
0001
0100
,  // measure 31
0001
0000
0100
0010
0000
0000
1000
0000
1000
0000
1000
0000
0200
0000
0000
0000
,  // measure 32
0310
0001
0100
0000
0010
1000
0100
0000
,  // measure 33
0010
0000
0001
0000
0100
0000
0010
0000
1000
0000
0001
0000
0010
0000
0000
0100
0000
0000
0010
0000
0000
0000
0000
0000
,  // measure 34
0100
1000
0010
0000
0100
0001
0010
0000
,  // measure 35
0010
0000
0100
0000
0010
0000
0001
0000
1000
0000
0010
0000
0100
0000
0000
0001
0000
0000
0100
0000
0000
0001
0000
0000
,  // measure 36
1000
0010
0100
0000
0010
1000
0100
0000
,  // measure 37
0100
0000
0010
0000
0001
0000
0100
0000
0010
0000
1000
0000
0001
0000
0000
1000
0000
0000
0001
0000
0000
0000
0000
0000
,  // measure 38
0010
0001
0100
0000
0010
0100
0001
0000
,  // measure 39
1001
1000
0001
0001
0001
0001
1000
0001
,  // measure 40
0100
0010
1010
0000
1000
0001
0011
0000
,  // measure 41
0100
0000
0100
0000
0010
0000
0100
0000
0100
0000
0010
0000
0001
0000
0000
1000
0000
0000
0001
0000
0000
0000
0000
0000
,  // measure 42
1000
0100
0110
0000
0010
0001
0101
0000
,  // measure 43
0001
0000
0001
0000
0010
0000
0001
0000
0001
0000
0010
0000
0100
0000
0000
1000
0000
0000
0100
0000
0000
0010
0000
0000
,  // measure 44
0001
0100
0101
0000
0001
1000
1010
0000
,  // measure 45
0010
0000
0010
0000
1000
0000
0010
0000
0010
0000
1000
0000
0001
0000
0000
1000
0000
0000
0001
0000
0000
0000
0000
0000
,  // measure 46
0100
0010
1010
0000
1000
0001
0011
0000
,  // measure 47
0100
0010
0001
0001
0001
0001
0001
0001
,  // measure 48
1000
0100
0010
0001
,  // measure 49
0100
0010
1000
0001
,  // measure 50
0110
1000
0001
0010
,  // measure 51
0100
0010
0001
0100
,  // measure 52
1001
0001
1000
0010
,  // measure 53
1000
0100
0010
0001
,  // measure 54
1001
0001
1000
0001
,  // measure 55
0101
0002
0023
0230
,  // measure 56
1300
0100
1000
0100
,  // measure 57
0010
0100
0010
0100
,  // measure 58
0010
0001
0010
0001
,  // measure 59
1000
0001
1000
0001
,  // measure 60
1000
0001
0010
0001
,  // measure 61
1000
0010
1000
0001
,  // measure 62
0001
1000
0100
1000
,  // measure 63
0001
0100
0001
1000
,  // measure 64
0110
0000
0000
0000
;

//---------------dance-single - ----------------
#NOTES:
     dance-single:
     :
     Hard:
     16:
     0.615404,0.930100,0.191814,0.119884,0.607412,539.000000,515.000000,24.000000,15.000000,0.000000,0.000000,0.615404,0.930100,0.191814,0.119884,0.607412,539.000000,515.000000,24.000000,15.000000,0.000000,0.000000:
// measure 0
0000
0000
0000
0000
,  // measure 1
0000
0000
0000
0000
,  // measure 2
0000
0000
0000
0000
,  // measure 3
0000
0000
0000
0000
,  // measure 4
0001
0000
1000
0001
1000
0000
0001
0000
0100
0000
0000
0010
0100
0000
0001
0000
,  // measure 5
0010
0000
0100
1000
0100
0000
0010
0000
0001
0100
0000
0010
0100
0000
0001
0000
,  // measure 6
1000
0000
0001
1000
0001
0000
1000
0000
0100
0000
0000
0010
0100
0000
1000
0000
,  // measure 7
0001
0100
0001
0000
0001
0000
0001
0000
0001
0000
0001
0000
0001
0000
1000
0000
,  // measure 8
0001
0000
0100
0000
0010
0000
0000
1010
0000
0000
1000
0000
0100
0000
0000
0110
,  // measure 9
0000
0000
0010
0000
0001
0000
0000
1001
0000
0000
1000
0000
0001
0000
0100
0000
,  // measure 10
0000
0000
0010
0000
1000
0000
0000
1100
0000
0000
0100
0000
1000
0000
0010
0000
,  // measure 11
0000
0000
0100
0000
0010
0000
0000
0101
0000
0000
0001
0000
0010
0000
0100
0000
,  // measure 12
0010
0000
0100
1000
0010
0000
0100
0000
1000
0000
0100
0001
0010
0000
0100
0000
,  // measure 13
1000
0000
0100
1000
0010
0000
0001
0000
0010
1000
0000
0100
0010
0000
0001
0000
,  // measure 14
1000
0001
1000
0001
1000
0001
1000
0001
1000
0001
1000
0001
1000
0001
1000
0001
,  // measure 15
1000
0010
1000
0000
1000
0000
1000
0000
1000
0000
1000
0000
1000
0000
0001
0000
,  // measure 16
1002
1000
0100
0010
,  // measure 17
0100
0000
0010
0000
1000
0000
0103
0011
,  // measure 18
2001
0100
0010
0001
,  // measure 19
0010
0100
0010
3001
,  // measure 20
0210
1000
0010
0001
,  // measure 21
0010
0000
1000
0000
0010
0000
0301
0101
,  // measure 22
0120
1000
0100
0001
,  // measure 23
0100
1000
0100
1030
,  // measure 24
1001
0000
0000
0000
0000
0000
1000
0000
0000
0000
0000
0000
0001
0000
0000
0000
0000
0000
0100
0010
0100
0010
0100
0010
,  // measure 25
0100
0000
0000
0000
0000
0000
0010
0000
0000
0000
0000
0000
1000
0000
0000
0000
0000
0000
0001
0100
0001
0100
0001
0100
,  // measure 26
0001
0000
0000
0000
0000
0000
0010
0000
0000
0000
0000
0000
0001
0000
0000
0000
0000
0000
1000
0010
1000
0010
1000
0010
,  // measure 27
1000
0000
0000
0000
0000
0000
0100
0000
0000
0000
0000
0000
0010
0000
0000
0000
0000
0000
0001
0010
0001
0010
0001
0010
,  // measure 28
0001
1000
0010
1000
0001
0010
0100
1000
0001
1000
0001
1000
0001
0100
1000
0100
,  // measure 29
0001
1000
0010
1000
0001
0010
0100
1000
0001
1000
0001
1000
0001
0100
1000
0100
,  // measure 30
0010
1000
0010
1000
0001
0100
0001
0100
0001
0010
0001
0010
0100
1000
0100
1000
,  // measure 31
0010
0100
0010
0200
0000
0300
0200
0300
0200
0300
0200
0300
2002
0000
3003
0000
,  // measure 32
1000
0000
0000
0100
0000
0000
0010
0001
0010
0001
0000
0000
0010
0000
0000
0100
0000
0000
1000
0001
1000
0001
0000
0000
,  // measure 33
0100
0000
0100
0000
0100
0000
0100
0000
0100
0000
0100
0000
0010
0000
0000
0100
0000
0000
0010
0000
0000
0000
0000
0000
,  // measure 34
1000
0000
0000
0100
0000
0000
0010
0100
0010
0100
0000
0000
0010
0000
0000
0001
0000
0000
1000
0010
1000
0010
0000
0000
,  // measure 35
0100
0000
0100
0000
0100
0000
0100
0000
0100
0000
0100
0000
0100
0000
0000
0010
0000
0000
0100
0000
0000
0001
0000
0000
,  // measure 36
0010
0000
0000
0100
0000
0000
1000
0100
1000
0100
0000
0000
0010
0000
0000
0001
0000
0000
0100
0010
0100
0010
0000
0000
,  // measure 37
1000
0000
1000
0000
1000
0000
1000
0000
1000
0000
1000
0000
1000
0000
0000
0001
0000
0000
1000
0000
0000
0000
0000
0000
,  // measure 38
0100
0000
0000
1000
0000
0000
0010
1000
0010
1000
0000
0000
0010
0000
0000
0100
0000
0000
0001
0100
0001
0100
0000
0000
,  // measure 39
0101
0010
1001
1001
1001
1001
0110
1001
,  // measure 40
0110
0000
0000
1000
0000
0000
0100
0010
0100
1000
0000
0000
0010
0000
0000
0100
0000
0000
0010
1000
0010
0100
0000
0000
,  // measure 41
0010
0000
0010
0000
0010
0000
0010
0000
0010
0000
0010
0000
0100
0000
0000
0010
0000
0000
1000
0000
0000
0000
0000
0000
,  // measure 42
0001
0000
0000
0010
0000
0000
0100
1000
0010
0100
0000
0000
0010
0000
0000
1000
0000
0000
0001
1000
0001
0010
0000
0000
,  // measure 43
0100
0000
0100
0000
0100
0000
0100
0000
0100
0000
0100
0000
0010
0000
0000
0100
0000
0000
1000
0000
0000
0010
0000
0000
,  // measure 44
0100
0000
0000
0001
0000
0000
0010
0001
0010
0100
0000
0000
0010
0000
0000
0100
0000
0000
1000
0100
0010
0100
0000
0000
,  // measure 45
0010
0000
0010
0000
0010
0000
0010
0000
0010
0000
0010
0000
0010
0000
0000
0001
0000
0000
1000
0000
0000
0000
0000
0000
,  // measure 46
0001
0000
0000
0100
0000
0000
0010
1000
0010
0100
0000
0000
0010
0000
0000
1000
0000
0000
0100
0010
0100
1000
0000
0000
,  // measure 47
0010
0100
0010
0100
0010
0100
0010
0100
0010
0100
0010
0100
0010
0100
0010
0100
,  // measure 48
0001
0000
0010
0000
0001
0000
0100
0000
0010
0000
1000
0000
0100
0010
0001
0000
,  // measure 49
0010
0000
0001
0000
1000
0000
0010
1000
0000
1000
0100
0000
0010
0100
1000
0000
,  // measure 50
1001
0000
0001
0000
1000
0000
0100
0000
1000
0000
0010
0000
0100
0001
0010
0000
,  // measure 51
0100
0000
0010
0000
0001
0000
0100
0010
0000
0010
1000
0000
0100
0010
0001
0000
,  // measure 52
1001
0000
0001
0000
0100
0000
1000
0000
0100
0000
0001
0000
0010
0100
1000
0000
,  // measure 53
0100
0000
0001
0000
0100
0000
1000
0100
0000
0010
0001
0000
1000
0000
0001
0000
,  // measure 54
1001
0000
1000
0000
0010
0000
0001
0000
0010
0000
0100
0000
0010
1000
0100
0000
,  // measure 55
0010
0001
0200
0000
0320
0000
2030
0000
,  // measure 56
3001
0010
0001
0100
,  // measure 57
0001
1000
0001
1000
,  // measure 58
1000
0001
1000
0010
,  // measure 59
1000
0001
1000
0001
,  // measure 60
0001
0100
0001
1000
,  // measure 61
0001
0010
0001
0001
,  // measure 62
1000
0010
1000
0001
,  // measure 63
0100
0010
1000
0010
0000
0000
0010
0000
0000
0010
0000
0000
0200
0000
0000
0000
,  // measure 64
0320
0000
0000
0000
,  // measure 65
0000
0000
0000
0000
,  // measure 66
0000
0000
0030
0000
;
