#TITLE:TECHNOPOLIS 2085;
#SUBTITLE:;
#ARTIST:PRASTIK DANCEFLOOR;
#TITLETRANSLIT:;
#SUBTITLETRANSLIT:;
#ARTISTTRANSLIT:;
#GENRE:;
#CREDIT:;
#BANNER:TECHNOPOLIS 2085.png;
#BACKGROUND:TECHNOPOLIS 2085-bg.png;
#LYRICSPATH:;
#CDTITLE:;
#MUSIC:TECHNOPOLIS 2085.ogg;
#OFFSET:1.748000;
#SAMPLESTART:102.133003;
#SAMPLELENGTH:14.328000;
#LASTBEATHINT:1.670533;
#SELECTABLE:YES;
#BPMS:0.000000=134.000000
,161.000000=67.000000
,161.500000=33.500000
,162.000000=67.000000
,178.000000=134.000000
,191.000000=67.000000
,192.000000=134.000000
;
#STOPS:190.000000=0.448000,
210.000000=0.224000,
210.500000=0.224000
;
#BGCHANGES:;
#KEYSOUNDS:;
#ATTACKS:;

//---------------dance-single - ----------------
#NOTES:
     dance-single:
     :
     Beginner:
     4:
     0.165287,0.280393,0.057850,0.043388,0.003616,160.000000,152.000000,8.000000,6.000000,0.000000,0.000000,0.165287,0.280393,0.057850,0.043388,0.003616,160.000000,152.000000,8.000000,6.000000,0.000000,0.000000:
// measure 0
0000
0000
0000
0000
,  // measure 1
0000
0000
0000
0000
,  // measure 2
0000
0000
0000
0000
,  // measure 3
0000
0000
0000
0000
,  // measure 4
0000
0000
0000
0000
,  // measure 5
0001
0000
0000
0000
,  // measure 6
1000
0000
0000
0000
,  // measure 7
0010
0000
0000
0010
,  // measure 8
0000
0000
0100
0010
,  // measure 9
1002
0000
0000
0000
,  // measure 10
0000
0000
0000
0000
,  // measure 11
0000
0000
0000
0000
,  // measure 12
0000
0000
0000
0003
,  // measure 13
0100
0000
0010
0000
,  // measure 14
0100
0000
0010
0000
,  // measure 15
0100
0000
0010
0000
,  // measure 16
2001
0000
0000
0000
,  // measure 17
3010
0010
1000
0000
,  // measure 18
0001
0000
0010
0000
,  // measure 19
0100
0000
0010
0000
,  // measure 20
0001
0001
1000
0000
,  // measure 21
0001
0000
0100
0000
,  // measure 22
0010
0000
1000
0000
,  // measure 23
0100
0100
0010
0000
,  // measure 24
1002
0000
0000
0000
,  // measure 25
0103
0000
0001
0000
,  // measure 26
0010
0000
0100
1000
,  // measure 27
0100
0000
1000
0000
,  // measure 28
0010
0010
0010
0010
,  // measure 29
0100
0000
0010
0000
,  // measure 30
1000
1000
0001
0000
,  // measure 31
0010
0000
0001
0000
,  // measure 32
0200
0000
0000
0300
,  // measure 33
0010
0000
0010
0000
,  // measure 34
0100
0000
0100
0010
,  // measure 35
1000
0000
1000
0000
,  // measure 36
1000
0001
0010
0000
,  // measure 37
0100
0100
0010
0010
,  // measure 38
0001
0000
1000
0000
,  // measure 39
0001
0100
0010
0000
,  // measure 40
2000
0000
3001
0000
,  // measure 41
0010
0000
0100
1000
,  // measure 42
0010
0000
0100
0000
0001
0001
0001
0000
,  // measure 43
0010
0000
0100
0000
1000
1000
1000
0000
,  // measure 44
0001
1000
0010
0000
,  // measure 45
1000
0000
0100
0000
,  // measure 46
1000
0000
0010
0000
,  // measure 47
0100
0000
0000
1001
,  // measure 48
0010
0000
1000
0000
,  // measure 49
0001
0000
0010
0000
,  // measure 50
0100
0100
1000
1000
,  // measure 51
0010
0010
0100
0100
,  // measure 52
0001
1000
0010
1001
,  // measure 53
0001
1000
0000
0001
,  // measure 54
0000
0010
0000
0100
,  // measure 55
0000
1000
0000
0100
,  // measure 56
0100
1000
0000
0010
,  // measure 57
0000
0100
0000
0010
,  // measure 58
0010
0100
0000
0001
,  // measure 59
0000
0010
0000
0100
,  // measure 60
0100
0010
0000
0001
,  // measure 61
1000
0010
0000
0120
,  // measure 62
0000
0000
0000
1030
,  // measure 63
1000
0001
0000
0010
,  // measure 64
0000
0100
0100
1000
,  // measure 65
1000
0001
0001
0100
,  // measure 66
0000
0001
0000
0010
,  // measure 67
0100
0010
0000
0100
,  // measure 68
0000
0000
0000
1001
,  // measure 69
0000
0000
0000
0000
0000
0000
0000
0000
0000
0000
0000
0000
0000
0010
0000
0000
,  // measure 70
0000
0000
1001
0000
;

//---------------dance-single - ----------------
#NOTES:
     dance-single:
     :
     Easy:
     7:
     0.273756,0.356864,0.151857,0.101238,0.018078,265.000000,244.000000,21.000000,14.000000,0.000000,0.000000,0.273756,0.356864,0.151857,0.101238,0.018078,265.000000,244.000000,21.000000,14.000000,0.000000,0.000000:
// measure 0
0000
0000
0000
0000
,  // measure 1
0000
0000
0000
0000
,  // measure 2
0000
0000
0000
0000
,  // measure 3
0000
0000
0000
0000
,  // measure 4
0000
0000
0000
0000
,  // measure 5
0001
0100
0001
0010
,  // measure 6
0100
0000
1000
0000
0100
0010
0001
0000
,  // measure 7
0011
0000
0000
1100
0000
0000
0011
0000
,  // measure 8
0000
1100
0000
0000
0100
0000
1000
0000
,  // measure 9
0020
0000
0000
0000
,  // measure 10
0000
0000
0000
0000
,  // measure 11
0130
0000
0100
0000
,  // measure 12
0100
0000
0100
0000
,  // measure 13
0010
1000
0002
0000
,  // measure 14
0013
0100
2000
0000
,  // measure 15
3100
0010
0002
0000
,  // measure 16
0103
0000
0000
0000
,  // measure 17
0001
0001
0100
0100
,  // measure 18
1000
0100
0001
1000
,  // measure 19
0100
0010
0001
0010
,  // measure 20
0001
1000
0100
0100
,  // measure 21
1000
1000
0010
0010
,  // measure 22
0001
0010
1000
0010
,  // measure 23
0100
0001
1000
0000
,  // measure 24
2002
0000
0000
3003
,  // measure 25
0101
0001
0010
0001
,  // measure 26
0100
0001
1000
0100
,  // measure 27
0010
0010
0100
0100
,  // measure 28
1000
1000
1000
1000
,  // measure 29
0001
0001
0100
0100
,  // measure 30
1000
0100
0001
0010
,  // measure 31
0001
1000
0100
1000
,  // measure 32
2010
0000
0000
0000
,  // measure 33
3001
0001
0010
0100
,  // measure 34
1000
0100
1000
0010
,  // measure 35
0100
0001
0010
0100
,  // measure 36
0010
0001
1000
0100
,  // measure 37
0110
0110
0100
0100
,  // measure 38
1000
0010
0100
0001
,  // measure 39
0010
0100
0010
0001
,  // measure 40
1000
0000
0000
0000
0100
0000
0010
0001
0100
0000
0000
0000
0000
0000
0000
0000
,  // measure 41
0010
1000
0001
0010
,  // measure 42
0100
1000
0100
0000
0010
0000
0100
0000
,  // measure 43
1000
0001
0100
0100
0001
0001
1000
1000
,  // measure 44
0100
0010
0001
0000
0010
0000
0001
0000
,  // measure 45
0100
0001
1000
0100
,  // measure 46
1000
0010
0200
0000
,  // measure 47
0320
0000
0000
0000
0030
0000
2002
3003
,  // measure 48
0110
1000
0010
0100
,  // measure 49
0001
0010
0010
0100
,  // measure 50
1000
0100
0010
0001
,  // measure 51
0010
1000
0010
0001
,  // measure 52
1000
0000
0001
1000
0010
1001
0101
0000
,  // measure 53
0101
1000
1000
0100
,  // measure 54
1000
0010
1000
0100
,  // measure 55
0010
0001
0010
0100
,  // measure 56
0010
0001
0001
1000
,  // measure 57
0001
0100
0100
0001
,  // measure 58
1000
0010
0100
0010
,  // measure 59
1000
0200
0000
0310
,  // measure 60
0010
0100
0100
1001
,  // measure 61
0110
0000
0000
0000
2001
0000
0000
0000
3000
0000
0000
0000
0001
0000
0000
1000
,  // measure 62
0000
0001
0100
0000
1010
0000
0001
0000
,  // measure 63
0010
0001
0100
0010
,  // measure 64
1000
0100
0100
0110
,  // measure 65
0110
0010
0010
0100
,  // measure 66
1000
0001
0100
0001
,  // measure 67
0010
0200
0000
0310
,  // measure 68
0001
1000
0001
0100
,  // measure 69
0010
0000
0000
1000
0000
0000
0010
0000
0000
0100
0000
0000
0000
0001
0000
0000
,  // measure 70
0010
0100
0010
0000
1001
0000
0000
0000
;

//---------------dance-single - ----------------
#NOTES:
     dance-single:
     :
     Medium:
     12:
     0.428712,0.793001,0.173551,0.238632,0.253095,415.000000,391.000000,24.000000,33.000000,0.000000,0.000000,0.428712,0.793001,0.173551,0.238632,0.253095,415.000000,391.000000,24.000000,33.000000,0.000000,0.000000:
// measure 0
0000
0000
0000
0000
,  // measure 1
0000
0000
0000
0000
,  // measure 2
0000
0000
0000
0000
,  // measure 3
0000
0000
0000
0000
,  // measure 4
0000
0000
0000
0000
,  // measure 5
1000
0000
0001
0000
0010
0000
0000
0010
0000
0000
0100
0000
0000
0100
0000
0000
,  // measure 6
0000
0010
0000
0000
0001
0000
1000
0000
0100
0000
0010
0000
0001
0000
0000
0000
,  // measure 7
0011
0001
0000
1100
1000
0000
0011
0001
,  // measure 8
0000
1100
1000
0000
1001
0000
0110
0000
,  // measure 9
2001
0010
0010
0010
,  // measure 10
0100
0100
0100
0100
,  // measure 11
0001
0001
0010
0010
,  // measure 12
0001
0010
0100
0010
,  // measure 13
3001
0000
0100
0010
2000
0000
0000
0000
,  // measure 14
3100
0000
0010
0001
0200
0000
0000
0000
,  // measure 15
0310
0000
1000
0001
0020
0000
0000
0000
,  // measure 16
0130
0000
0000
0000
0100
0000
0000
0000
0100
0000
0000
0000
1000
0001
1000
0001
,  // measure 17
1000
0000
0000
0000
1000
0000
0000
0000
0001
0100
0000
0000
0001
0100
0000
0000
,  // measure 18
0010
0000
0000
1000
0000
0000
0100
0000
1000
0000
0000
0001
0000
0001
0000
0000
,  // measure 19
1000
0010
0001
0010
1000
0000
0001
0000
,  // measure 20
0010
0000
0000
0000
0100
0000
0000
0000
0010
0000
0100
0010
0000
0100
0010
0000
,  // measure 21
0100
0000
0000
0000
0100
0000
0000
0000
1000
0001
0000
0000
1000
0001
0000
0000
,  // measure 22
0100
0000
0000
0001
0000
0000
0010
0000
0001
0000
0000
1000
0000
1000
0000
0000
,  // measure 23
0100
1000
0010
0100
0002
0000
0000
0000
,  // measure 24
0013
0000
0000
0000
0010
0000
0000
0000
0010
0000
0000
0000
0100
1000
0100
1000
,  // measure 25
0001
0000
0001
0000
1000
0001
0010
0100
,  // measure 26
0010
0000
0100
0000
0010
0001
0100
0001
,  // measure 27
2000
3200
0320
0032
,  // measure 28
1003
0000
0000
1000
0100
0000
0000
0010
0001
0000
0000
1000
0100
0000
0000
0010
,  // measure 29
0001
0000
0000
0000
0001
0000
0000
0000
0100
0010
0000
0000
0100
0010
0000
0000
,  // measure 30
1000
0100
0001
0000
0100
0000
1000
0000
,  // measure 31
0010
0100
0001
1000
0200
0000
0000
0000
,  // measure 32
0310
0000
0001
1000
0000
0001
1000
0000
0001
0000
0010
0000
0200
0000
0000
0000
,  // measure 33
0320
0000
0130
0000
0010
0001
0100
0001
,  // measure 34
2000
0000
3100
0000
1000
0010
0001
0010
,  // measure 35
0200
0301
0200
0310
,  // measure 36
1000
0000
0000
0001
0100
0001
0020
0000
0000
0130
0000
0000
,  // measure 37
1000
0000
0000
0000
1000
0000
0000
0000
0001
0100
0000
0000
0001
0100
0000
0000
,  // measure 38
0010
0010
0010
0000
0100
0010
1000
0001
,  // measure 39
0010
0100
1000
0001
,  // measure 40
2000
0000
3200
0020
0330
0000
0000
0000
,  // measure 41
0001
0000
0100
0001
0010
0000
0100
0000
2000
0000
0000
3000
0002
0000
0000
0000
,  // measure 42
1003
0010
1000
0010
0100
0000
0001
0000
0010
0100
1000
0100
0010
0000
0100
0000
,  // measure 43
1000
0010
0100
0001
0011
0000
0011
0000
1001
0000
0110
0000
1001
0000
0110
0000
,  // measure 44
1000
0010
0100
0001
0010
1000
0010
0001
1000
0000
0000
0000
0001
0000
1000
0000
,  // measure 45
0100
0000
0010
0100
1000
0000
0100
0010
,  // measure 46
0001
0000
0010
0001
0200
0000
0310
0000
,  // measure 47
2000
0000
3001
0000
0000
0000
0220
0030
,  // measure 48
0301
0000
0010
0001
0100
0000
0010
1000
,  // measure 49
0100
0000
0010
0001
0100
0000
0010
0000
,  // measure 50
0100
0100
0010
0010
1000
1000
0001
0001
,  // measure 51
1000
0100
0010
0001
0010
0100
1000
0000
,  // measure 52
0001
0100
0010
1000
0001
0110
1001
0000
,  // measure 53
0110
0000
0000
0000
1000
0010
0000
0000
1000
0010
0000
0000
0100
0000
0000
0001
,  // measure 54
0000
0000
0010
0000
0001
0000
0000
1000
0000
1000
0000
0000
0100
0000
1000
0000
,  // measure 55
0001
0000
0100
0001
1000
0000
1100
0000
,  // measure 56
0101
0000
0000
0000
0010
0000
1000
0010
0000
1000
0010
0000
0110
0000
0000
0000
,  // measure 57
0110
0000
0000
0000
0001
1000
0000
0000
0001
1000
0000
0000
0100
0000
0000
0010
,  // measure 58
0000
0000
0100
0000
1000
0000
0000
0010
0000
0010
0000
0000
0100
0000
0001
0000
,  // measure 59
0100
0010
2000
0000
0000
0000
3100
0100
,  // measure 60
0100
1000
0001
0200
,  // measure 61
0301
0000
0000
0000
0100
0000
1000
0000
0100
0000
0001
0000
2000
0000
0000
3010
,  // measure 62
0000
0000
0100
0000
0002
0000
0000
0010
0000
0013
0000
0000
0100
0000
0010
0000
,  // measure 63
0001
0100
0020
0000
1030
0000
2000
0000
,  // measure 64
3010
0000
0000
0000
0100
0000
0001
1000
0000
0001
1000
0000
0011
0000
0000
0000
,  // measure 65
0011
0000
0000
0000
0010
0100
0000
0000
0010
0100
0000
0000
0010
0000
0000
0001
,  // measure 66
0000
0000
0100
0000
0001
0000
0000
1000
0000
1000
0000
0000
0100
0000
1000
0000
,  // measure 67
0100
0010
0002
0000
0000
0000
0103
0010
,  // measure 68
1000
0000
0001
0010
0000
0010
0001
0000
1100
0000
0000
0000
0100
0000
0100
0000
,  // measure 69
0100
0000
0000
0100
0000
0000
0010
0000
0000
0010
0000
0000
0000
0001
0000
0000
,  // measure 70
1000
1000
0100
0010
0200
0000
0300
0000
;

//---------------dance-single - ----------------
#NOTES:
     dance-single:
     :
     Hard:
     13:
     0.484496,0.815689,0.137394,0.347102,0.404952,469.000000,450.000000,19.000000,48.000000,0.000000,0.000000,0.484496,0.815689,0.137394,0.347102,0.404952,469.000000,450.000000,19.000000,48.000000,0.000000,0.000000:
// measure 0
0000
0000
0000
0000
,  // measure 1
0000
0000
0000
0000
,  // measure 2
0000
0000
0000
0000
,  // measure 3
0000
0000
0000
0000
,  // measure 4
0000
0000
0000
0000
,  // measure 5
1000
0000
0010
0000
0100
0000
0100
0010
0000
0000
0100
0000
0000
0100
0000
0000
,  // measure 6
0000
0010
0000
0000
0010
0000
0010
0000
0100
0000
0001
0000
1001
0000
0000
0000
,  // measure 7
0001
0100
0000
1000
0100
0000
0001
0100
,  // measure 8
0000
1000
0100
0000
0001
0100
0020
0000
,  // measure 9
1000
0000
0100
0000
1000
1000
1000
0000
,  // measure 10
0100
0000
1000
0000
0100
0100
0100
0000
,  // measure 11
1000
0000
0100
0000
1000
1000
1000
0000
,  // measure 12
0100
0000
1000
0000
0100
0100
0130
0000
,  // measure 13
0001
0000
0010
0200
2000
0000
0000
3300
,  // measure 14
0010
0000
0100
2000
0002
0000
0000
3003
,  // measure 15
1000
0000
0001
0200
0020
0000
0000
0330
,  // measure 16
1000
0000
0000
0000
1000
0000
0000
0000
1000
0000
0000
0000
0001
0100
0001
0100
,  // measure 17
0001
0000
0000
0000
0001
0000
0000
0000
1000
0100
0000
0000
1000
0100
0000
0000
,  // measure 18
1000
0000
0000
0010
0000
0000
1000
0000
0001
0000
0000
0010
0000
0010
0000
0000
,  // measure 19
0100
0010
0100
0010
0100
0000
0010
0000
0002
0000
0000
0000
0203
0000
0000
0000
,  // measure 20
0320
0000
0000
0000
1000
0000
0000
0000
0130
0000
0001
0100
0000
0001
0100
0000
,  // measure 21
0010
0000
0000
0000
0010
0000
0000
0000
1000
0001
0000
0000
1000
0001
0000
0000
,  // measure 22
0010
0000
0000
0001
0000
0000
0100
0000
0001
0000
0000
1000
0000
1000
0000
0000
,  // measure 23
0100
0000
1000
0000
0010
0000
0100
0001
2000
0000
0000
0000
0000
0000
0000
0000
,  // measure 24
3100
0000
0000
0000
0100
0000
0000
0000
0100
0000
0000
0000
0010
0001
0010
0001
,  // measure 25
1000
0000
0000
0000
0001
0000
1000
0001
0010
0000
1000
0000
0010
0000
0001
0000
,  // measure 26
1000
0100
1000
0000
0001
0100
1000
0100
,  // measure 27
0010
0010
0100
0010
1000
0000
0001
0000
,  // measure 28
1000
0000
0001
1000
0001
0000
0001
1000
0001
0000
0001
1000
0001
0000
0001
1000
,  // measure 29
0010
0000
0000
0000
0010
0000
0000
0000
0100
0001
0000
0000
0100
0001
0000
0000
,  // measure 30
1000
0000
1000
0010
1000
0000
0000
0000
0001
0000
0010
0000
1000
0000
0010
0000
,  // measure 31
0001
0100
0001
1000
0200
0000
0000
0000
,  // measure 32
0310
0000
0001
0010
0000
0100
1000
0001
0100
0001
0010
0001
0100
0000
0000
0000
,  // measure 33
0020
0000
0000
0000
1030
0000
1000
0100
1000
0000
0010
0000
0001
0000
0010
0000
,  // measure 34
1000
0000
1000
0001
0010
0000
0000
0000
0100
0000
0010
0000
0001
0000
1000
0000
,  // measure 35
0010
0010
1000
0001
0010
0000
0100
0000
,  // measure 36
0010
0000
0000
0100
1000
0010
0200
0000
0000
0302
0000
0000
,  // measure 37
0013
0000
0000
0000
0010
0000
0000
0000
0100
1000
0000
0000
0100
1000
0000
0000
,  // measure 38
0001
0000
0001
1000
0001
0000
0000
0000
0100
0000
0001
0000
0010
0000
0100
0000
,  // measure 39
0010
0001
0100
1000
0100
0001
0010
0100
,  // measure 40
2000
0000
0000
0000
3200
0000
0320
0032
1003
0000
0000
0000
0000
0000
0000
0000
,  // measure 41
1001
0000
0001
1000
0010
0000
0001
1000
0020
0000
0030
0000
0200
0000
0300
0000
,  // measure 42
0001
0000
0010
0000
0100
1000
0010
1000
0001
0010
0001
0010
0002
0000
0000
0000
,  // measure 43
0003
0000
0100
0010
0100
0000
0010
0000
1000
0000
0000
0000
1000
0000
0000
0000
1100
0000
0000
0000
0101
0000
0000
0000
1100
0000
0000
0000
0101
0000
0000
0000
,  // measure 44
1000
0001
1000
0001
1000
0100
0010
0001
2000
0000
0000
0000
0000
0000
0000
0000
3010
0000
0000
0000
0000
0000
0100
0000
0010
0000
0000
0000
1000
0000
0000
0000
,  // measure 45
0100
0000
0000
0010
0100
0000
1000
0000
0001
0000
0000
1000
0001
0000
0100
0000
,  // measure 46
0001
0000
0000
1000
0001
0000
0010
0000
0220
0000
0000
0000
0330
0000
0000
0000
,  // measure 47
2002
0000
3003
0000
0000
0000
0220
0330
,  // measure 48
1001
0000
0000
0000
1000
0000
0001
0010
0001
0000
0000
0000
0000
0000
1000
0100
,  // measure 49
1000
0000
0000
0000
0000
0000
0001
0100
0001
0000
0000
0000
0000
0000
0100
0010
,  // measure 50
0100
0100
0001
0001
0010
0010
1000
1000
,  // measure 51
0010
0001
0000
0100
0000
0010
0100
0001
1000
0001
0000
0010
0000
0100
1000
0000
,  // measure 52
0001
0100
0010
1000
0001
0000
1000
0000
1010
0000
0011
0000
2100
0000
0000
0000
,  // measure 53
0100
0000
0000
0000
3001
0010
0000
0000
0001
0010
0000
0000
0100
0000
0000
1000
,  // measure 54
0000
0000
0010
0000
1000
0000
0000
0001
0000
0001
0000
0000
0010
0000
0001
0000
,  // measure 55
0100
0000
0010
1000
0200
0000
0000
0000
2300
0000
0000
0000
3020
0000
0000
0000
,  // measure 56
1000
0000
0000
0000
0130
0000
0010
0100
0000
0010
0100
0000
0201
0000
0000
0000
,  // measure 57
0001
0000
0000
0000
0310
1000
0000
0000
0010
1000
0000
0000
0001
0000
0000
0010
,  // measure 58
0000
0000
0001
0000
1000
0000
0000
0100
0000
0100
0000
0000
0010
0000
0100
0000
,  // measure 59
1000
0001
1000
0100
0020
0000
0000
0000
0000
0000
0000
0000
0130
0000
0100
0010
,  // measure 60
0100
0110
1001
2001
,  // measure 61
3200
0000
0000
0000
0310
0001
1000
0010
2000
0000
3001
0000
2000
0000
0000
3200
,  // measure 62
0000
0000
0320
0000
0032
0000
0000
0100
0000
0103
0000
0000
0010
0000
1000
0000
,  // measure 63
0001
0000
0010
0100
2000
0000
0000
0000
3002
0000
0000
0000
0023
0000
0000
0000
,  // measure 64
0100
0000
0000
0000
0031
0000
1000
0001
0000
1000
0001
0000
0102
0000
0000
0000
,  // measure 65
0100
0000
0000
0000
0013
0100
0000
0000
0010
0100
0000
0000
1000
0000
0000
0100
,  // measure 66
0000
0000
1000
0000
0010
0000
0000
0100
0000
0100
0000
0000
0010
0000
0100
0000
,  // measure 67
0001
1000
0010
0100
0020
0000
0000
0000
0000
0000
0000
0000
0130
0000
0100
0000
,  // measure 68
0010
0000
0100
0010
0000
0100
0010
1000
0200
0000
0000
0000
0310
0000
0001
0000
,  // measure 69
0100
0000
0100
0010
0000
0000
0100
0000
0000
0100
0000
0000
0000
0010
0000
0000
,  // measure 70
0010
0010
1000
0100
1001
0000
0000
0000
;

//---------------dance-single - ----------------
#NOTES:
     dance-single:
     :
     Challenge:
     15:
     0.598131,0.946485,0.289251,0.752054,0.777363,579.000000,539.000000,40.000000,104.000000,9.000000,0.000000,0.598131,0.946485,0.289251,0.752054,0.777363,579.000000,539.000000,40.000000,104.000000,9.000000,0.000000:
// measure 0
0000
0000
0000
0000
,  // measure 1
0000
0000
0000
0000
,  // measure 2
0000
0000
0000
0000
,  // measure 3
0000
0000
0000
0000
,  // measure 4
0000
0000
0000
0000
,  // measure 5
1000
0000
1000
0000
1000
0000
1000
0001
0000
0000
0100
0010
0000
0100
0010
0000
,  // measure 6
0000
1000
0000
0000
1000
0000
1000
0000
0010
0000
0100
0000
1010
0000
0000
0000
,  // measure 7
0102
0010
0103
2100
0010
3100
0102
0010
,  // measure 8
0103
0000
2100
0000
0010
0000
3100
0000
1001
0000
0001
0100
0010
0000
0000
0000
,  // measure 9
1000
0000
0001
0000
1000
0010
0000
1000
0000
0010
1000
0000
0001
0010
0100
0010
,  // measure 10
0001
0000
1000
0000
0001
1000
0000
0001
0000
0100
0001
0010
0001
1000
0100
1000
,  // measure 11
0010
0000
0100
0000
0001
0010
0000
0001
0000
0010
0001
0000
0010
0100
0010
0001
,  // measure 12
1000
0000
0001
0000
0010
0001
0000
0100
0000
0001
0010
0000
0100
0010
0100
1000
,  // measure 13
0010
0000
1000
0000
0100
0000
0010
0001
0200
0000
0000
0000
1300
0000
0000
0000
,  // measure 14
0100
0000
0010
0000
1000
0000
0100
1000
0020
0000
0000
0000
0031
0000
0000
0000
,  // measure 15
0100
0000
0010
0000
1000
0000
0001
0010
0200
0000
0000
0000
0301
0000
0000
0000
,  // measure 16
4000
0004
0000
0000
0000
0000
0000
0000
0000
0000
0000
0000
0000
0000
3003
0000
,  // measure 17
0210
0000
0000
0300
0210
0000
0000
0300
0001
0020
0000
0030
001M
2000
0000
3000
,  // measure 18
0001
0000
0100
0001
0000
0001
0010
0000
0100
0000
0000
0010
0000
0010
0000
0000
,  // measure 19
0100
1000
0100
1000
0010
0000
0100
0001
0020
0000
0000
0000
0032
0000
0000
0000
,  // measure 20
0203
0000
0000
0000
0310
0000
0000
0000
1000
0000
0001
0001
0000
0001
0001
0000
,  // measure 21
1020
0000
0000
0000
0000
0000
0000
0000
0000
0030
0000
0000
1020
0000
0000
0000
0000
0000
0000
0000
0000
0030
0000
0000
1000
0000
0000
0200
0000
0000
0000
0000
M000
0300
0000
0000
0100
0000
0000
0002
0000
0000
0000
0000
0000
0000
0000
0000
,  // measure 22
0013
0000
0000
0100
0000
0000
1000
0000
0010
0000
0000
0100
0000
0100
0000
0000
,  // measure 23
0010
0100
0010
0100
0010
1000
0001
0010
0200
0000
0000
0000
0000
0000
0000
0000
,  // measure 24
4300
0004
0000
0000
0000
0000
0000
0000
0000
0000
0000
0000
0000
0000
3003
0000
,  // measure 25
0210
0000
0000
0000
0320
0000
1030
0001
0010
0000
1000
0000
0010
0000
0001
0000
,  // measure 26
1000
0000
0010
0100
0001
0000
0010
0000
0012
0000
0103
0000
1020
0000
0130
0000
,  // measure 27
1001
1000
0001
0010
0001
0000
0100
0001
0020
0000
0000
0000
1000
0000
0000
0000
,  // measure 28
0031
0000
0001
0100
1000
0000
0001
0100
1000
0000
0001
0100
1000
0000
0001
0100
,  // measure 29
2000
0000
0000
0000
3200
0000
0000
0000
0301
0020
0000
0030
001M
2000
0000
0000
,  // measure 30
3001
0000
0100
0100
0010
0000
1000
0000
0002
0000
0023
0000
2030
0000
3020
0000
,  // measure 31
0031
0000
0000
1000
0010
1000
0100
0000
0000
1000
0000
0000
0002
0000
0000
0000
0000
0000
0000
0000
0000
0000
0000
0000
,  // measure 32
2003
0000
0000
3000
0000
0000
0004
0000
0000
0043
0000
0000
0030
0000
0000
0040
0000
0000
0034
0000
0000
0403
0000
0000
0320
0000
2000
0030
3200
0000
2300
0000
3000
0200
0000
0000
0320
0000
0000
0000
0000
0000
0000
0000
0000
0000
0000
0000
,  // measure 33
0230
0000
0000
0000
2300
0000
3010
0100
0001
0000
0100
0000
1000
0100
0010
1000
,  // measure 34
0001
0000
0010
0100
1000
0000
0100
0000
2000
0000
3200
0000
0302
0000
0203
0000
,  // measure 35
1300
0000
1000
0000
1000
0100
0010
0001
0200
0000
0000
0000
0001
0000
0000
0000
,  // measure 36
0310
0000
0000
0100
0010
1000
0002
0000
0000
0013
0000
0000
,  // measure 37
2100
0000
3000
0000
2100
0000
3000
0000
0001
0200
0000
0300
010M
2000
0000
0000
,  // measure 38
3010
0000
0100
0100
0100
0000
0000
0000
0010
0000
0100
0000
0001
0000
1000
0000
,  // measure 39
0200
0320
0002
0033
,  // measure 40
1002
0000
0000
0000
0000
0000
0000
0000
0203
0000
0000
0000
0320
0000
0200
0330
2002
0000
0000
0000
0000
0000
0000
3003
0001
0100
0000
0100
0000
0000
0010
0000
,  // measure 41
1001
0000
0000
0000
1000
0100
1000
0001
0010
0000
0000
0000
0110
0000
0000
0000
2000
0000
0000
0000
3000
0000
0000
0000
0020
0000
0000
0000
0000
0000
0000
0030
,  // measure 42
0201
0000
0310
0000
0201
0000
0310
0000
1000
0010
1000
0010
0100
0001
0100
0001
0020
0000
1030
0000
0020
0000
0031
0000
2000
0000
0000
0000
0000
0000
0000
0000
,  // measure 43
3010
0000
0100
0100
0001
0000
1000
0000
0020
0000
0030
0000
0020
0000
0030
0000
1001
0000
0000
0000
0110
0000
0000
0000
1001
0000
0000
0000
0101
0000
0000
0000
,  // measure 44
1000
0001
0010
0001
1000
0100
0010
0100
4000
0040
0000
0000
0000
0000
3030
0000
0101
0000
0000
0000
0000
0000
0001
0000
0010
0000
0000
0000
0001
0000
0000
0000
,  // measure 45
1000
0000
0000
0100
1000
0000
0010
0000
0100
0000
0000
0001
0010
0000
0100
0000
,  // measure 46
0010
0000
0000
0001
0100
0000
0010
0000
2000
0000
0000
0000
3100
0000
0000
0000
,  // measure 47
0002
0000
0000
0000
0103
0000
0000
0000
0000
0000
0000
0000
0220
0000
0000
0330
,  // measure 48
1001
0000
0000
1000
0100
0000
1000
0010
0100
0000
0000
0000
0010
0000
0100
0001
,  // measure 49
0010
0000
1000
0000
0010
0000
0001
0010
0100
0000
1000
0000
0010
0000
0100
0000
,  // measure 50
0010
1000
0010
1000
0001
0100
0001
0100
0010
0100
0010
0100
0001
1000
0001
1000
,  // measure 51
0001
0010
0000
0100
0000
0010
0001
0100
0010
1000
0000
0010
0000
0100
0001
0000
,  // measure 52
1000
0010
0001
0010
0100
0000
0001
0000
2001
000M
3100
0M00
1002
0000
0000
0003
,  // measure 53
1002
0000
0000
0003
1000
0020
0000
M030
0010
0002
0000
0000
0103
0000
0010
1000
,  // measure 54
0000
0100
0010
0000
0100
0000
0000
0010
0000
0001
0000
0000
0100
0001
0100
0010
,  // measure 55
0100
0000
0010
1000
0200
0000
0000
0000
2300
0000
0000
0000
3002
0000
0000
0000
,  // measure 56
0010
0000
0000
0000
0103
0000
0100
0100
0000
0100
0100
0000
1002
0000
0000
0003
,  // measure 57
1002
0000
0000
0003
1000
0200
0000
M300
0100
0002
0000
0000
0013
0000
0100
0010
,  // measure 58
0000
0100
1000
0000
0010
0000
0000
0100
0000
0100
0000
0000
0010
1000
0010
1000
,  // measure 59
0010
0100
0001
1000
0200
0000
0000
0000
0000
0000
0000
0000
0310
0000
0010
0010
,  // measure 60
0010
1001
0110
2001
,  // measure 61
0020
0000
0000
0000
0000
0000
0000
0000
0000
3000
0000
0000
0130
0000
0010
0000
1000
0000
0001
0000
0000
0010
0000
0000
0400
0000
0000
0000
0000
0000
0320
0000
0000
0000
0000
0000
0032
0000
0000
0000
0000
0000
0000
0000
0000
0203
0000
0000
,  // measure 62
0000
0000
0010
0000
0302
0000
0000
0010
0000
0010
0000
0000
0103
0001
0010
0001
,  // measure 63
1000
0000
0100
0010
0002
0000
0000
0000
0203
0000
0000
0000
0320
0000
0000
0000
,  // measure 64
1000
0000
0000
0000
0130
0000
0010
0010
0000
0010
0010
0000
2001
0000
0000
3000
,  // measure 65
2001
0000
0000
3000
0001
0020
0000
003M
0010
2000
0000
0000
3001
0000
0010
0001
,  // measure 66
0000
1000
0100
0000
0010
0000
0000
0100
0000
0100
0000
0000
0010
0001
0010
0001
,  // measure 67
0100
0010
1000
0001
2000
0000
0000
0000
0000
0000
0000
0000
3001
0000
0001
0000
,  // measure 68
1010
0000
0001
0001
0000
1000
0100
0010
0200
0000
0000
0000
0310
0000
0010
0000
,  // measure 69
0010
0000
0010
0010
0000
0000
0001
0000
0000
0001
0000
0000
0000
0100
0000
0000
,  // measure 70
0100
0100
0020
1030
0200
0000
0300
0000
;

//---------------dance-double - ----------------
#NOTES:
     dance-double:
     :
     Challenge:
     16:
     0.617758,1.074388,0.325408,0.643584,0.715897,598.000000,553.000000,45.000000,89.000000,0.000000,0.000000,0.617758,1.074388,0.325408,0.643584,0.715897,598.000000,553.000000,45.000000,89.000000,0.000000,0.000000:
00000000
00000000
00000000
00000000
,
00000000
00000000
00000000
00000000
,
00000000
00000000
00000000
00000000
,
00000000
00000000
00000000
00000000
,
00000000
00000000
00000000
00000000
,
10000000
00000000
10000000
00000000
10000000
00000000
00010000
00100000
00000000
00000000
00101000
00000000
00000000
00101000
00000000
00000000
,
00000000
00010100
00000000
00000000
00001000
00000000
00001000
00000000
00000100
00000000
00000001
00000000
00001100
00000000
00000000
00000000
,
00001001
00000001
00000100
00001000
00010000
00100000
10000000
01000000
,
00100000
00010000
00001000
00000100
00000010
00000001
00001001
00000000
,
00000010
00000000
00010000
00000000
00000100
00001000
00000000
00001000
00000000
00000010
00000100
00000010
00000000
00000100
00000001
00000100
,
00000010
00000000
00001000
00000000
00000100
00001000
00000000
00000100
00000000
00010000
00001000
00010000
00000100
00010000
00001000
01000000
,
00100000
00000000
01000000
00000000
00100000
10000000
00000000
01000000
00000000
00100000
01000000
10000000
00000000
10000000
01000000
00100000
,
01000000
00000000
10000000
00000000
00010000
00100000
00000000
00001000
00000000
00100000
00001000
00010000
00000100
00001000
00000010
00000100
,
00000001
00000000
00000100
00000000
00000010
00000000
00001000
00000400
00040000
00000000
00000000
00000000
00000000
00000000
00030300
00000000
,
00001000
00000000
01000000
00000000
00100000
00000000
10000000
04000000
00400000
00000000
00000000
00000000
00000000
00000000
03300000
00000000
,
00010000
00000000
00100000
00000000
00001000
00000000
00010000
00000400
00000040
00000000
00000000
00000000
00000000
00000000
00000000
00000330
,
00001001
00000000
00000000
00000000
00001001
00000000
00000000
00000000
00001001
00000000
00000000
00000000
00000001
00000001
00000100
00000100
,
00000020
00000000
00000000
00000000
00020030
00000000
00000000
00000000
00030100
00002000
00000000
00000000
00003100
00002000
00000000
00000000
,
00003100
00000000
00001000
00000100
00000000
00000100
00010000
00000000
00002000
00000000
00000000
01000000
00000000
01003000
00000000
00000000
,
00100000
10000000
00010000
01000000
00010000
00000000
00100000
01000000
20000000
00000000
00000000
00000000
30020000
00000000
00000000
00000000
,
00230000
00000000
00000000
00000000
00302000
00000000
00000000
00000000
00013000
00000000
00000100
00000100
00000000
00000100
00000100
00000000
,
00002000
00000000
00000000
00000000
00003020
00000000
00000000
00000000
00000130
00000002
00000000
00000000
00000103
00000002
00000000
00000000
,
00000013
00000000
00000100
00000010
00000000
00000001
00000100
00000000
00000020
00000000
00000000
00010000
00000000
00010030
00000000
00000000
,
00001000
00010000
00001000
01000000
00100000
00010000
00100000
20000000
00020000
00000000
00000000
00000000
00000000
00000000
30030000
00000000
,
11000000
00000000
00000000
00000000
11000000
00000000
00000000
00000000
11000000
00000000
00000000
00000000
00100000
00100000
00001000
00001000
,
00020000
00000000
00000000
00000000
00030200
00000000
00001300
00000010
00000001
00000000
00000010
00000000
00001000
00000001
00000010
00000100
,
00001000
00000000
00000100
00010000
00001000
00000000
00100000
00000000
00001000
00000000
01000000
00000000
10000000
00000000
01000000
00000000
,
00010000
00100000
00010000
00000000
00100000
00000000
00100000
01000000
20000000
00000000
00000000
00000000
30020000
00000000
00000000
00000000
,
00130000
00000000
00100000
00001000
00100000
00000000
00001000
00010000
00001000
00000000
00100000
00001000
00100000
00000000
00001000
00010000
,
00002000
00000000
00000000
00000000
02003000
00000000
00000000
00000000
03100000
20000000
00000000
00000000
30100000
20000000
00000000
00000000
,
31000000
00000000
01000000
01000000
01000000
00000000
00000000
00000000
00100000
00000000
00001000
00000000
00010000
00000000
00000100
00000000
,
00001000
00000000
00000000
00000010
00000100
00000010
00000100
00000000
00000000
00000001
00000000
00000000
00002000
00000000
00000000
00000000
00000000
00000000
00000000
00000000
00000000
00000000
00000000
00000000
,
00003400
00000000
00000000
00000000
00000000
00000000
00010300
00000000
00000000
00004000
00000000
00000000
00000000
00000000
00000000
01003000
00000000
00000000
00100000
00000000
00000000
10000000
00000000
00000000
01000000
00000000
00100000
00000000
01000000
00000000
00100000
00000000
00000000
01000000
00000000
00000000
20000000
00000000
00000000
00000000
00000000
00000000
00000000
00000000
00000000
00000000
00000000
00000000
,
30020000
00000000
00000000
00000000
00130000
00000000
01000000
00100000
00010000
00000000
00100000
00000000
00001000
00100000
00001000
00010000
,
00000100
00000000
00000100
00001000
00000010
00000000
00000001
00000000
00000010
00000100
00000010
00000100
00000010
00000000
00000001
00000000
,
00001000
00000100
00001000
00000000
00000100
00000000
00010000
00000000
00001000
00000000
01000000
00000000
10000000
00000000
01000000
00000000
,
00020000
00000000
00000000
00230000
00302000
00023000
00030020
00000000
00000000
00000100
00000000
00000000
,
00002030
00000000
00000000
00000000
00003002
00000000
00000000
00000000
00000013
00000200
00000000
00000000
00000310
00000200
00000000
00000000
,
00001300
00000000
00001000
00001000
00001000
00000000
00000100
00000000
00000010
00000000
00000000
00000000
00000001
00000000
00000000
00000000
,
00000200
00000320
00020000
00030030
,
00012000
00000000
00000000
00000000
00000000
00000000
00000000
00000000
02003000
00000000
00000000
00000000
03200000
00000000
20300000
00000000
31000000
00000000
00000000
00000000
00000000
00000000
00000000
00000000
00100000
00010000
00000000
00010000
00000000
00000000
00100000
01000000
,
10000000
00000000
01000000
10000000
00100000
00000000
01000000
00010000
00200000
00000000
00301000
00000000
00020000
00000000
00030100
00000000
,
00001000
00000000
00001000
00000000
00000001
00000000
00000001
00000000
00000100
00000010
00000100
00000010
00001000
00000001
00001000
00000001
00000020
00000000
00001030
00000000
00000020
00000000
00000031
00000000
00000120
00000000
00000000
00000000
00000130
00000000
00000000
00000000
,
00001001
00000000
00001000
00001000
00001000
00000000
00000100
00000000
00010200
00000000
00000000
00000300
00020100
00000000
00000000
00030000
00011000
00000000
00000000
00000000
00100010
00000000
00000000
00000000
00011000
00000000
00000000
00000000
00100010
00000000
00000000
00000000
,
00010000
00000100
00010000
00001000
00010000
00000100
00010000
00001000
01000000
01000000
00100000
10000000
00010000
00010000
10000000
10000000
01000000
00000000
00000000
00000000
00000000
00000000
00100000
00000000
00010000
00000000
00000000
00000000
01000000
00000000
00000000
00000000
,
01001000
00000000
00000000
00001000
00010000
00000000
00000100
00000000
00001100
00000000
00000000
00001000
00010000
00000000
00000010
00000000
,
00000110
00000000
00000000
00000100
00000001
00000000
00000010
00000000
00000210
00000000
00000000
00000000
00001300
00000000
00000000
00000000
,
00012000
00000000
00000000
00000000
01003000
00000000
00000000
00000000
00000000
00000000
00000000
00000000
00000220
00000000
00000000
00000330
,
00001001
00000000
00000000
00000000
00000001
00000000
00000001
00000010
00000100
00000000
00000000
00000000
00000100
00000000
00000100
00001000
,
00000200
00010300
00002000
01003000
00100000
00000000
10010000
00000000
,
10000000
01000000
10000000
01000000
00100000
01000000
00100000
00010000
00100000
00010000
00100000
00001000
00100000
00001000
00010000
00001000
,
00010000
00000100
00000000
00001000
00000000
00000010
00000001
00000010
00001000
00000001
00000000
00000010
00000000
00000100
00001000
00000000
,
00000100
00010000
00001000
01000000
00100000
10000000
01000000
00000000
01100000
00000000
00011000
00000000
00000120
00000000
00000000
00000000
,
00000032
00000000
00000000
00000000
00000103
00000020
00000000
00000000
00000130
00000020
00000000
00000000
00001030
00000000
00000100
00010000
,
00000000
00010000
00001000
00000000
02000000
00000000
00000000
00100000
00000000
03100000
00000000
00000000
01000000
00010000
00100000
00010000
,
10000000
00000000
01000000
00100000
00020000
00000000
00000000
00000000
02030000
00000000
00000000
00000000
03200000
00000000
00000000
00000000
,
10300000
00000000
00000000
00000000
01010000
00000000
01000000
01000000
00000000
00010000
00010000
00000000
00200000
00000000
00000000
00000000
,
00302000
00000000
00000000
00000000
00013000
00000200
00000000
00000000
00010300
00000200
00000000
00000000
00001300
00000000
00000000
00000100
,
00000000
00000000
00001000
00000000
00000002
00000000
00000000
00000100
00000000
00000103
00000000
00000000
00000010
00001000
00000010
00000100
,
00000001
00000010
00000100
00001000
00000200
00000000
00000000
00000000
00000000
00000000
00000000
00000000
00010300
00000000
00010000
00010000
,
00010000
00011000
00011000
00002000
,
02003000
00000000
00000000
00000000
00000000
00000000
00000000
00000000
00000000
00000000
00000000
00000000
00000000
00000000
00000000
00000000
00000000
00000000
00000000
00000000
00000000
00000000
00000000
00000000
00000000
00000000
00000000
00000000
00000000
00000000
00000000
00000000
00000000
00000000
00000000
00000000
00000000
00000000
00000000
00000000
00000000
00000000
00000000
00000000
00000000
00000000
00000000
00000000
03100000
00000000
00000000
00000000
00000000
00000000
00000000
00000000
10000000
00000000
00000000
00000000
00000000
00000000
00000000
00000000
00100000
00000000
00000000
00000000
00000000
00000000
00000000
00000000
01000000
00000000
00000000
00000000
00000000
00000000
00000000
00000000
00000000
00000000
00000000
00000000
00010000
00000000
00000000
00000000
00000000
00000000
00000000
00000000
00000000
00000000
00000000
00000000
00100000
00000000
00000000
00000000
00000000
00000000
01000000
00000000
00000000
00000000
00000000
00000000
00100000
00000000
00000000
00000000
00000000
00000000
01000000
00000000
00000000
00000000
00000000
00000000
00100000
00000000
00000000
00000000
00000000
00000000
00000000
00000000
00000000
00000000
00000000
00000000
00000000
00000000
00000000
00000000
00000000
00000000
00000000
00000000
00000000
00000000
00000000
00000000
02100000
00000000
00000000
00000000
00000000
00000000
00000000
00000000
00000000
00000000
00000000
00000000
00000000
00000000
00000000
00000000
00000000
00000000
00000000
00000000
00000000
00000000
00000000
00000000
00000000
00000000
00000000
00000000
00000000
00000000
00000000
00000000
00000000
00000000
00000000
00000000
23000000
00000000
00000000
00000000
00000000
00000000
00000000
00000000
00000000
00000000
00000000
00000000
,
00000000
00000000
30200000
00000000
02300000
00000000
00000000
00010000
00000000
03001000
00000000
00000000
00010000
00001000
00010000
00000100
,
00001000
00000000
00000010
00000100
00000002
00000000
00000000
00000000
00000023
00000000
00000000
00000000
00000230
00000000
00000000
00000000
,
00000320
00000000
00000000
00000000
00000031
00000000
00001000
00000001
00000000
00001000
00000001
00000000
00000200
00000000
00000000
00000000
,
00000320
00000000
00000000
00000000
00010030
00002000
00000000
00000000
00013000
00002000
00000000
00000000
01003000
00000000
00000000
00100000
,
00000000
00000000
10000000
00000000
00020000
00000000
00000000
00100000
00000000
00130000
00000000
00000000
01000000
10000000
01000000
00100000
,
01000000
10000000
00010000
00100000
00002000
00000000
00000000
00000000
00000000
00000000
00000000
00000000
00013000
00000000
00011000
00000000
,
00001000
00000000
00010000
00001000
00000000
00001000
01000000
00100000
20000000
00000000
00000000
00000000
31000000
00000000
01100000
00000000
,
00110000
00000000
00100000
00001000
00000000
00000000
00011000
00000000
00000000
00010100
00000000
00000000
00000000
00000110
00000000
00000000
,
00000011
00000110
00001100
00000200
00020300
00000000
00030000
00000000
;

//---------------dance-double - ----------------
#NOTES:
     dance-double:
     :
     Easy:
     8:
     0.304747,0.433335,0.282020,0.072313,0.007231,295.000000,256.000000,39.000000,10.000000,0.000000,0.000000,0.304747,0.433335,0.282020,0.072313,0.007231,295.000000,256.000000,39.000000,10.000000,0.000000,0.000000:
00000000
00000000
00000000
00000000
,
00000000
00000000
00000000
00000000
,
00000000
00000000
00000000
00000000
,
00000000
00000000
00000000
00000000
,
00000000
00000000
00000000
00000000
,
10000000
10000000
00100000
01000000
,
00010000
00000000
00100000
00000000
00001000
00100000
00001000
00000000
,
00011000
00000000
00000000
00010100
00000000
00000000
00011000
00000000
,
00000000
00010100
00000000
00000000
00001000
00000000
01000000
00000000
,
00200000
00000000
00000000
00000000
,
10000000
00000000
00000000
00000000
,
01300000
00000000
00010000
00000000
,
00100000
00000000
00001000
00000000
,
00010000
00000100
00002000
00000000
,
00003001
00000010
00000200
00000000
,
00000310
00000001
00002000
00003000
,
00000110
00001001
00000110
00001001
,
00000010
00000010
00010000
00010000
,
00001000
01000000
00100000
10000000
,
01000000
00010000
01000000
10000000
,
10100000
00110000
00100000
00001000
,
00010000
00010000
00000100
00000100
,
00001000
00000010
00000001
00000010
,
00001000
00000000
00000100
00010000
00002000
00000000
00000000
00000000
,
00013000
00010000
00010000
00010000
,
00001000
01000000
00100000
10000000
,
01000000
00010000
01000000
00100000
,
00001000
00010000
00000100
00001000
,
00000010
00000010
00000010
00000010
,
00000100
00000001
00000010
00000010
,
00000100
00000100
00000100
00000000
00000100
00000000
00001000
00000000
,
00000100
00010000
00001000
00000000
,
01000000
00000000
00100000
00000000
10000000
00010000
10010000
00000000
,
10000000
00010000
00100000
00001000
,
00010000
00000100
00001000
00000010
,
00000001
00000010
00001000
00000100
,
00010000
00002000
00013000
00001000
,
00011000
00011000
00101000
00101000
,
00001000
00001000
00001000
00000000
00100000
00000000
00001000
00000000
,
01000000
00010000
01000000
00100000
,
10000000
00000000
00010000
00100000
00011000
00000000
00000000
00000000
,
00010000
00000100
00001100
00000011
,
00000001
00000001
00000100
00000000
00000010
00001000
00000010
00000000
,
00000000
00001000
00000001
00000001
00001001
00000110
00001001
00000000
,
00000001
00000100
00000020
00000000
00010030
00000000
00001000
01000000
,
00001000
00000000
01000000
00000000
00100000
00000000
10000000
00010000
,
10000000
00010000
00110000
00000000
,
00101000
00000000
00000000
00000000
00000000
00000000
00022000
00033000
,
00010100
00000000
00010000
00000100
00010000
00000000
00000010
00010000
,
00000010
00000000
00000100
00000010
00000100
00000000
00000010
00000000
,
00001000
00000100
00000001
00000100
,
00001000
00000100
00010000
00001000
,
01000000
00100000
10000000
01000000
00100000
00110000
01000000
00000000
,
01000000
00010000
00010000
10000000
,
01000000
00010000
01000000
00100000
,
00001000
00010000
00000100
00001000
,
00000010
00000001
00000010
00001010
,
00001010
00001100
00001100
00000100
,
00010000
00001000
01000000
00100000
,
10000000
00000000
01000000
00000000
00000000
00000000
00100000
00100000
,
00100000
01000000
10000000
10010000
,
00110000
00002000
00000000
00013000
,
00000000
00000100
00000000
00001000
,
00000010
00000001
00000010
00001000
,
00000100
00010000
00001000
01001000
,
01001000
01010000
01010000
00100000
,
01000000
00010000
10000000
01000000
,
00100000
01000000
10000000
00000000
00000000
00000000
00010000
00010000
,
00100000
00000000
00000000
01000000
00000000
00000000
00000000
00000000
00000000
00000000
00000000
00000000
00110000
00000000
00000000
00000000
,
00000000
00000000
00000000
00000000
00000000
00000000
00011000
00000000
00000000
00000000
00000000
00000000
00000000
00010100
00000000
00000000
,
00000000
00000000
00010000
00000100
00001000
00000000
00000000
00000000
;

//---------------dance-double - ----------------
#NOTES:
     dance-double:
     :
     Medium:
     11:
     0.427679,0.665098,0.383258,0.303714,0.177167,414.000000,361.000000,53.000000,42.000000,0.000000,0.000000,0.427679,0.665098,0.383258,0.303714,0.177167,414.000000,361.000000,53.000000,42.000000,0.000000,0.000000:
00000000
00000000
00000000
00000000
,
00000000
00000000
00000000
00000000
,
00000000
00000000
00000000
00000000
,
00000000
00000000
00000000
00000000
,
00000000
00000000
00000000
00000000
,
10000000
00000000
10000000
00000000
10000000
00000000
00000000
00010000
00000000
00000000
00100000
00000000
00000000
00100000
00000000
00000000
,
00000000
00001000
00000000
00000000
00010000
00000000
00010000
00000000
00000100
00000000
00001000
00000000
00000010
00000000
00000000
00000000
,
00000110
00000000
00000000
00000101
00000000
00000000
00000011
00000000
,
00000000
00000110
00000000
00000000
00000010
00000000
00000100
00000000
,
00021000
00001000
00001000
00001000
,
00000100
00000100
00000100
00000100
,
00001000
00001000
00000100
00030100
,
00010000
00001000
01000000
00100000
,
10000000
00000000
01000000
00100000
00020000
00000000
00000000
00000000
,
00130000
00000000
00001000
00010000
00000200
00000000
00000000
00000000
,
00001300
00000000
00000010
00000100
00000001
00000000
00000000
00000000
,
00000101
00000000
00000101
00000000
00000101
00000000
00000101
00000100
,
00000010
00000010
00001010
00001010
,
00000010
00000000
00000000
00010000
00000000
00000000
00001000
00000000
01000000
00000000
00000000
00100000
00000000
01000000
00000000
00000000
,
00100000
00100000
10000000
01000000
00200000
00000000
01300000
00000000
,
21000000
00000000
00000000
00000000
30100000
00000000
00000000
00000000
01000000
00000000
00010000
10000000
00000000
00010000
10000000
00000000
,
10010000
10010000
00110000
00110000
,
00100000
00000000
00000000
00001000
00000000
00000000
00010000
00000000
00000100
00000000
00000000
00001000
00000000
00001000
00000000
00000000
,
00000100
00000010
00000001
00000100
00000020
00000000
00000000
00000000
,
00010030
00000000
00010000
00000000
00010000
00000000
00001000
01000000
,
01100000
00000000
10000000
00100000
01000000
00010000
00100000
00001000
,
00010000
00010000
00000100
00000000
00001000
00000000
00000010
00000000
,
00000100
00000000
00000001
00000010
00000100
00000000
00001000
00000000
,
00001200
00010300
00012000
01003000
,
10100000
10100000
01010000
01010000
,
00010000
00100000
00100000
00000000
01000000
00100000
00010000
00001000
,
00010000
00000100
00001000
00000010
00000200
00000000
00000000
00000000
,
00000301
00000000
00000000
00000100
00000000
00000000
00000010
00000000
00001000
00000000
00000001
00000000
00000110
00000000
00000000
00000000
,
00001001
00000000
00000001
00001000
00000010
00001000
00000100
00010000
,
00001000
00001000
00100000
00000000
01000000
10000000
01000000
00100000
,
01000000
01000000
10000000
00100000
01000000
00000000
00010000
00000000
,
00100000
00000000
00000000
00001000
00010000
00001000
00020000
00000000
00000000
00030100
00000000
00000000
,
00001100
00001100
00000011
00000011
,
00000001
00000100
00000010
00000000
00000100
00000000
00000010
00001000
,
00000200
00020300
00032000
02003000
,
03200000
00000000
00000000
00000000
20300000
00000000
32000000
03200000
00020000
00000000
00000000
00000000
00000000
00000000
00000000
00330000
,
00011000
00000000
00010000
00000100
00010000
00000000
00000100
00000000
00001100
00000000
00000000
00000000
00000011
00000000
00000000
00000000
,
00000001
00000001
00001000
00001000
00000001
00000000
00000100
00000000
00000010
00001000
00000010
00001000
00000010
00000000
00000010
00000000
,
00000000
00000100
00000100
00000010
00001000
00000000
00001000
00000000
00001100
00000000
00001100
00000000
00011000
00000000
00000000
00000000
,
00001000
01000000
00001000
01000000
00100000
00100000
00100000
00100000
10000000
00000000
00000000
00000000
01000000
00000000
00100000
00000000
,
00010000
00000000
00100000
01000000
10000000
00000000
00010000
01000000
,
00100000
00000000
01000000
00010000
00200000
00000000
00000000
00000000
,
00002000
00000000
00000000
00000000
00000000
00000000
00000000
00000000
00303000
00000000
00000000
00000000
00022000
00000000
00000000
00033000
,
00001100
00000000
00000100
00001000
00000010
00000000
00000100
00000001
,
00000010
00000000
00000100
00010000
00001000
00000000
00001000
01000000
,
00200000
20300000
32000000
03020000
,
00032000
00003200
00000320
00000130
,
00000001
00000100
00000010
00000001
00001010
00000110
00001001
00000000
,
00001001
00000000
00000000
00000000
00000110
00000000
00000000
00000000
00000110
00000000
00000000
00000000
00000100
00000000
00000000
00000010
,
00000000
00000000
00010000
00000000
00001000
00000000
00000000
00100000
00000000
00100000
00000000
00000000
00010000
00000000
00100000
00000000
,
01000000
10000000
00010000
00000000
01000000
00000000
20100000
00000000
,
30010000
00000000
00000000
00000000
00100000
00000000
00100000
00010000
00000000
00100000
00010000
00000000
00101000
00000000
00000000
00000000
,
00101000
00000000
00000000
00000000
00011000
00000000
00000000
00000000
00011000
00000000
00000000
00000000
00010000
00000000
00000000
00000100
,
00000000
00000000
00001000
00000000
00000010
00000000
00000000
00000100
00000000
00000001
00000000
00000000
00000010
00000000
00000010
00000000
,
00000100
00001000
00000002
00000000
00000000
00000000
00001003
00001000
,
00001000
00000100
00010000
00002000
,
00203000
00000000
00000000
00000000
01300000
00000000
00010000
00000000
01000000
00000000
10000000
00000000
00200000
00000000
00000000
20300000
,
00000000
00000000
30020000
00000000
00230000
00000000
00000000
00001000
00000000
00301000
00000000
00000000
00010000
00000000
00000100
00000000
,
00001000
00000010
00020000
00000000
00031000
00000000
00100000
00000000
,
00001000
00000000
00000000
00000000
00010000
00000000
00000100
00010000
00000000
00000100
00010000
00000000
00001100
00000000
00000000
00000000
,
00001100
00000000
00000000
00000000
00000110
00000000
00000000
00000000
00000110
00000000
00000000
00000000
00000010
00000000
00000000
00000001
,
00000000
00000000
00000100
00000000
00000001
00000000
00000000
00001000
00000000
00000100
00000000
00000000
00000010
00000000
00000010
00000000
,
00000100
00001000
00000020
00000000
00000000
00000000
00000130
00000100
,
00000010
00000000
00001000
00000010
00000000
00000010
00000100
00000000
00000001
00000000
00000000
00000000
00001000
00000000
00001000
00000000
,
00001000
00000000
00000000
00000100
00000000
00000000
00010000
00000000
00000000
00010000
00000000
00000000
00000000
00001000
00000000
00000000
,
01000000
01000000
00100000
10000000
20020000
00000000
30030000
00000000
;

//---------------dance-double - ----------------
#NOTES:
     dance-double:
     :
     Hard:
     13:
     0.511355,0.818582,0.332639,0.318177,0.419415,495.000000,449.000000,46.000000,44.000000,0.000000,0.000000,0.511355,0.818582,0.332639,0.318177,0.419415,495.000000,449.000000,46.000000,44.000000,0.000000,0.000000:
00000000
00000000
00000000
00000000
,
00000000
00000000
00000000
00000000
,
00000000
00000000
00000000
00000000
,
00000000
00000000
00000000
00000000
,
00000000
00000000
00000000
00000000
,
10000000
00000000
00010000
00000000
01000000
00000000
00010000
00100000
00000000
00000000
01000000
00000000
00000000
01000000
00000000
00000000
,
00100000
00000000
00001000
00001000
00010000
00000100
00001100
00000000
,
00002010
00003010
00000000
00000021
00000031
00000000
00002010
00003010
,
00000000
00000021
00000031
00000000
00000110
00000001
00002000
00000000
,
00003010
00001000
00000100
00010000
,
00001000
00000000
10000000
00000000
01000000
00000000
10000000
01000000
,
00100000
01000000
10000000
00100000
,
01000000
00000000
00010000
00000000
00100000
00000000
00001000
00010000
,
00000100
00000000
00001000
00000020
00000200
00000000
00000000
00000330
,
00000001
00000000
00000010
00000200
00002000
00000000
00000000
00003300
,
00000100
00000000
00010000
00002000
02000000
00000000
00000000
03003000
,
01010000
00000000
00000000
00000000
01010000
00000000
00000000
00000000
01010000
00000000
00000000
00000000
10000000
00100000
01000000
00010000
,
10000000
00000000
00000000
00000000
10000000
00000000
00000000
00000000
01000000
00100000
00000000
00000000
00100000
00010000
00000000
00000000
,
00100000
00000000
00000000
00001000
00000000
00000000
00010000
00000000
00000100
00000000
00000000
00001000
00000000
00001000
00000000
00000000
,
00000100
00000000
00001000
00000000
00000010
00000000
00000100
00000001
00000010
00000000
00000000
00000000
00000110
00000000
00000000
00000000
,
00000100
00000000
00000000
00000000
00001100
00000000
00000000
00000000
00000100
00000000
00010000
00001000
00000000
00001000
00010000
00000000
,
00101000
00000000
00000000
00000000
00101000
00000000
00000000
00000000
00010000
01000000
00000000
00000000
00010000
01000000
00000000
00000000
,
00100000
00000000
00000000
01000000
00000000
00000000
00010000
00000000
00100000
00000000
00000000
00001000
00000000
00001000
00000000
00000000
,
00010000
00000000
00000100
00000000
00001000
00000010
00001000
00000100
00000020
00000000
00000000
00000000
00000000
00000000
00000000
00000000
,
00000130
00000000
00000000
00000000
00000100
00000000
00000000
00000000
00000100
00000000
00000000
00000000
00000001
00001000
00000001
00001000
,
00000200
00000000
00000000
00000000
00020300
00000000
00031000
00100000
01000000
00000000
10000000
00000000
00010000
00000000
01000000
00000000
,
20000000
00000000
32000000
00000000
03010000
00100000
00001000
00010000
,
00000100
00000000
00001000
00000010
00000100
00000000
00000001
00000000
,
00001000
00000000
00000010
00000100
00000010
00000000
00000010
00000100
00000010
00000000
00000010
00000100
00000010
00000000
00000010
00000100
,
00000010
00000000
00000000
00000000
00000010
00000000
00000000
00000000
00000001
00001000
00000000
00000000
00000001
00001000
00000000
00000000
,
00000100
00000000
00000100
00001000
00000100
00000000
00000000
00000000
00001000
00000000
00000100
00000000
00010000
00000000
00001000
00000000
,
01000000
00000000
00100000
01000000
00010000
00000000
20000000
00000000
02000000
00000000
00000000
00000000
00000000
00000000
33000000
00000000
,
00110000
00000000
00100000
00001000
00000000
00010000
00000100
00001000
00000010
00000100
00000001
00000010
00000200
00000000
00000000
00000000
,
00010300
00000000
00000000
00000000
00001000
00000000
00010000
00001000
00010000
00000000
00000100
00000000
00001000
00000000
00000010
00000000
,
00000100
00000000
00000001
00000010
00000100
00000000
00000000
00000000
00001000
00000000
00000100
00000000
00010000
00000000
00001000
00000000
,
01000000
00100000
10000000
00010000
,
00100000
00000000
00000000
00001000
00100000
00001000
00010000
00000000
00000000
00000100
00000000
00000000
,
00001000
00000000
00000000
00000000
00001000
00000000
00000000
00000000
00000001
00000100
00000000
00000000
00000001
00000100
00000000
00000000
,
00000010
00000000
00000010
00000100
00000010
00000000
00000000
00000000
00000100
00000000
00000000
00000000
00000001
00000000
00000010
00000000
,
00000100
00001000
00000100
00010000
,
00002000
00000000
00000000
00000000
00000000
00000000
00000000
00000000
02003000
00000000
00000000
00000000
03200000
00000000
20000000
30300000
01010000
00000000
00000000
00000000
00000000
00000000
00000000
00000000
00000000
00000000
00000000
00000000
00000000
00000000
00000000
00000000
,
10010000
00000000
10000000
01000000
00100000
00000000
01000000
00100000
00020000
00000000
00000000
00000000
02030000
00000000
00000000
00000000
,
03002000
00000000
00013000
00000000
00002000
00000000
00013000
00000000
00000100
00001000
00000100
00001000
00000001
00000100
00000001
00000100
00000010
00000000
00000100
00000000
00000010
00000000
00000100
00000000
00000010
00000000
00000000
00000000
00000000
00000000
00000000
00000000
,
00000000
00000000
00010000
00001000
00010000
00000000
00001000
00000000
01000000
00000000
00000000
00000000
01000000
00000000
00000000
00000000
10100000
00000000
00000000
00000000
01010000
00000000
00000000
00000000
10100000
00000000
00000000
00000000
01010000
00000000
00000000
00000000
,
00100000
00000000
00001000
00000000
00010000
00000000
00000100
00000000
00001000
00000010
00001000
00000010
00000100
00000001
00000100
00000001
00000010
00000000
00000000
00000000
00000000
00000000
00000000
00000000
00000100
00000000
00000000
00000000
00001000
00000000
00000000
00000000
,
00000100
00000000
00010000
00001000
00010000
00000000
00001000
00100000
,
00001000
00000000
00100000
00010000
00200000
00000000
01300000
00000000
,
20000000
00000000
30100000
00000000
00000000
00000000
02002000
03003000
,
00011000
00000000
00000000
00000000
00010000
00000000
00000100
00001000
00000100
00000000
00000000
00000000
00001000
00000000
00000010
00000100
,
00000010
00000000
00000000
00000000
00000100
00000000
00000001
00000100
00000001
00000000
00000000
00000000
00000100
00000000
00000010
00001000
,
00000100
00000100
00010000
00010000
00001000
00001000
00100000
00100000
,
00010000
00100000
00000000
01000000
00000000
00100000
00010000
01000000
00100000
10000000
00000000
00010000
00000000
00100000
01000000
00000000
,
10000000
01000000
00100000
00010000
00100000
00001000
00010000
00000000
00001100
00000000
00000011
00000000
00000101
00000000
00000000
00000000
,
00000101
00000000
00000000
00000000
00001000
00000010
00000000
00000000
00001000
00000010
00000000
00000000
00000100
00000000
00000000
00000010
,
00000000
00000000
00001000
00000000
00000100
00000000
00000000
00010000
00000000
00010000
00000000
00000000
00001000
00000000
01000000
00000000
,
00100000
00000000
10000000
01000000
00200000
00000000
00000000
00000000
01300000
00000000
00000000
00000000
21000000
00000000
00000000
00000000
,
30100000
00000000
00000000
00000000
01000000
00000000
00010000
01000000
00000000
01000000
00010000
00000000
00110000
00000000
00000000
00000000
,
00110000
00000000
00000000
00000000
10000000
01000000
00000000
00000000
10000000
01000000
00000000
00000000
00100000
00000000
00000000
01000000
,
00000000
00000000
10000000
00000000
00010000
00000000
00000000
01000000
00000000
00010000
00000000
00000000
00100000
00000000
00100000
00000000
,
00001000
00000000
00010000
00000100
00002000
00000000
00000000
00000000
00000000
00000000
00003000
00000000
00000101
00000000
00000001
00000100
,
00000001
00001010
00001010
00000110
,
00001001
00000000
00000000
00000000
00000001
00000100
00000010
00001000
00000200
00000000
00010300
00000000
00012000
00000000
00000000
00203000
,
00000000
00000000
00320000
00000000
02030000
00000000
00000000
00001000
00000000
03001000
00000000
00000000
00010000
00000000
00000100
00000000
,
00001000
00000000
00000010
00000100
00000002
00000000
00000000
00000000
00000013
00000000
00000000
00000000
00002100
00000000
00000000
00000000
,
00003010
00000000
00000000
00000000
00000100
00000000
00000001
00000100
00000000
00000100
00000001
00000000
00001001
00000000
00000000
00000000
,
00001001
00000000
00000000
00000000
00000001
00000100
00000000
00000000
00000001
00000100
00000000
00000000
00001010
00000000
00000000
00001000
,
00000000
00000000
00000100
00000000
00010000
00000000
00000000
00001000
00000000
00001000
00000000
00000000
01000000
00000000
00100000
00000000
,
10000000
01000000
10000000
00010000
00200000
00000000
00000000
00000000
00000000
00000000
00000000
00000000
01300000
00000000
01000000
00000000
,
11000000
00000000
10000000
01000000
00000000
00100000
00010000
00000000
00021000
00000000
00000000
00000000
00030100
00000000
00000100
00000000
,
00000100
00000000
00001000
00000100
00000000
00000000
00000011
00000000
00000000
00001100
00000000
00000000
00000000
00010100
00000000
00000000
,
00011000
00011000
00001000
01000000
00200000
00000000
00300000
00000000
;
