#VERSION:0.83;
#TITLE:T+ VS SHARK;
#SUBTITLE:;
#ARTIST:t+pazolite;
#TITLETRANSLIT:;
#SUBTITLETRANSLIT:;
#ARTISTTRANSLIT:;
#GENRE:;
#ORIGIN:;
#CREDIT:;
#BANNER:T+ VS SHARK.png;
#BACKGROUND:;
#PREVIEWVID:;
#JACKET:T+ VS SHARK-jacket.png;
#CDIMAGE:;
#DISCIMAGE:;
#LYRICSPATH:;
#CDTITLE:cdtitle.png;
#MUSIC:T+ VS SHARK.ogg;
#OFFSET:1.202000;
#SAMPLESTART:95.976997;
#SAMPLELENGTH:14.488000;
#SELECTABLE:YES;
#BPMS:0.000=200.000;
#STOPS:;
#DELAYS:;
#WARPS:;
#TIMESIGNATURES:0.000=4=4;
#TICKCOUNTS:0.000=4;
#COMBOS:0.000=1;
#SPEEDS:0.000=1.000=0.000=0;
#SCROLLS:0.000=1.000;
#FAKES:;
#LABELS:0.000=Song Start;
#BGCHANGES:4.000=T+ VS SHARK.avi=1.000=0=0=1=====,
99999=-nosongbg-=1.000=0=0=0 // don't automatically add -songbackground-
;
#KEYSOUNDS:;
#ATTACKS:
;

//---------------dance-single - ----------------
#NOTEDATA:;
#CHARTNAME:;
#STEPSTYPE:dance-single;
#DESCRIPTION:;
#CHARTSTYLE:;
#DIFFICULTY:Beginner;
#METER:6;
#RADARVALUES:0.184112,0.331157,0.059745,0.000000,0.000000,151.000000,144.000000,7.000000,0.000000,0.000000,0.000000,0.000000,0.000000,0.000000,0.184112,0.331157,0.059745,0.000000,0.000000,151.000000,144.000000,7.000000,0.000000,0.000000,0.000000,0.000000,0.000000,0.000000;
#CREDIT:Pandemonium X;
#NOTES:
0000
0000
0000
0000
,
0000
0000
0000
0000
,
0000
0000
0000
0000
,
0000
0000
0000
0000
,
0000
0000
0000
0000
,
0000
0000
0000
0000
,
0000
0000
0000
0000
,
0000
0000
0000
0000
,
0000
0000
0000
0000
,
0001
0000
0000
0000
,
1000
0000
0000
0000
,
0001
0000
0000
0000
,
1000
0000
0000
0000
,
0001
0000
1000
0000
,
0001
0000
1000
0000
,
0001
1000
0001
1000
,
0110
0000
0000
0000
,
1001
0000
0001
0000
,
0000
0000
1000
0000
,
0000
0000
0010
0000
,
0000
0100
0010
0100
,
0001
0000
1000
0000
,
0000
0000
0001
0000
,
0000
0000
0010
0000
,
0100
0000
1000
0000
,
0010
0000
0100
0000
,
0100
0000
0010
0010
,
1000
0000
0001
0000
,
1000
0000
0000
0000
,
0100
0000
0010
0000
,
0100
0000
0000
0000
,
1000
0000
0010
0000
,
1000
0000
0000
0000
,
0001
0000
0000
0000
,
0100
0000
0000
0000
,
0010
0000
0000
0000
,
1000
0000
0001
0000
,
1000
0000
0100
0000
,
0010
0000
0001
0000
,
1000
0001
1000
0001
,
0000
0000
0000
0000
,
0110
0000
0000
0000
,
0100
0000
0000
0000
,
0010
0000
0000
0000
,
1000
0000
0000
0000
,
0100
0000
0000
0000
,
0010
0000
0000
0000
,
0001
0000
0000
0000
,
1000
0000
0001
0000
,
0100
0000
0000
0000
,
0010
0000
0000
0000
,
1000
0000
0000
0000
,
0100
0000
1000
0000
,
0001
0000
0000
0000
,
0010
0000
0000
0000
,
0001
0000
0000
0000
,
1000
0000
0000
0000
,
0110
0000
0000
0000
,
0000
0100
0001
0001
,
1000
0000
0000
0000
,
0100
0100
0010
0000
,
0100
0000
1000
0000
,
0010
0000
0100
0000
,
0001
1000
0001
1000
,
0001
0000
0000
0000
,
0100
0000
0010
0000
,
1000
0000
0100
0000
,
0010
0000
0100
0000
,
1000
1000
1000
0000
,
1001
0000
0001
0000
,
1000
0000
0001
0000
,
1000
0000
0010
0000
,
0100
0100
0000
0000
,
0001
0000
0100
0000
,
0001
0000
1000
0000
,
0100
0000
1000
0000
,
0001
0001
0001
0000
,
1001
0000
0100
0000
,
0010
0000
1000
0000
,
0000
0000
0000
0000
,
0000
0000
0000
0000
,
0001
0000
0000
0000
,
1000
0000
0000
0000
,
0100
0000
0000
0000
,
0010
0000
0100
0000
,
1000
0000
0000
0000
,
0010
0000
0000
0000
,
0100
0000
0000
0000
,
0010
0010
0100
0100
,
0001
0000
0000
0000
,
1000
0000
0000
0000
,
0100
0000
0000
0000
,
0010
0000
0100
0000
,
1000
0000
0000
0000
,
0001
0000
0000
0000
,
0100
0000
0010
0000
,
1000
0001
1000
0001
,
0110
0000
0000
0000
;

//---------------dance-single - ----------------
#NOTEDATA:;
#CHARTNAME:;
#STEPSTYPE:dance-single;
#DESCRIPTION:;
#CHARTSTYLE:;
#DIFFICULTY:Easy;
#METER:10;
#RADARVALUES:0.410898,0.662314,0.307259,0.247514,0.008535,337.000000,301.000000,36.000000,29.000000,0.000000,0.000000,0.000000,0.000000,0.000000,0.410898,0.662314,0.307259,0.247514,0.008535,337.000000,301.000000,36.000000,29.000000,0.000000,0.000000,0.000000,0.000000,0.000000;
#CREDIT:Pandemonium X;
#NOTES:
0000
0000
0000
0000
,
0000
0000
0000
0000
,
0000
0000
0000
0000
,
0000
0000
0000
0000
,
0000
0000
0000
0000
,
0000
0000
0000
0000
,
0000
0000
0000
0000
,
0000
0000
0000
0000
,
0000
0000
0000
0000
,
0002
0000
0103
0000
,
0020
0000
1030
0000
,
0002
0000
0103
0000
,
0020
0000
1030
0000
,
0002
0103
0020
1030
,
0002
0103
0020
1030
,
0002
0203
0320
2030
,
3001
1000
0001
0000
1000
0001
1000
0000
,
0201
0000
0310
0000
,
1000
0000
0100
0010
,
0001
0000
0010
0000
,
0100
0110
1100
0110
,
0002
0000
0103
0000
,
0010
0000
1000
0001
,
0010
0000
0100
0000
,
0020
0000
0002
0033
,
0010
0100
1000
0001
,
1000
0100
0010
0011
,
1000
0000
0010
0000
,
1000
1001
0011
1001
,
0001
0000
1000
0000
,
0010
0000
1000
0000
,
0100
0000
0010
0000
,
0100
0000
1000
0000
,
0001
0100
0010
1000
,
0001
0100
0010
1000
,
0001
0100
0010
1000
,
0001
0100
0010
0000
,
1001
0010
1001
0010
,
1001
0010
1001
0010
,
1001
0110
1001
0110
,
1001
0000
0000
0000
,
0001
1000
0020
0030
,
1000
0100
2000
3000
,
0100
1000
0002
0003
,
0100
0010
1000
0001
,
0010
0100
2000
3000
,
0100
1000
0200
0300
,
0010
0001
2000
3000
,
0001
1000
0100
0010
,
0001
0010
0200
0300
,
0010
0001
0200
0300
,
0010
1000
0002
0003
,
1000
0001
0010
0100
,
0010
0001
2000
3000
,
0010
1000
0200
0300
,
0010
0100
2000
3000
,
0100
1000
0010
0000
,
0100
0100
0010
0010
,
1000
0001
1000
1001
,
0001
0001
0010
0110
,
0100
0100
1000
1100
,
1000
1010
0010
0110
,
0100
0101
0001
0011
,
0011
1100
0011
1100
,
1001
0000
0001
1000
0001
0000
1000
0000
,
0001
0001
1000
1000
,
0010
0010
0100
0100
,
0010
0010
1000
1000
,
0001
0000
0000
0001
0000
0000
0001
0000
1000
0000
0000
0000
0000
0000
0000
0000
,
0001
0100
0010
1000
,
0100
0001
0100
1000
,
0010
0001
0010
0100
,
0110
1001
0000
0000
,
1000
1000
0001
0001
,
1000
1000
0010
0010
,
1000
1000
0100
0100
,
0100
0000
0000
0100
0000
0000
0100
0000
0010
0000
0000
0000
0000
0000
0000
0000
,
0100
1000
0010
0001
,
0010
1000
0001
0100
,
0010
0000
0000
0000
,
0200
0000
0000
0300
,
0001
0100
0010
1000
,
0100
0001
0100
1000
,
0010
1000
0001
0010
,
0001
0010
1000
0010
,
0001
0100
0010
1000
,
0001
1000
0100
0001
,
0100
1000
0010
0100
,
0110
0101
0110
1010
,
1000
0100
0001
0100
,
1000
0010
0001
0010
,
0100
1000
0100
0001
,
1000
0001
0010
0100
,
1000
0100
0001
0100
,
1000
0010
0100
0001
,
0010
0100
1000
0100
,
0010
0010
0001
0001
,
1100
0000
0000
0000
;

//---------------dance-single - ----------------
#NOTEDATA:;
#CHARTNAME:;
#STEPSTYPE:dance-single;
#DESCRIPTION:;
#CHARTSTYLE:;
#DIFFICULTY:Medium;
#METER:14;
#RADARVALUES:0.675482,0.827892,0.580378,0.290189,0.098152,554.000000,486.000000,68.000000,34.000000,0.000000,0.000000,0.000000,0.000000,0.000000,0.675482,0.827892,0.580378,0.290189,0.098152,554.000000,486.000000,68.000000,34.000000,0.000000,0.000000,0.000000,0.000000,0.000000;
#CREDIT:Pandemonium X;
#NOTES:
0000
0000
0000
0000
,
0000
0000
0000
0000
,
0000
0000
0000
0000
,
0000
0000
0000
0000
,
0000
0000
0000
0000
,
0000
0000
0000
0000
,
0000
0000
0000
0000
,
0000
0000
0000
0000
,
0000
0000
0000
0000
,
0102
0000
0020
0033
,
1200
0000
0020
0330
,
0201
0000
0020
0330
,
1200
0000
0020
0330
,
0021
0130
1200
0310
,
1020
0130
0201
0310
,
1000
0100
0010
0001
0010
0100
1000
0001
,
0010
0001
0200
0000
0310
1000
0200
0000
,
0320
0000
0000
0130
1000
0001
0100
0010
,
0000
1000
0010
1000
0000
0010
0000
0100
,
0000
0001
1000
0001
1000
0001
1000
0001
,
1000
0001
1001
0000
1100
0000
1010
0000
,
0201
0000
0000
0000
0310
0100
0001
1000
,
0000
0100
1000
0100
0000
0010
0000
0001
,
0000
0100
0010
0001
0010
0100
0010
0001
,
1000
0000
0001
0000
,
1000
0010
0100
0001
,
1000
0010
0100
0001
1000
0000
1010
0000
,
0000
0001
0100
0001
0010
0100
0010
0001
,
0010
0100
1100
0000
0011
0000
1001
0000
,
0000
1000
0010
0100
0000
0010
1000
0100
,
0000
0010
0100
1000
0000
1010
0000
0110
,
0000
0010
1000
0100
0010
0100
1000
0010
,
0100
0010
0100
0010
1000
0001
1000
0001
,
1000
0000
0100
0000
0010
0001
0100
0010
,
1000
0000
0100
0000
0010
0001
0100
0010
,
1000
0000
0100
0000
0010
0001
0100
0010
,
1000
0000
1000
0001
0100
0000
0000
0000
,
1001
0000
0001
1000
1001
0000
1000
0001
,
1001
0000
0001
1000
1001
0000
1000
0001
,
1001
0110
1001
0110
,
1001
0020
0200
0330
,
1000
0001
0010
0000
0100
0000
1000
0000
,
0001
0100
1000
0000
0010
0000
0001
0000
,
0010
0100
0001
0000
1000
0000
0001
0000
,
1000
0000
0100
0000
0001
0000
0100
0000
1000
0000
0000
0010
0000
0100
0001
0000
,
1000
0100
0010
0000
0100
0000
1000
0000
,
0001
0010
1000
0000
0001
0000
0010
0000
,
0100
0010
0001
0000
1000
0000
0001
0000
,
1000
0000
0100
0000
0001
0000
0100
0000
0010
0000
0010
0100
0000
0100
0010
0000
,
0001
0010
0100
0010
0002
0000
1003
0000
,
1000
0010
0100
0010
2000
0000
3100
0000
,
0010
0100
1000
0010
0200
0000
0310
0000
,
0100
0000
0001
0000
0010
0000
0100
0000
0010
0000
0000
0100
0000
0010
0001
0000
,
1000
0001
0100
0001
2000
0000
3100
0000
,
0001
1000
0010
1000
0002
0000
0013
0000
,
0100
0010
0001
0100
0020
0000
0130
0000
,
0010
1000
0100
0010
0200
0000
1300
0000
,
0001
0000
1000
0000
0001
0100
0010
1000
,
0100
0000
0010
0010
0100
0000
1000
0000
,
0100
0000
1000
0000
0010
0010
0100
0000
,
0001
0000
1000
0000
0001
0001
1000
0000
,
0001
0100
0020
0000
0130
0010
2000
0000
,
3100
0010
0002
0000
0103
1000
0020
0000
,
0130
0010
1000
0001
0100
0010
1000
0001
,
1000
0000
1000
1000
1000
0000
1000
0000
,
1001
1010
1001
0011
,
0110
1100
0110
0011
,
0101
0110
1001
0110
,
0101
0000
0000
0101
0000
0000
0101
0000
0101
0000
0000
0000
0000
0000
0000
0000
,
1000
0001
1000
0001
1000
0001
1000
0000
,
0001
0100
0001
0100
0001
0100
0001
0000
,
0100
0010
1000
0001
0010
1000
0010
0001
,
1000
1000
0000
0000
,
1001
1010
1001
0011
,
0110
1010
0110
0011
,
1001
1010
1001
0110
,
1010
0000
0000
1010
0000
0000
1010
0000
1010
0000
0000
0000
0000
0000
0000
0000
,
1000
1000
0001
0010
0100
0000
0010
0000
,
0100
0100
0010
0001
1000
0100
0020
0000
,
0130
0000
0000
0000
,
1001
0000
0100
0000
0010
0000
2002
0000
0000
3003
0000
0000
,
1000
1000
0001
0100
0010
0000
1010
0000
,
1000
1000
0010
0100
0001
0000
0110
0000
,
0100
0100
0010
0001
1000
0000
0101
0000
,
0001
0000
0001
0000
0100
0000
1000
0000
0100
0000
0000
0001
0000
0010
0100
0000
,
1000
1000
0100
1000
0010
0000
0110
0000
,
0100
0100
0010
1000
0001
0000
0011
0000
,
0010
0010
0100
0010
0001
0000
1001
0000
,
0002
0000
0003
0000
0200
0000
0300
0000
0010
0000
0000
1000
0000
0010
0100
0000
,
0001
0000
0010
0000
0100
0000
0010
0000
0001
0000
0000
0001
0000
0000
0001
0000
,
1000
0000
0100
0000
0010
0000
0100
0000
1000
0000
0000
1000
0000
0000
1000
0000
,
0001
0000
1000
0000
0010
0000
1000
0000
0001
0000
0000
0001
0000
0000
0001
0000
,
0010
0000
0001
0000
0010
0000
0100
0000
1000
0000
0000
0100
0000
0010
0100
0000
,
1000
0000
0010
0000
0100
0000
0001
0000
0010
0000
0000
0010
0000
0000
0100
0000
,
0000
0100
0000
0000
0010
0000
0000
0001
0000
0000
1000
0000
0000
0010
0000
0000
,
1000
1000
0010
0100
0001
0001
0100
0010
,
1000
0100
0010
0001
0010
0100
1000
0010
,
1001
0000
0000
0000
;

//---------------dance-single - ----------------
#NOTEDATA:;
#CHARTNAME:;
#STEPSTYPE:dance-single;
#DESCRIPTION:;
#CHARTSTYLE:;
#DIFFICULTY:Hard;
#METER:17;
#RADARVALUES:0.844962,1.117655,0.623053,0.273119,0.452354,693.000000,620.000000,73.000000,32.000000,0.000000,0.000000,5.000000,0.000000,0.000000,0.844962,1.117655,0.623053,0.273119,0.452354,693.000000,620.000000,73.000000,32.000000,0.000000,0.000000,5.000000,0.000000,0.000000;
#CREDIT:Pandemonium X;
#NOTES:
// measure 0
0000
0000
0000
0000
,  // measure 1
0000
0000
0000
0000
,  // measure 2
0000
0000
0000
0000
,  // measure 3
0000
0000
0000
0000
,  // measure 4
0000
0000
0000
0000
,  // measure 5
0000
0000
0000
0000
,  // measure 6
0000
0000
0000
0000
,  // measure 7
0000
0000
0000
0000
,  // measure 8
0000
0000
0000
0000
,  // measure 9
2100
0010
0100
3010
,  // measure 10
0102
0010
0100
0013
,  // measure 11
0201
0010
0001
0310
,  // measure 12
1020
0100
1000
0130
,  // measure 13
0102
0013
2100
3010
,  // measure 14
0021
0130
1020
0130
,  // measure 15
0001
0100
0010
1000
0001
0100
0010
1000
,  // measure 16
0002
0023
2000
0030
3020
0032
0200
0003
,  // measure 17
0340
0000
0000
0000
1030
0100
0001
0100
,  // measure 18
0000
1000
0100
0001
0000
0110
0000
1100
,  // measure 19
0000
1000
0010
0001
0010
1000
0010
0001
,  // measure 20
0010
0100
0101
0000
1100
0000
1001
0000
,  // measure 21
1040
0000
0000
0000
1030
0001
0010
1000
,  // measure 22
0000
1000
0010
0001
1000
1001
0000
0011
,  // measure 23
0000
0001
0010
1000
0010
0001
0010
1000
,  // measure 24
0020
0000
0002
0030
,  // measure 25
0013
0001
0100
0010
1000
0100
0010
0001
,  // measure 26
1000
0001
1000
0001
1000
0001
1000
0001
1000
0000
0000
0000
1010
0000
0000
0000
,  // measure 27
0000
1000
1000
0001
1000
1000
1000
1000
,  // measure 28
0001
0001
1001
0000
0110
0000
1001
0000
,  // measure 29
0000
0001
0010
0010
0000
0001
0100
0100
,  // measure 30
0000
0001
0100
0100
0010
0110
0000
1010
,  // measure 31
0000
0010
0100
0100
0001
0001
1000
1000
,  // measure 32
0100
0010
0010
0001
0010
0100
1000
0001
,  // measure 33
1001
0001
0100
0010
1000
0001
1000
0001
,  // measure 34
1001
0001
0100
0010
1000
0001
1000
0001
,  // measure 35
1001
0001
0100
0010
1000
0001
1000
0001
,  // measure 36
1001
0001
0100
0010
1001
0000
0000
0000
,  // measure 37
1001
0000
0001
0100
1001
0000
1000
0100
,  // measure 38
1001
0000
0001
0100
1001
0000
1000
0100
,  // measure 39
0010
0001
0010
0001
0010
0001
0010
0001
1000
0100
1000
0100
1000
0100
1000
0100
,  // measure 40
0000
0000
2000
0000
0002
0000
0000
3003
,  // measure 41
1001
0000
0001
0000
0100
0000
0100
0000
0001
0000
0000
0001
0000
0000
0001
0000
,  // measure 42
0010
0000
0010
0000
0100
0000
0010
0000
0100
0000
0000
0100
0000
0000
0100
0000
,  // measure 43
1000
0000
1000
0000
0100
0000
1000
0000
0010
0000
0000
0010
0000
0000
0010
0000
,  // measure 44
0000
0000
0100
0000
0010
0000
0010
0000
0100
0000
0000
0010
0000
1000
0100
0000
,  // measure 45
0010
0000
0010
0000
0100
0000
0010
0000
0001
0000
0000
0001
0000
0000
0100
0000
,  // measure 46
0000
0000
0001
0000
1000
0000
1000
0000
0001
0000
0000
1000
0000
0000
0100
0000
,  // measure 47
0010
0000
0010
0000
0100
0000
0010
0000
0100
0000
0000
0100
0000
0000
1000
0000
,  // measure 48
0000
0000
0010
0000
0100
0000
0100
0000
0001
0000
0001
1000
0000
0010
0100
0000
,  // measure 49
0001
0000
0001
0000
0100
0000
0010
0000
1000
0000
0000
0010
0000
0000
1000
0000
,  // measure 50
0100
0000
0010
0000
0010
0000
0100
0000
0010
0000
0000
0010
0000
0000
0001
0000
,  // measure 51
1000
0000
1000
0000
0010
0000
0100
0000
0010
0000
0000
0010
0000
0000
0100
0000
,  // measure 52
0000
0000
0001
0000
0100
0000
0100
0000
0001
0000
0000
0001
0000
1000
0010
0000
,  // measure 53
0100
0000
0100
0000
0010
0000
1000
0000
0001
0000
0000
1000
0000
0000
0100
0000
,  // measure 54
0000
0000
0100
0000
0010
0000
0010
0000
0100
0000
0000
1000
0000
0000
0010
0000
,  // measure 55
0100
0000
0100
0000
0010
0000
1000
0000
0001
0000
0000
0100
0000
0000
0001
0000
,  // measure 56
0000
0000
0010
0000
0010
0000
0001
0000
1000
0000
0000
0010
0000
0100
0001
0000
,  // measure 57
1020
0100
1000
0100
,  // measure 58
1030
0000
0100
0010
0100
0000
1001
0000
,  // measure 59
0021
0100
0001
0100
,  // measure 60
0031
0000
0010
0001
0100
0000
1001
0000
,  // measure 61
0001
0100
0020
0000
1030
0100
0020
0000
,  // measure 62
0031
0100
0020
0000
1030
0100
0020
0000
,  // measure 63
0031
0001
0100
0100
0010
0010
1000
1000
,  // measure 64
0002
0000
0003
0000
0002
0003
0002
0003
0002
0000
0000
0000
0103
0000
0000
0000
,  // measure 65
1010
0000
1100
0000
1001
0000
0101
0001
,  // measure 66
1001
0000
0110
0000
1010
0010
0110
0000
,  // measure 67
0101
0000
0011
0000
0011
0010
0110
0100
,  // measure 68
1100
0000
0000
1100
0000
0000
1100
0000
1001
0000
0000
0000
0000
0000
0000
0000
,  // measure 69
0001
0001
0100
0100
0010
0010
0100
0100
,  // measure 70
0010
0000
0010
0000
1000
0001
1000
0000
0001
0000
0100
0001
0100
0000
0001
0000
,  // measure 71
0010
0100
0010
0000
0100
0000
1000
0100
1000
0000
0100
0000
0010
0000
0001
0000
,  // measure 72
1002
0203
0310
1001
,  // measure 73
0101
0001
0011
0000
1001
0000
1100
1000
,  // measure 74
1001
0000
1010
0000
1010
0010
0110
0100
,  // measure 75
0101
0000
0011
0000
1100
0000
0110
0010
,  // measure 76
0011
0000
0000
0011
0000
0000
0011
0000
0001
0000
0000
0000
0000
0000
0000
0000
,  // measure 77
1000
0001
0100
0000
0010
0000
1000
0000
0010
0000
0100
0001
0010
0000
0400
0000
,  // measure 78
1300
0010
1000
0010
0100
0010
1000
0001
0010
0100
1000
0001
1000
0001
1000
0001
,  // measure 79
0010
0000
0000
0000
,  // measure 80
1100
0000
0011
0000
0101
0000
2002
0000
0000
3003
0000
0000
,  // measure 81
0001
0000
0001
0000
0100
0010
1000
0000
0100
0000
0010
0100
0000
0100
0010
0000
,  // measure 82
0001
0000
0010
0000
0100
1000
0100
0000
1000
0000
0010
0100
0000
0100
0001
0000
,  // measure 83
1000
0000
1000
0000
0100
0010
0100
0000
0010
0000
0001
0010
0000
0010
0100
0000
,  // measure 84
0010
0000
0010
0000
0100
0010
0001
0000
0010
0000
0001
0010
0000
0100
1000
0000
,  // measure 85
0010
0000
0010
0000
0100
0001
0010
0000
0100
0000
1000
0100
0000
0100
1000
0000
,  // measure 86
0100
0000
0100
0000
0010
0001
0100
0000
0001
0000
1000
0001
0000
0001
0010
0000
,  // measure 87
0100
0000
0100
0000
0010
0001
0100
0000
0010
0000
1000
0010
0000
0010
0100
0000
,  // measure 88
0004
0000
0003
0000
0400
0000
0300
0000
0010
0100
0010
0100
0010
0100
0010
0100
,  // measure 89
0010
0000
1000
0000
0001
0100
0010
0000
1000
0000
0100
0010
0000
0100
1000
0000
,  // measure 90
0100
0000
0010
0000
0100
1000
0010
0000
0100
0000
0001
0010
0000
0100
0010
0000
,  // measure 91
0100
0000
0010
0000
0001
1000
0010
0000
0100
0000
0001
0010
0000
0001
1000
0000
,  // measure 92
0100
0000
0010
0000
0100
1000
0010
0000
0100
0000
0010
0100
0000
0001
1000
0000
,  // measure 93
0100
0000
0010
0000
0100
1000
0010
0000
0100
0000
0001
0100
0000
0010
1000
0000
,  // measure 94
0100
0010
0000
0100
1000
0000
0100
0010
0000
0001
0100
0000
0010
1000
0000
0001
,  // measure 95
0010
0010
0100
0100
1000
1000
0001
0001
,  // measure 96
0100
0001
0100
0010
1000
0010
0100
0001
1000
0010
0100
0001
0010
0100
1000
0001
,  // measure 97
1000
0000
0000
0000
;
