#VERSION:0.83;
#TITLE:So Deep;
#SUBTITLE:(sc.orz Uplifting Mix);
#ARTIST:Silvertear;
#TITLETRANSLIT:;
#SUBTITLETRANSLIT:;
#ARTISTTRANSLIT:;
#GENRE:;
#ORIGIN:;
#CREDIT:;
#BANNER:So Deep (sc.orz Uplifting Mix).png;
#BACKGROUND:So Deep (sc.orz Uplifting Mix)-bg.png;
#PREVIEWVID:;
#JACKET:So Deep (sc.orz Uplifting Mix)-jacket.png;
#CDIMAGE:;
#DISCIMAGE:background.png;
#LYRICSPATH:;
#CDTITLE:;
#MUSIC:So Deep (sc.orz Uplifting Mix).ogg;
#OFFSET:-0.013000;
#SAMPLESTART:41.131001;
#SAMPLELENGTH:13.714000;
#SELECTABLE:YES;
#BPMS:0.000=140.000;
#STOPS:;
#DELAYS:;
#WARPS:;
#TIMESIGNATURES:0.000=4=4;
#TICKCOUNTS:0.000=4;
#COMBOS:0.000=1;
#SPEEDS:0.000=1.000=0.000=0;
#SCROLLS:0.000=1.000;
#FAKES:;
#LABELS:0.000=Song Start;
#BGCHANGES:;
#KEYSOUNDS:;
#ATTACKS:
;

//---------------dance-single - ----------------
#NOTEDATA:;
#CHARTNAME:;
#STEPSTYPE:dance-single;
#DESCRIPTION:;
#CHARTSTYLE:;
#DIFFICULTY:Beginner;
#METER:3;
#RADARVALUES:0.106833,0.192299,0.022893,0.000000,0.000000,98.000000,95.000000,3.000000,0.000000,0.000000,0.000000,0.000000,0.000000,0.000000,0.106833,0.192299,0.022893,0.000000,0.000000,98.000000,95.000000,3.000000,0.000000,0.000000,0.000000,0.000000,0.000000,0.000000;
#CREDIT:Pandemonium X;
#NOTES:
// measure 0
0000
0000
0000
0000
,  // measure 1
0000
0000
0000
0000
,  // measure 2
0000
0000
0000
0000
,  // measure 3
0000
0000
0000
0000
,  // measure 4
0000
0000
0000
0000
,  // measure 5
0000
0000
0000
0000
,  // measure 6
0000
0000
0000
0000
,  // measure 7
0000
0000
0000
0000
,  // measure 8
0001
0000
0000
0000
,  // measure 9
1000
0000
0000
0000
,  // measure 10
0010
0000
0000
0000
,  // measure 11
0100
0000
0000
0000
,  // measure 12
0010
0000
0000
0000
,  // measure 13
1000
0000
0000
0000
,  // measure 14
0001
0000
1000
0000
,  // measure 15
0010
0010
0010
0000
,  // measure 16
1001
0000
0000
0000
,  // measure 17
0000
0000
0000
0000
,  // measure 18
1000
0000
0000
0000
,  // measure 19
0000
0000
0000
0000
,  // measure 20
0001
0000
0000
0000
,  // measure 21
0100
0000
0000
0000
,  // measure 22
0010
0000
0000
0000
,  // measure 23
1000
1000
1000
0000
,  // measure 24
0110
0000
0000
0000
,  // measure 25
1000
0000
0000
0000
,  // measure 26
0001
0000
0000
0000
,  // measure 27
0001
0000
0000
0000
,  // measure 28
0010
0000
0000
0000
,  // measure 29
0100
0000
0000
0000
,  // measure 30
1000
0000
0000
0000
,  // measure 31
1000
0000
0000
0000
,  // measure 32
0001
0000
0000
0000
,  // measure 33
0100
0000
0000
0000
,  // measure 34
0010
0000
0000
0000
,  // measure 35
0010
0000
0000
0000
,  // measure 36
1000
0000
0000
0000
,  // measure 37
0001
0000
0000
0000
,  // measure 38
0010
0000
0000
0000
,  // measure 39
0100
0100
0100
0000
,  // measure 40
1000
0000
0000
0001
,  // measure 41
0001
0000
0000
0100
,  // measure 42
0100
0000
0000
0000
,  // measure 43
0000
0000
0000
0010
,  // measure 44
0010
0000
0000
1000
,  // measure 45
1000
0000
0000
0001
,  // measure 46
0001
0000
0000
0001
0000
0000
0001
0000
,  // measure 47
0000
0001
0000
0000
0000
0000
0100
0000
,  // measure 48
0100
0000
0000
0010
,  // measure 49
0010
0000
0000
1000
,  // measure 50
1000
0000
0000
0000
,  // measure 51
0000
0000
0000
0010
,  // measure 52
0010
0000
0000
0100
,  // measure 53
0100
0000
0000
0001
,  // measure 54
0001
0000
0000
0000
,  // measure 55
0000
0000
0000
1000
,  // measure 56
0001
0000
0000
0100
,  // measure 57
0010
0000
0000
1000
,  // measure 58
0100
0000
0000
0000
,  // measure 59
0000
0000
0000
0010
,  // measure 60
0001
0000
0000
0100
,  // measure 61
0010
0000
0000
0010
,  // measure 62
1000
0000
0000
1000
0000
0000
1000
0000
,  // measure 63
0000
1000
0000
0000
0000
0000
0001
0000
,  // measure 64
1000
0000
0000
0100
,  // measure 65
0010
0000
0000
0001
,  // measure 66
0100
0000
0000
0000
,  // measure 67
0000
0000
0000
0010
,  // measure 68
1000
0000
0000
0001
,  // measure 69
0010
0000
0000
0100
,  // measure 70
1000
0000
0000
0000
,  // measure 71
0001
1000
0010
0100
,  // measure 72
1001
0000
0000
0000
;

//---------------dance-single - ----------------
#NOTEDATA:;
#CHARTNAME:;
#STEPSTYPE:dance-single;
#DESCRIPTION:;
#CHARTSTYLE:;
#DIFFICULTY:Easy;
#METER:7;
#RADARVALUES:0.243099,0.384598,0.183142,0.305236,0.000000,223.000000,199.000000,24.000000,40.000000,0.000000,0.000000,0.000000,0.000000,0.000000,0.243099,0.384598,0.183142,0.305236,0.000000,223.000000,199.000000,24.000000,40.000000,0.000000,0.000000,0.000000,0.000000,0.000000;
#CREDIT:Pandemonium X;
#NOTES:
// measure 0
0000
0000
0000
0000
,  // measure 1
0000
0000
0000
0000
,  // measure 2
0000
0000
0000
0000
,  // measure 3
0000
0000
0000
0000
,  // measure 4
0000
0000
0000
0000
,  // measure 5
0000
0000
0000
0000
,  // measure 6
0000
0000
0000
0000
,  // measure 7
0000
0000
0000
0000
,  // measure 8
1000
0001
0010
0001
,  // measure 9
1000
0000
0100
0000
0010
0100
0010
0000
,  // measure 10
0100
1000
0010
0100
,  // measure 11
0001
0000
0010
0000
0100
1000
0100
0000
,  // measure 12
1000
0001
0100
0001
,  // measure 13
0010
0000
0001
0000
1000
0001
1000
0000
,  // measure 14
0001
0001
1000
1000
,  // measure 15
0220
0000
0000
0330
,  // measure 16
1001
0000
0001
0000
,  // measure 17
1000
0000
0000
0000
0100
1000
0100
0000
,  // measure 18
1000
0000
0010
0000
,  // measure 19
0100
0000
0000
0000
0001
0100
0001
0000
,  // measure 20
1000
0001
0200
0300
,  // measure 21
0001
1000
0020
0030
,  // measure 22
1000
0100
0010
0001
,  // measure 23
2002
0000
0000
3003
,  // measure 24
0001
0100
0010
1000
,  // measure 25
0010
0100
0001
0010
,  // measure 26
0100
0010
0001
1000
,  // measure 27
0100
1000
0010
0100
,  // measure 28
0001
1000
0100
1000
,  // measure 29
0010
0100
0001
0010
,  // measure 30
0100
0010
0001
1000
,  // measure 31
0100
0000
1000
0000
0010
0000
0100
0001
,  // measure 32
0100
0000
0001
0000
0100
0000
0010
1000
,  // measure 33
0010
0000
1000
0000
0001
0000
0010
0100
,  // measure 34
0010
0100
1000
1000
,  // measure 35
0100
1000
0010
0100
,  // measure 36
0001
0000
1000
0000
0010
0000
0100
0001
,  // measure 37
0100
0000
0001
0000
0100
0000
0010
0100
,  // measure 38
0010
0100
0001
1000
,  // measure 39
0110
0000
1001
0000
0110
0000
1001
1000
,  // measure 40
0002
0000
0000
0000
0003
0000
0010
0100
,  // measure 41
2000
0000
0000
0000
3000
0000
0100
0010
,  // measure 42
0002
0000
0000
0000
,  // measure 43
0000
0000
0000
0000
0003
0000
0100
0010
,  // measure 44
2000
0000
0000
0000
3000
0000
0010
0100
,  // measure 45
0002
0000
0000
0000
0003
0000
0100
0010
,  // measure 46
1000
0000
0000
0101
0000
0000
0011
0000
,  // measure 47
0000
1100
0000
0000
0000
0000
0001
1000
,  // measure 48
0020
0000
0000
0000
0030
0000
1000
0001
,  // measure 49
0200
0000
0000
0000
0300
0000
0001
1000
,  // measure 50
0020
0000
0000
0000
,  // measure 51
0000
0000
0000
0000
0030
0000
0100
0001
,  // measure 52
0020
0000
0000
0000
0030
0000
0100
1000
,  // measure 53
0020
0000
0000
0000
0030
0000
0100
0001
,  // measure 54
2000
0000
0000
0000
,  // measure 55
0002
0000
0000
3003
,  // measure 56
0202
0000
0303
0010
,  // measure 57
2002
0000
3003
1000
,  // measure 58
0022
0000
0000
0000
,  // measure 59
0000
0000
0033
0001
,  // measure 60
2020
0000
3030
0010
,  // measure 61
2002
0000
3003
0001
,  // measure 62
1000
0000
0000
1100
0000
0000
0110
0000
,  // measure 63
0000
0011
0000
0000
0000
0000
1000
0001
,  // measure 64
0202
0000
0000
0000
0303
0000
0001
1000
,  // measure 65
2020
0000
0000
0000
3030
0000
1000
0100
,  // measure 66
0220
0000
0000
0000
,  // measure 67
0000
0000
0000
0000
0330
0000
0100
1000
,  // measure 68
2020
0000
0000
0000
3030
0000
0010
0100
,  // measure 69
0202
0000
0000
0000
0303
0000
0001
0010
,  // measure 70
0100
0010
0001
1000
,  // measure 71
0220
0000
0000
0000
,  // measure 72
0330
0000
0000
0000
;

//---------------dance-single - ----------------
#NOTEDATA:;
#CHARTNAME:;
#STEPSTYPE:dance-single;
#DESCRIPTION:;
#CHARTSTYLE:;
#DIFFICULTY:Medium;
#METER:11;
#RADARVALUES:0.357563,0.494483,0.183142,0.389176,0.099202,328.000000,304.000000,24.000000,51.000000,0.000000,0.000000,0.000000,0.000000,0.000000,0.357563,0.494483,0.183142,0.389176,0.099202,328.000000,304.000000,24.000000,51.000000,0.000000,0.000000,0.000000,0.000000,0.000000;
#CREDIT:Pandemonium X;
#NOTES:
// measure 0
0000
0000
0000
0000
,  // measure 1
0000
0000
0000
0000
,  // measure 2
0000
0000
0000
0000
,  // measure 3
0000
0000
0000
0000
,  // measure 4
0000
0000
0000
0000
,  // measure 5
0000
0000
0000
0000
,  // measure 6
0000
0000
0000
0000
,  // measure 7
0000
0000
0000
0000
,  // measure 8
2000
3010
2000
3001
,  // measure 9
2000
0000
3100
0000
0010
0100
1000
0100
,  // measure 10
0020
0031
0020
0130
,  // measure 11
0020
0000
0031
0000
1000
0010
0100
0001
,  // measure 12
2000
3010
2000
3001
,  // measure 13
2000
0000
3100
0000
1000
0100
0010
0100
,  // measure 14
0020
0031
0020
0130
,  // measure 15
0020
0000
0031
0000
0010
0100
1000
0001
,  // measure 16
0100
0010
1000
0001
,  // measure 17
0010
0000
0001
0000
1000
0100
0010
0001
,  // measure 18
1000
0100
1000
0010
,  // measure 19
0100
0000
0001
0000
1000
0100
0010
0001
,  // measure 20
0100
0000
0001
0000
0010
0000
0100
0100
,  // measure 21
0010
0000
0001
0000
0100
0000
0010
0010
,  // measure 22
1000
0000
0001
0000
0100
0000
0010
0010
,  // measure 23
0110
1001
0110
1001
,  // measure 24
1000
0000
0000
0000
0001
0000
0000
0010
0000
0000
0100
0000
0010
0000
0010
0000
,  // measure 25
0001
0000
0000
0000
1000
0000
0000
0010
0000
0000
0100
0000
0010
0000
0010
0000
,  // measure 26
0100
0000
0000
0000
0001
0000
0000
0010
0000
0000
0100
0000
0010
0000
0010
0000
,  // measure 27
0001
0000
0000
0000
1000
0000
0000
0100
0000
0000
0010
0000
0100
0000
0100
0000
,  // measure 28
1000
0000
0000
0000
0001
0000
0000
0100
0000
0000
0010
0000
1000
0000
1000
0000
,  // measure 29
0100
0000
0000
0000
0010
0000
0000
0100
0000
0000
0010
0000
0001
0000
0001
0000
,  // measure 30
1000
0000
0000
0000
0010
0000
0000
1000
0000
0000
0100
0000
0010
0000
0010
0000
,  // measure 31
0100
0000
0000
0000
0010
0000
0000
0001
0000
0000
0100
0000
0001
0000
1000
0000
,  // measure 32
0100
0010
0000
0000
0001
0000
0000
0100
0000
0000
0010
0000
1000
0000
1000
0000
,  // measure 33
0001
0010
0000
0000
0100
0000
0000
0010
0000
0000
0100
0000
1000
0000
1000
0000
,  // measure 34
0001
1000
0000
0000
0010
0000
0000
1000
0000
0000
0100
0000
0010
0000
0010
0000
,  // measure 35
0001
0010
0000
0000
0100
0000
0000
0010
0000
0000
0001
0000
0100
0000
0100
0000
,  // measure 36
0010
1000
0000
0000
0100
0000
0000
0010
0000
0000
0100
0000
1000
0000
1000
0000
,  // measure 37
0001
1000
0000
0000
0010
0000
0000
1000
0000
0000
0010
0000
0100
0000
0100
0000
,  // measure 38
0001
0010
0000
0000
0100
0000
0000
0010
0000
0000
0100
0000
0010
0000
0001
0000
,  // measure 39
1001
0000
0000
0000
0110
0000
0000
0000
1001
0000
0000
0000
0001
0100
0001
0100
,  // measure 40
0020
0000
1000
0000
1030
0000
0001
1000
,  // measure 41
0020
0000
0100
0000
0130
0000
0010
1000
,  // measure 42
0002
1000
1000
0010
,  // measure 43
0010
0000
0100
0000
0103
0000
0001
0100
,  // measure 44
0020
0000
0100
0000
0130
0000
0010
1000
,  // measure 45
0200
0000
0010
0000
0310
0000
0010
0001
,  // measure 46
2002
0000
3003
2200
0000
3300
2002
0000
,  // measure 47
3003
0202
0000
0303
1001
0000
0001
1000
,  // measure 48
0200
0000
0010
0000
0310
0000
0001
0010
,  // measure 49
0200
0000
1000
0000
1300
0000
0010
1000
,  // measure 50
0002
1000
1000
0010
,  // measure 51
0010
0000
0100
0000
0103
0000
0001
0100
,  // measure 52
0020
0000
1000
0000
1030
0000
0100
0010
,  // measure 53
0002
0000
0010
0000
0013
0000
0001
0100
,  // measure 54
0020
1000
1000
1030
,  // measure 55
1010
0000
0000
0000
1100
0000
0000
0000
0011
0000
0000
0000
1000
0100
1000
0100
,  // measure 56
2000
0000
0000
0000
0000
0000
3100
0010
,  // measure 57
0002
0000
0000
0000
0000
0000
0013
0001
,  // measure 58
0200
0000
0000
0000
,  // measure 59
0000
0000
0000
0000
0000
0000
0310
1000
,  // measure 60
0002
0000
0000
0000
0000
0000
1003
0100
,  // measure 61
0020
0000
0000
0000
0000
0000
0130
1000
,  // measure 62
2020
0000
3030
0202
0000
0303
0022
0000
,  // measure 63
0033
2002
0000
3003
1010
0000
0100
0001
,  // measure 64
0020
0000
0000
0000
0000
0000
0130
1000
,  // measure 65
0002
0000
0000
0000
0000
0000
1003
0001
,  // measure 66
0200
0000
0000
0000
,  // measure 67
0000
0000
0000
0000
0000
0000
0310
1000
,  // measure 68
0200
0000
0000
0000
0000
0000
0310
0100
,  // measure 69
2000
0000
0000
0000
0000
0000
3001
1000
,  // measure 70
0010
1000
0001
0100
,  // measure 71
0101
0011
1100
2020
,  // measure 72
3030
0000
0000
0000
;

//---------------dance-single - ----------------
#NOTEDATA:;
#CHARTNAME:;
#STEPSTYPE:dance-single;
#DESCRIPTION:;
#CHARTSTYLE:;
#DIFFICULTY:Hard;
#METER:15;
#RADARVALUES:0.601752,0.741724,0.076309,0.167880,0.675335,552.000000,542.000000,10.000000,22.000000,0.000000,0.000000,2.000000,0.000000,0.000000,0.601752,0.741724,0.076309,0.167880,0.675335,552.000000,542.000000,10.000000,22.000000,0.000000,0.000000,2.000000,0.000000,0.000000;
#CREDIT:Pandemonium X;
#NOTES:
// measure 0
0000
0000
0000
0000
,  // measure 1
0000
0000
0000
0000
,  // measure 2
0000
0000
0000
0000
,  // measure 3
0000
0000
0000
0000
,  // measure 4
0000
0000
0000
0000
,  // measure 5
0000
0000
0000
0000
,  // measure 6
0000
0000
0000
0000
,  // measure 7
0000
0000
0000
0000
,  // measure 8
1000
0100
0000
0100
1000
0000
0001
0000
0100
0001
0000
0001
0100
0000
0010
0000
,  // measure 9
1000
0001
0000
0001
1000
0000
0001
0000
0010
0100
0010
0000
0001
0000
1000
0000
,  // measure 10
0001
0010
0000
0010
0001
0000
1000
0000
0010
1000
0000
1000
0010
0000
0100
0000
,  // measure 11
0001
1000
0000
1000
0001
0000
1000
0000
0100
0010
0100
0000
1000
0000
0001
0000
,  // measure 12
0100
0001
0000
0001
0100
0000
0001
0000
1000
0100
0000
0100
1000
0000
0001
0000
,  // measure 13
1000
0001
0000
0001
1000
0000
0001
0000
0100
0010
0100
0000
0001
0000
1000
0000
,  // measure 14
0100
0010
0000
0010
0100
0000
0010
0000
0001
1000
0000
1000
0001
0000
0100
0000
,  // measure 15
0110
0000
0000
0000
0101
0000
0000
0000
0011
0000
0001
0100
0010
0100
0001
1000
,  // measure 16
0002
0010
0100
0010
,  // measure 17
0100
0000
0000
0000
1003
0000
0000
0000
0010
1000
0010
0000
1000
0000
0001
0000
,  // measure 18
2000
0100
0010
0100
,  // measure 19
0010
0000
3001
0000
1000
0001
0100
0100
,  // measure 20
0001
1000
0001
1000
0001
1000
0001
0001
,  // measure 21
0100
0010
0100
0010
0100
0010
1000
1000
,  // measure 22
0010
0100
0010
0100
0010
0100
0010
0100
0010
0100
0010
0100
0010
0100
0010
0100
,  // measure 23
0010
0000
0000
0100
0010
0000
0000
0010
0100
0000
0001
0000
1000
0000
0100
0000
,  // measure 24
1000
0001
0000
0001
1000
0000
1000
0010
0000
0010
1000
0000
0001
0000
0001
0000
,  // measure 25
0010
0001
0000
0001
1000
0000
1000
0001
0000
0001
0100
0000
0010
0000
0010
0000
,  // measure 26
0100
0001
0000
0001
0010
0000
0010
0001
0000
0001
1000
0000
0100
0000
0100
0000
,  // measure 27
0010
0001
0000
0001
0100
0000
0100
0001
0000
0001
1000
0000
0010
0000
0010
0000
,  // measure 28
1000
0100
0000
0100
0010
0000
0010
0100
0000
0100
1000
0000
0001
0000
0001
0000
,  // measure 29
0100
0001
0000
0001
0010
0000
0010
0100
0000
0100
0010
0000
0100
0000
0100
0000
,  // measure 30
0010
0001
0000
0001
0100
0000
0100
0010
0000
0010
1000
0000
0001
0000
0001
0000
,  // measure 31
1000
0010
0000
0010
0100
0000
0100
0001
0000
0001
0010
0000
0100
0000
0100
0000
,  // measure 32
1000
0100
0000
0100
0010
0000
0010
0100
0000
0100
1000
0000
0001
0000
0001
0000
,  // measure 33
0100
0001
0000
0001
0010
0000
0010
0001
0000
0001
0100
0000
0010
0000
0010
0000
,  // measure 34
0100
0001
0000
0001
0100
0000
0100
0010
0000
0010
0100
0000
0001
0000
0001
0000
,  // measure 35
1000
0100
0000
0100
0010
0000
0010
0100
0000
0100
1000
0000
0100
0000
0100
0000
,  // measure 36
1000
0010
0000
0010
0100
0000
0100
0001
0000
0001
0010
0000
0100
0000
0100
0000
,  // measure 37
0010
0001
0000
0001
1000
0000
1000
0010
0000
0010
0100
0000
0001
0000
0001
0000
,  // measure 38
1000
0001
0000
0001
0010
0000
0010
0100
0000
0100
1000
0000
0100
0000
0100
0000
,  // measure 39
1100
0000
0000
0000
0101
0000
0000
0000
1100
0000
0000
0000
0001
0100
0010
1000
,  // measure 40
0001
0100
0000
0001
1000
0000
0010
0100
0000
0001
1000
0000
0010
0000
0100
0000
,  // measure 41
0001
0100
0000
0010
1000
0000
0001
0100
0000
0010
1000
0000
0100
0000
0010
0000
,  // measure 42
0001
0010
0000
0100
1000
0000
0001
0010
0000
0100
1000
0000
0010
0000
0010
0000
,  // measure 43
0100
0001
0000
0100
0010
0000
0100
0001
0000
1000
0100
0000
0010
0000
0100
0000
,  // measure 44
1000
0010
0000
0100
0001
0000
0010
0100
0000
0010
0001
0000
1000
0000
0100
0000
,  // measure 45
0010
0100
0000
0010
0001
0000
0100
0001
0000
1000
0010
0000
0100
0000
0001
0000
,  // measure 46
2002
0000
3003
0202
0000
0303
0022
0000
,  // measure 47
0033
2002
0000
0000
0000
3003
1000
0100
,  // measure 48
1000
0010
0000
0100
0001
0000
0010
0100
0000
0010
0001
0000
1000
0001
1000
0000
,  // measure 49
0001
0100
0000
0010
1000
0000
0100
0010
0000
0100
1000
0000
0001
0100
0001
0000
,  // measure 50
0100
0010
0000
1000
0001
0000
0010
0100
0000
0010
0001
0000
1000
0010
1000
0000
,  // measure 51
0001
0010
0000
0100
0010
0000
0001
1000
0000
0010
0100
0000
0001
0100
0001
0000
,  // measure 52
0100
0001
0000
0010
0100
0000
0010
0001
0000
1000
0010
0000
0100
0010
1000
0000
,  // measure 53
0001
1000
0000
0010
0100
0000
0010
1000
0000
0100
0010
0000
0100
1000
0001
0000
,  // measure 54
0010
0100
1000
0001
0010
0100
1000
0100
,  // measure 55
0010
0000
0000
0010
0100
0000
0000
0100
0010
0000
0000
0010
0100
0010
0100
0010
,  // measure 56
0002
0000
0010
0000
1000
0000
0013
0100
,  // measure 57
2000
0000
0100
0000
0010
0000
3100
1000
,  // measure 58
0020
1000
0100
1000
,  // measure 59
0100
0000
1000
0000
0100
0000
1030
0001
,  // measure 60
0020
0000
0100
0000
0001
0000
0130
1000
,  // measure 61
0002
0000
0100
0000
0010
0000
0103
0010
,  // measure 62
2000
0000
3001
0020
0000
0130
0002
0000
,  // measure 63
1003
0200
0000
0000
0000
0000
0310
0001
,  // measure 64
2000
0000
0001
0000
0010
0000
3001
0010
,  // measure 65
0002
0000
0010
0000
1000
0000
0013
0001
,  // measure 66
0200
0010
0001
0010
,  // measure 67
0001
0000
0010
0000
0001
0000
0310
1000
,  // measure 68
0001
0010
0000
0010
0100
0000
0100
1000
0000
1000
0001
0000
1000
0000
0010
0000
,  // measure 69
0100
0001
0000
0001
1000
0000
1000
0100
0000
0100
0010
0000
0100
0000
1000
0000
,  // measure 70
0010
0100
0010
0100
0010
0100
0010
0100
0010
0100
0010
0100
0010
0100
0010
0100
,  // measure 71
0004
4000
0000
0000
0000
0000
0000
0000
0000
0000
0000
0000
0000
0000
0000
0000
,  // measure 72
3003
0000
0000
0000
;
