#VERSION:0.83;
#TITLE:Smug Face -どうだ、オレの生き様は- (ONLY ONE EDITION);
#SUBTITLE:;
#ARTIST:SUPER STAR 満-MITSURU-;
#TITLETRANSLIT:;
#SUBTITLETRANSLIT:;
#ARTISTTRANSLIT:;
#GENRE:;
#ORIGIN:;
#CREDIT:;
#BANNER:Smug Face -douda, ore no ikisama wa- (ONLY ONE EDITION).png;
#BACKGROUND:Smug Face -douda, ore no ikisama wa- (ONLY ONE EDITION)-bg.png;
#PREVIEWVID:;
#JACKET:Smug Face -douda, ore no ikisama wa- (ONLY ONE EDITION)-jacket.png;
#CDIMAGE:;
#DISCIMAGE:;
#LYRICSPATH:;
#CDTITLE:;
#MUSIC:Smug Face -douda, ore no ikisama wa- (ONLY ONE EDITION).ogg;
#OFFSET:1.212000;
#SAMPLESTART:71.380997;
#SAMPLELENGTH:11.867000;
#SELECTABLE:YES;
#BPMS:0.000=162.000;
#STOPS:323.750=0.741;
#DELAYS:;
#WARPS:;
#TIMESIGNATURES:0.000=4=4;
#TICKCOUNTS:0.000=4;
#COMBOS:0.000=1;
#SPEEDS:0.000=1.000=0.000=0;
#SCROLLS:0.000=1.000;
#FAKES:;
#LABELS:0.000=Song Start;
#BGCHANGES:;
#KEYSOUNDS:;
#ATTACKS:
;

//---------------dance-single - ----------------
#NOTEDATA:;
#CHARTNAME:;
#STEPSTYPE:dance-single;
#DESCRIPTION:;
#CHARTSTYLE:;
#DIFFICULTY:Beginner;
#METER:5;
#RADARVALUES:0.175321,0.250081,0.115778,0.007719,0.000000,159.000000,144.000000,15.000000,1.000000,0.000000,0.000000,0.000000,0.000000,0.000000,0.175321,0.250081,0.115778,0.007719,0.000000,159.000000,144.000000,15.000000,1.000000,0.000000,0.000000,0.000000,0.000000,0.000000;
#CREDIT:Pandemonium X;
#NOTES:
// measure 0
0000
0000
0000
0000
,  // measure 1
0000
0000
0000
0000
,  // measure 2
0000
0000
0000
0000
,  // measure 3
0000
0000
0000
0000
,  // measure 4
0000
0000
0000
0000
,  // measure 5
0100
0000
0010
0000
,  // measure 6
1000
0000
0001
0000
,  // measure 7
1000
0000
0100
0000
,  // measure 8
0020
0000
0000
0030
,  // measure 9
0010
0010
0010
0000
,  // measure 10
1000
0000
0001
0000
,  // measure 11
0100
0100
0100
0000
,  // measure 12
0010
0000
1000
0000
,  // measure 13
0001
0001
0001
0000
,  // measure 14
1000
0000
0100
0000
,  // measure 15
0010
0010
0010
0000
,  // measure 16
0100
0000
0010
0000
,  // measure 17
0001
0000
0000
0000
,  // measure 18
1000
0000
0001
0000
,  // measure 19
0100
0000
0000
0000
,  // measure 20
0010
0000
1000
0000
,  // measure 21
0100
0000
0000
0000
,  // measure 22
0010
0000
0001
0000
,  // measure 23
0100
0000
0000
0000
,  // measure 24
0010
0000
0100
0000
,  // measure 25
1001
0000
0000
0000
,  // measure 26
0001
0000
1000
0000
,  // measure 27
0110
0000
0000
0000
,  // measure 28
0010
0000
1000
0000
,  // measure 29
1001
0000
0000
0000
,  // measure 30
0001
0000
0010
0000
,  // measure 31
0110
0000
0000
0000
,  // measure 32
1001
0000
0110
0000
,  // measure 33
1001
0000
0000
0000
,  // measure 34
0001
0000
0000
0000
,  // measure 35
1000
0000
0000
0000
,  // measure 36
0010
0000
0000
0000
,  // measure 37
0100
0000
0000
0000
,  // measure 38
0010
0000
0000
0000
,  // measure 39
1000
0000
0000
0000
,  // measure 40
0100
0000
0000
0000
,  // measure 41
0010
0010
0010
0010
,  // measure 42
0000
0000
0000
0000
,  // measure 43
0001
0001
0001
0001
,  // measure 44
0000
0000
0000
0000
,  // measure 45
1001
0000
0000
0000
,  // measure 46
0110
0000
0000
0000
,  // measure 47
0001
0000
1000
0000
,  // measure 48
0010
0100
0010
0000
,  // measure 49
1001
0000
0001
0000
,  // measure 50
1000
0000
0100
0100
,  // measure 51
0010
0000
0100
0000
,  // measure 52
1000
0000
0010
0010
,  // measure 53
0100
0000
0010
0000
,  // measure 54
1000
0000
0001
0001
,  // measure 55
0010
0000
0001
0000
,  // measure 56
0100
0000
0010
0010
,  // measure 57
1001
0000
1000
0000
,  // measure 58
0001
0000
0010
0010
,  // measure 59
0100
0000
0010
0000
,  // measure 60
0001
0000
0100
0100
,  // measure 61
0010
0000
0100
0000
,  // measure 62
0001
0000
1000
1000
,  // measure 63
0001
0000
1000
0000
,  // measure 64
0110
0000
0001
1000
,  // measure 65
0110
0000
0000
0000
,  // measure 66
0100
0000
0000
0000
,  // measure 67
0010
0000
0000
0000
,  // measure 68
1000
0000
0000
0000
,  // measure 69
0001
0000
0010
0000
,  // measure 70
0001
0000
0100
0000
,  // measure 71
0010
0000
1000
0000
,  // measure 72
0100
0100
0100
0000
,  // measure 73
0010
0010
0010
0000
,  // measure 74
0110
0000
0000
0000
,  // measure 75
0100
0100
0100
0000
,  // measure 76
1001
0000
0000
0000
,  // measure 77
0001
0000
0000
0000
,  // measure 78
1000
0000
0000
0000
,  // measure 79
0010
0000
0100
0000
,  // measure 80
0001
0100
0010
1000
,  // measure 81
0001
0000
0000
0000
;

//---------------dance-single - ----------------
#NOTEDATA:;
#CHARTNAME:;
#STEPSTYPE:dance-single;
#DESCRIPTION:;
#CHARTSTYLE:;
#DIFFICULTY:Easy;
#METER:9;
#RADARVALUES:0.356156,0.573102,0.447676,0.123497,0.000000,323.000000,265.000000,58.000000,16.000000,0.000000,0.000000,0.000000,0.000000,0.000000,0.356156,0.573102,0.447676,0.123497,0.000000,323.000000,265.000000,58.000000,16.000000,0.000000,0.000000,0.000000,0.000000,0.000000;
#CREDIT:Pandemonium X;
#NOTES:
// measure 0
0000
0000
0000
0000
,  // measure 1
0000
0000
0000
0000
,  // measure 2
0000
0000
0000
0000
,  // measure 3
0000
0000
0000
0000
,  // measure 4
0000
0000
0000
0000
,  // measure 5
0001
0001
0001
0000
,  // measure 6
1000
1000
1000
0010
,  // measure 7
0100
0100
0100
0000
,  // measure 8
1001
0000
0000
0000
,  // measure 9
0001
0010
0100
0000
,  // measure 10
0001
1000
0010
0100
,  // measure 11
0010
1000
0100
0000
,  // measure 12
0010
0001
1000
0100
,  // measure 13
1000
0010
0100
0000
,  // measure 14
0001
0010
0100
0010
,  // measure 15
1001
0100
1001
0110
,  // measure 16
1001
0100
2002
3003
,  // measure 17
0110
0010
0100
0001
,  // measure 18
1000
0000
0100
0000
0010
0000
0001
0010
,  // measure 19
0001
0010
0001
0100
,  // measure 20
0010
0000
1000
0000
0001
0000
0010
0100
,  // measure 21
1000
0100
1000
0010
,  // measure 22
1000
0000
0001
0000
0010
0000
0100
0010
,  // measure 23
0100
0010
0001
1000
,  // measure 24
0002
0203
0320
1030
,  // measure 25
1100
1100
1100
1100
,  // measure 26
0110
0110
0110
0110
,  // measure 27
0011
0011
0011
0011
,  // measure 28
0101
0101
0101
0101
,  // measure 29
0110
0110
0110
0110
,  // measure 30
1001
1001
1001
1001
,  // measure 31
0011
0011
0110
0110
,  // measure 32
1100
1100
1010
1010
,  // measure 33
0201
0000
0000
0000
,  // measure 34
0301
0000
1000
0000
,  // measure 35
0200
0000
0000
0000
,  // measure 36
0310
0000
0100
0000
,  // measure 37
2000
0000
0000
0000
,  // measure 38
3010
0000
0100
0000
,  // measure 39
0002
0000
0000
0000
,  // measure 40
0013
0000
0001
0000
,  // measure 41
2010
0010
0010
0010
,  // measure 42
3010
0000
0000
0000
,  // measure 43
0201
0001
0001
0001
,  // measure 44
0301
0000
0000
0000
,  // measure 45
1001
0000
0000
0000
,  // measure 46
0110
0000
0000
0000
,  // measure 47
2001
3010
1002
0103
,  // measure 48
0001
0100
0010
0000
2000
0000
0000
0000
,  // measure 49
3100
0000
0000
0010
0100
0000
0000
0010
,  // measure 50
0000
0001
0100
0000
0010
0000
1000
0000
,  // measure 51
0001
0000
0000
1000
0100
0000
0000
1000
,  // measure 52
0000
0010
0100
0000
0001
0000
0010
0000
,  // measure 53
0100
0000
0000
0010
0001
0000
0000
1000
,  // measure 54
0000
0001
0010
0000
0100
0000
1000
0000
,  // measure 55
0100
0000
0000
1000
0100
0000
0000
0010
,  // measure 56
0000
0100
1000
0000
1010
0000
0101
0000
,  // measure 57
1001
0000
0000
0001
0100
0000
0000
0001
,  // measure 58
0000
0010
0100
0000
0010
0000
0001
0000
,  // measure 59
1000
0000
0000
0010
0100
0000
0000
0010
,  // measure 60
0000
1000
0100
0000
0010
0000
0100
0000
,  // measure 61
1001
0000
0000
0000
1000
0001
0000
0010
,  // measure 62
0000
0001
0100
0000
0001
0000
1000
0000
,  // measure 63
1001
0000
0000
0000
1000
0100
0000
0010
,  // measure 64
0000
0100
1000
0000
1010
0000
0101
0000
,  // measure 65
0001
1000
0010
0100
,  // measure 66
0001
0001
0001
1000
,  // measure 67
0001
0010
0100
1000
,  // measure 68
0100
0100
0100
1000
,  // measure 69
0010
0100
0110
0000
,  // measure 70
0010
1000
1001
0000
,  // measure 71
0001
0001
1000
1000
,  // measure 72
0001
0100
0010
1000
,  // measure 73
0100
0100
0100
0100
,  // measure 74
0010
0010
0010
0010
,  // measure 75
0001
0001
0001
0001
,  // measure 76
1000
1000
1000
1000
,  // measure 77
0010
0100
0101
0000
,  // measure 78
0100
0010
1010
0000
,  // measure 79
1000
0100
0010
0001
,  // measure 80
1000
0000
0001
0000
0100
0010
1000
0001
,  // measure 81
0220
0000
0000
0000
,  // measure 82
0000
0000
0330
0000
;

//---------------dance-single - ----------------
#NOTEDATA:;
#CHARTNAME:;
#STEPSTYPE:dance-single;
#DESCRIPTION:;
#CHARTSTYLE:;
#DIFFICULTY:Medium;
#METER:12;
#RADARVALUES:0.438855,0.604941,0.486269,0.185245,0.150512,398.000000,335.000000,63.000000,24.000000,0.000000,0.000000,2.000000,0.000000,0.000000,0.438855,0.604941,0.486269,0.185245,0.150512,398.000000,335.000000,63.000000,24.000000,0.000000,0.000000,2.000000,0.000000,0.000000;
#CREDIT:Pandemonium X;
#NOTES:
// measure 0
0000
0000
0000
0000
,  // measure 1
0000
0000
0000
0000
,  // measure 2
0000
0000
0000
0000
,  // measure 3
0000
0000
0000
0000
,  // measure 4
0000
0000
0000
0000
,  // measure 5
1000
0000
0100
0000
1000
0000
0000
0100
0000
0000
0000
0000
0000
0000
0010
0000
,  // measure 6
0001
0000
0100
0000
0001
0000
0000
0100
0000
0000
0010
0000
1000
0000
0000
0000
,  // measure 7
0001
0000
1000
0000
0010
0000
0000
0100
0000
0000
0000
0000
0000
0000
0010
0000
,  // measure 8
2000
3100
0020
0031
0200
0320
2030
0000
,  // measure 9
3001
0000
0010
0000
0100
0000
0000
1000
0000
0000
0000
0000
0000
0000
0100
0000
,  // measure 10
1000
0000
0001
0000
1000
0000
0000
0010
0000
0000
0100
0000
0010
0000
1000
0000
,  // measure 11
0001
0000
0010
0000
0001
0000
0000
0100
0000
0000
0000
0000
0000
0000
0010
0000
,  // measure 12
0100
0000
0001
0000
0010
0000
0000
0100
0000
0000
0010
0000
0001
0000
0100
0000
,  // measure 13
0010
0000
1000
0000
0001
0000
0000
0010
0000
0000
0000
0000
0000
0000
0100
0000
,  // measure 14
0010
0000
0001
0000
0100
0000
0000
0010
0000
0000
1000
0000
0001
0000
0010
0000
,  // measure 15
0100
0000
0010
0000
0001
0000
0000
1000
0000
0000
0000
0000
0000
0000
0001
0000
,  // measure 16
1001
0110
1001
0110
,  // measure 17
0201
0001
0001
0001
,  // measure 18
0320
0000
1030
0000
2000
0000
3100
0100
,  // measure 19
0020
0100
0100
0130
,  // measure 20
2000
0000
3010
0000
0200
0000
0301
0010
,  // measure 21
0200
1000
1000
1000
,  // measure 22
0320
0000
0031
0000
0200
0000
0010
0310
,  // measure 23
2000
0001
0001
3001
,  // measure 24
1000
0100
0010
0001
1000
0100
0010
0001
,  // measure 25
1001
1001
1001
1001
,  // measure 26
1001
0000
1001
0000
1001
0000
1001
0001
,  // measure 27
0101
0101
0101
0101
,  // measure 28
0101
0000
0101
0000
0101
0000
0101
0100
,  // measure 29
0110
0110
0110
0110
,  // measure 30
0110
0000
0110
0000
0110
0000
0110
0010
,  // measure 31
1010
1010
1010
1010
,  // measure 32
1000
0100
0020
0000
,  // measure 33
0130
0000
0000
0000
,  // measure 34
1000
0000
0001
0000
,  // measure 35
2000
0000
0000
0000
,  // measure 36
3010
0000
1000
0000
,  // measure 37
0200
0000
0000
0000
,  // measure 38
0310
0000
0001
0000
,  // measure 39
2000
0000
0000
0000
,  // measure 40
3010
0000
1000
0000
,  // measure 41
0201
0001
0001
0001
,  // measure 42
0301
0000
0000
0000
,  // measure 43
1020
1000
1000
1000
,  // measure 44
1030
0000
0000
0000
,  // measure 45
1001
0000
0000
0000
,  // measure 46
0110
0000
0000
0000
,  // measure 47
0001
0100
0001
0100
0001
0100
0010
0000
,  // measure 48
1000
0000
0100
0000
0010
0000
0000
0000
0004
0400
0000
0000
0000
0000
0303
0000
,  // measure 49
1010
0000
0000
1000
0100
1000
0000
0100
,  // measure 50
0000
0010
0100
0000
1100
0000
0101
0000
,  // measure 51
1001
0000
0000
0001
0100
0010
0000
0100
,  // measure 52
0000
0001
0010
0000
0110
0000
1100
0000
,  // measure 53
0100
0000
0000
1000
0001
0100
0000
0001
,  // measure 54
0000
0010
0100
0000
0011
0000
1010
0000
,  // measure 55
0110
0000
0000
0100
0010
1000
0000
0001
,  // measure 56
0000
1000
0100
0000
0110
0000
1100
0000
,  // measure 57
1001
0000
0000
0001
0100
0010
0000
0100
,  // measure 58
0000
0001
0010
0000
0011
0000
1010
0000
,  // measure 59
0110
0000
0000
0100
0001
0010
0000
0100
,  // measure 60
0000
0010
0001
0000
0011
0000
1100
0000
,  // measure 61
0110
0000
0000
0010
0001
1000
0000
0010
,  // measure 62
0000
0100
0001
0000
1001
0000
1100
0000
,  // measure 63
1001
0000
0000
0001
0100
0010
0000
0100
,  // measure 64
0020
0000
1000
0130
,  // measure 65
0001
0100
0010
1000
,  // measure 66
0001
1000
0000
0100
0000
0010
0000
0100
0000
0000
0010
0000
0100
0000
0000
0000
,  // measure 67
0010
0001
0100
0010
,  // measure 68
1000
0100
0000
1000
0000
0010
0000
0100
0000
0000
0010
0000
0100
0000
0000
0000
,  // measure 69
0001
0000
0000
1000
0000
0000
0000
1100
0000
0000
0000
0000
0000
0000
0000
0000
,  // measure 70
0100
0000
0000
0010
0000
0000
0000
0011
0000
0000
0000
0000
0000
0000
0000
0000
,  // measure 71
0001
0100
0010
0000
0100
0010
1000
0000
,  // measure 72
0001
0100
0000
0100
0000
0100
0000
0010
0000
0000
0100
0000
0010
0000
1000
0000
,  // measure 73
0100
0010
0100
1000
,  // measure 74
0100
1000
0000
0010
0000
0100
0000
0001
0000
0000
0100
0000
0010
0000
0010
0000
,  // measure 75
1000
0001
0010
0100
,  // measure 76
0010
0001
0000
0100
0000
0001
0000
1000
0000
0000
0001
0000
0010
0000
0100
0000
,  // measure 77
0010
0000
0000
0001
0000
0000
0000
1100
0000
0000
0000
0000
0000
0000
0000
0000
,  // measure 78
1000
0000
0000
0010
0000
0000
0000
0110
0000
0000
0000
0000
0000
0000
0000
0000
,  // measure 79
0100
0010
1000
0000
0001
0010
0100
0000
,  // measure 80
0010
0001
0100
0010
1000
0001
0010
0100
,  // measure 81
2002
0000
0000
0000
,  // measure 82
0000
0000
3003
0000
;

//---------------dance-single - ----------------
#NOTEDATA:;
#CHARTNAME:;
#STEPSTYPE:dance-single;
#DESCRIPTION:;
#CHARTSTYLE:;
#DIFFICULTY:Hard;
#METER:15;
#RADARVALUES:0.536991,0.827815,0.424520,0.393646,0.374350,487.000000,432.000000,55.000000,51.000000,0.000000,0.000000,7.000000,0.000000,0.000000,0.536991,0.827815,0.424520,0.393646,0.374350,487.000000,432.000000,55.000000,51.000000,0.000000,0.000000,7.000000,0.000000,0.000000;
#CREDIT:Pandemonium X;
#NOTES:
// measure 0
0000
0000
0000
0000
,  // measure 1
0000
0000
0000
0000
,  // measure 2
0000
0000
0000
0000
,  // measure 3
0000
0000
0000
0000
,  // measure 4
0000
0000
0000
0000
,  // measure 5
1000
0000
1000
0000
1000
0000
0000
0001
0000
0000
0000
0000
0000
0000
1000
0000
,  // measure 6
0100
0000
0100
0000
0100
0000
0000
0010
0000
0000
0100
0000
1000
0000
0001
0000
,  // measure 7
0010
0000
0010
0000
0010
0000
0000
0100
0000
0000
0000
0000
0000
0000
0010
0001
,  // measure 8
4000
0040
0000
0000
0000
0000
0000
0000
0000
0000
0000
0000
3030
0000
0000
0000
,  // measure 9
0100
0000
0100
0000
0100
0000
0100
0001
0000
0000
0000
0000
0000
0000
0010
0100
,  // measure 10
1000
0000
1000
0000
1000
0000
0001
0100
0000
0000
0001
0000
0010
0000
0100
0000
,  // measure 11
1000
0000
1000
0000
1000
0000
1000
0010
0000
0000
0000
0000
0000
0000
0100
0010
,  // measure 12
1000
0000
1000
0000
1000
0000
1000
0001
0000
0000
0010
0000
0100
0000
1000
0000
,  // measure 13
0010
0000
0010
0000
0010
0000
0010
1000
0000
0000
0000
0000
0000
0000
0100
0010
,  // measure 14
0001
0000
0001
0000
0001
0000
0010
0001
0000
0000
0100
0000
0010
0000
1000
0000
,  // measure 15
0100
0000
0100
0000
0100
0000
0100
0010
0001
0000
0000
0000
1010
0000
0000
0000
,  // measure 16
0101
0000
0001
0000
0010
0000
0100
0000
4000
0004
0000
0000
0000
0000
0000
3003
,  // measure 17
0210
0001
0010
0001
,  // measure 18
0320
0000
0100
0000
2030
0000
0001
0001
,  // measure 19
3002
1000
0010
1000
,  // measure 20
0023
0000
0000
0000
0100
0000
0000
0000
0032
0000
0000
0103
0010
0000
1000
0000
,  // measure 21
0200
1000
0010
1000
,  // measure 22
0320
0001
0230
1000
,  // measure 23
0320
0001
0100
0031
,  // measure 24
1000
0100
0010
0001
1000
0100
0010
0001
1000
0100
0010
0001
1000
0100
0010
0001
,  // measure 25
1001
1010
0110
0101
,  // measure 26
0011
0000
0110
0000
1100
0000
0011
0001
,  // measure 27
0011
0101
1001
1010
,  // measure 28
1100
0000
0000
0000
1001
0000
0000
0000
1010
0000
0000
1000
0010
0000
0010
0000
,  // measure 29
0100
0000
0000
0001
0000
0000
0010
0000
0000
0001
0000
0000
0010
0000
0100
0000
,  // measure 30
1000
0000
0000
0010
0000
0000
0100
0000
0000
1000
0000
0000
0100
0000
0010
0000
,  // measure 31
0100
0000
0000
0010
0000
0000
0000
1000
0001
0000
0010
0000
0100
1000
0100
1000
,  // measure 32
0010
0000
0000
0000
0100
0000
0000
0000
0004
4000
0000
0000
0000
0000
3003
0000
,  // measure 33
0120
0000
0000
0000
,  // measure 34
2030
0000
3200
0000
,  // measure 35
0020
0000
0000
0300
,  // measure 36
0230
0000
2300
0000
,  // measure 37
0002
0000
0000
3000
,  // measure 38
0203
0000
0320
0000
,  // measure 39
0200
0000
0000
0030
,  // measure 40
0302
0000
2000
3003
,  // measure 41
0201
1000
0001
1000
,  // measure 42
0301
0000
0000
0000
,  // measure 43
0021
1000
0001
1000
,  // measure 44
0031
0000
0000
0000
,  // measure 45
1001
0001
1000
0100
,  // measure 46
1001
0001
0100
0010
,  // measure 47
1000
0002
0103
0002
0103
0010
2000
0000
,  // measure 48
3100
0000
0010
0001
2000
0000
0000
0000
0004
0000
0000
0000
0000
0000
0000
3003
,  // measure 49
0110
0000
0000
0010
1000
1100
0000
0110
,  // measure 50
0000
1000
1100
0000
1002
0000
0023
0000
,  // measure 51
0130
0000
0000
0010
0001
0101
0000
1001
,  // measure 52
0000
0001
0011
0000
0210
0000
2300
0000
,  // measure 53
3010
0000
0000
0100
0010
1010
0000
0101
,  // measure 54
0000
0001
0011
0000
0120
0000
0032
0000
,  // measure 55
1003
0000
0000
0001
0010
0110
0000
0011
,  // measure 56
0000
0001
0101
0000
0210
0000
0320
0000
,  // measure 57
1030
0000
0000
0000
0000
0000
0100
0010
0001
0000
1001
0000
0000
0000
0110
0000
,  // measure 58
0000
0000
0100
0010
1000
0000
0000
0000
0201
0000
0000
0000
2300
0000
0000
0000
,  // measure 59
3100
0000
0000
0000
0000
0000
0010
1000
0001
0000
1001
0000
0000
0000
0011
0000
,  // measure 60
0000
0000
0010
0100
1000
0000
0000
0000
0210
0000
0000
0000
0302
0000
0000
0000
,  // measure 61
0103
0000
0000
0000
0000
0000
0010
0001
1000
0000
1001
0000
0000
0000
0101
0000
,  // measure 62
0000
0000
0100
0010
1000
0000
0000
0000
0120
0000
0000
0000
0032
0000
0000
0000
,  // measure 63
0013
0000
0000
0000
0000
0000
0100
0010
1000
0000
0101
0000
0000
0000
0010
0000
,  // measure 64
2002
0000
0000
0000
3003
0000
0000
0000
1000
0100
0010
0001
1000
0100
0010
0001
,  // measure 65
1000
0000
0000
1000
0000
0000
0001
0000
0000
0001
0000
0000
0100
0000
0010
0000
,  // measure 66
1000
0001
0000
0001
0000
0001
0000
0200
0000
0000
0310
0000
1000
0000
0100
0000
,  // measure 67
0010
0000
0000
0010
0000
0000
0100
0000
0000
0100
0000
0000
0010
0000
0001
0000
,  // measure 68
1000
0100
0000
0100
0000
0100
0000
0020
0000
0000
0130
0000
1000
0000
0010
0000
,  // measure 69
0100
0000
0100
0010
0000
1000
0000
1001
0000
0000
0001
0000
0010
0000
0100
0000
,  // measure 70
0010
0000
0010
0100
0000
1000
0000
0011
0000
0000
0001
0000
0010
0000
0100
0000
,  // measure 71
0010
0000
0001
0010
0000
0010
0100
0000
0100
1000
0000
1000
0100
0000
0010
0000
,  // measure 72
0001
0100
0000
0100
0000
0100
0000
1001
0000
0000
0001
0000
0100
0000
0010
0000
,  // measure 73
1000
0010
0001
0010
1000
0010
0001
0010
,  // measure 74
1000
0100
0000
0001
0000
0100
0000
2000
0000
0000
3001
0000
0010
0000
0100
0000
,  // measure 75
1000
0100
0001
0100
1000
0100
0001
0100
,  // measure 76
1000
0010
0000
0001
0000
0010
0000
1000
0000
0000
0001
0000
0010
0000
0100
0000
,  // measure 77
1000
0000
0100
1000
0000
0010
0100
0002
0000
0000
0013
0000
0001
0000
0100
0000
,  // measure 78
0010
0000
1000
0001
0000
0010
0001
2000
0000
0000
3001
0000
0100
0000
0010
0000
,  // measure 79
1000
0100
0010
0100
1000
0001
0010
0100
,  // measure 80
1000
0100
0010
0001
0010
0100
0010
0001
1000
0100
0010
0001
1000
0100
0010
0100
,  // measure 81
2002
0000
0000
0000
,  // measure 82
0000
0000
3003
0000
;
