#TITLE:Seaside Labyrinth;
#SUBTITLE:;
#ARTIST:Dirty Androids;
#TITLETRANSLIT:;
#SUBTITLETRANSLIT:;
#ARTISTTRANSLIT:;
#GENRE:;
#CREDIT:;
#BANNER:Seaside Labyrinth.png;
#BACKGROUND:Seaside Labyrinth-bg.png;
#LYRICSPATH:;
#CDTITLE:;
#MUSIC:Seaside Labyrinth.ogg;
#OFFSET:-0.120000;
#SAMPLESTART:15.867000;
#SAMPLELENGTH:14.136000;
#SELECTABLE:YES;
#BPMS:0.000000=136.000000
;
#STOPS:
;
#BGCHANGES:0.000=Seaside Labyrinth.avi=1.000=1=0=0=StretchNoLoop==CrossFade==,
99999=-nosongbg-=1.000=0=0=0 // don't automatically add -songbackground-
;
#KEYSOUNDS:;
#ATTACKS:;

//---------------dance-single - ----------------
#NOTES:
     dance-single:
     :
     Beginner:
     4:
     0.138166,0.215597,0.088657,0.000000,0.000000,120.000000,109.000000,11.000000,0.000000,0.000000,0.000000,0.138166,0.215597,0.088657,0.000000,0.000000,120.000000,109.000000,11.000000,0.000000,0.000000,0.000000:
0000
0000
0000
0000
,
0000
0000
0000
0000
,
0000
0000
0000
0000
,
0000
0000
0000
0000
,
0000
0000
0000
0000
,
0000
0000
0000
0000
,
0000
0000
0000
0000
,
0000
0000
0000
0000
,
1000
0000
0001
0000
,
0110
0000
0010
0010
,
0010
0000
0000
1000
,
1000
0000
0000
0001
,
0001
0000
0000
0010
,
0010
0000
0100
0100
,
0100
0000
1000
1000
,
1000
0000
0000
0001
,
1000
0000
0000
0110
,
1001
0000
0000
0001
,
0100
0000
0000
0100
,
0001
0000
0000
0001
,
1000
0000
0000
0100
,
0010
0000
0000
0100
,
1000
0000
0010
0100
,
1001
0000
0000
0000
,
0110
0000
0000
0000
,
1000
0000
0000
0000
,
0001
0000
0010
0000
,
0100
0000
0000
0000
,
0010
0000
0000
0001
,
0100
0000
0000
0000
,
0000
0010
0000
0100
,
0001
0000
0000
0000
0000
1000
0000
0000
,
0000
0000
0000
0000
,
0001
0000
0000
1000
,
0100
0000
0010
0000
,
0100
0000
0000
1000
,
1000
0000
0000
0010
,
0100
0000
0000
0000
,
0000
0000
0001
0000
,
1000
0000
0000
0000
,
0000
0110
0000
0000
0000
0000
0000
0000
,
0000
0010
0000
0000
0000
0000
0000
0000
,
0010
0000
0000
0000
,
0100
0000
0000
0000
0000
0000
0000
0100
,
0000
0000
0000
0000
,
0010
0000
0000
0000
,
1000
0000
0000
0000
,
0001
0000
0000
0000
,
0010
0000
0100
1001
,
0010
0000
1000
1000
,
1000
0000
0000
0001
,
1000
0000
0000
0100
,
0010
0000
0000
0100
,
1000
0000
0010
0010
,
0010
0000
0100
0100
,
0100
0000
0000
0010
,
1000
0000
0001
0110
,
1000
0000
0000
0001
,
0100
0000
0000
0001
,
1000
0000
0000
0001
,
0010
0000
0000
0000
,
1001
0000
0001
1000
,
0100
0000
0010
0100
,
1000
0000
0000
0000
,
0001
0000
0000
0000
,
0000
1001
0000
0000
0000
0110
0000
0000
,
0000
0001
0000
0000
1000
0000
0000
0010
;

//---------------dance-single - ----------------
#NOTES:
     dance-single:
     :
     Easy:
     7:
     0.232580,0.323396,0.096716,0.145075,0.084627,202.000000,190.000000,12.000000,18.000000,0.000000,0.000000,0.232580,0.323396,0.096716,0.145075,0.084627,202.000000,190.000000,12.000000,18.000000,0.000000,0.000000:
0000
0000
0000
0000
,
0000
0000
0000
0000
,
0000
0000
0000
0000
,
0000
0000
1000
0000
,
0001
0000
0010
0000
,
0001
0000
0100
0000
,
0010
0000
0000
0100
,
0020
0000
0000
0000
0000
0000
0000
0030
,
1000
0100
0010
0001
1000
0100
0020
0000
,
0130
1000
0010
0100
,
0002
0000
0000
0000
0000
0000
0013
0001
,
0010
0000
0000
0100
,
0010
0000
0002
0000
0000
0000
0103
0010
,
0100
0000
0010
1000
,
0001
0000
0010
0100
,
2000
0000
0000
3001
,
0100
0010
1000
1100
,
1010
0001
0000
0011
,
0010
0100
0000
1001
,
0001
0100
0000
1010
,
0100
0000
0001
0020
0000
0000
0030
0000
,
0110
0000
0100
1000
,
0001
0000
1000
0001
,
1020
0000
0000
0000
,
0200
0000
0000
0330
,
1001
0001
1000
0010
,
1000
0001
0010
0001
,
1000
0010
0100
0001
,
0020
0000
0000
0000
0000
0000
0130
1000
,
0100
0000
0000
0000
,
0000
0000
0010
0000
0001
0000
1000
0001
,
0100
0000
0000
0020
,
0000
0000
0000
0030
,
1001
0000
0001
0000
1000
0000
0010
1000
,
0010
1000
0001
0010
,
0100
0010
0001
0100
,
0020
0000
0000
0000
0000
0000
0130
0010
,
1000
0001
0010
0000
,
0000
0000
0100
0010
,
0002
0000
0000
0000
,
0003
0000
1000
0000
0000
0001
0000
0100
0000
0010
0000
1000
0000
0000
0000
0000
,
0000
0000
0001
0000
0000
0000
0000
1000
0000
0000
0000
0000
0000
0100
0000
1000
,
0000
0000
0000
0000
0000
0000
0000
0000
0000
0000
0000
0000
0000
0000
0000
0100
,
0000
0000
0000
0000
0000
0000
0000
0010
0000
0000
0000
0000
0000
0000
0000
0001
,
0000
0000
1001
0000
,
0000
0000
0001
0000
0000
0000
0000
0100
0000
0000
0000
0000
0000
0010
0000
1000
,
0000
0000
0000
0000
0000
0000
0000
0100
0000
0000
0000
0000
0000
0000
0000
0010
,
0000
0000
0000
0000
0000
0000
0000
0000
0000
0000
0000
0000
0000
0000
0000
0100
,
0000
0000
0000
0000
0010
0001
2000
0000
,
3010
0100
0001
1000
,
0200
0000
0000
0000
0000
0000
0310
0001
,
1000
0001
0100
0001
,
0020
0000
0000
0000
0000
0000
0130
1000
,
0010
0100
0001
1000
,
0100
0000
1000
0010
,
0200
0000
0000
0000
0000
0000
0310
1000
,
0001
1000
0010
0101
,
0001
0010
0001
0000
0010
0000
0100
0000
,
1000
0100
1000
0000
0100
0000
1000
0000
,
0010
1000
0010
0000
0100
0000
0001
0000
,
0100
0000
0000
0000
0001
0000
0100
0000
0000
0000
0000
0000
0000
0000
0000
0010
,
0000
1001
0000
0000
0001
0000
1000
0000
,
0100
0000
0000
0000
0010
0000
0000
0000
0100
0000
0000
0000
1000
0000
0000
0020
,
0000
0000
0000
0000
0000
0000
0000
0000
0000
0000
0000
0000
0000
0000
0000
0200
,
0000
0000
0000
0330
,
0000
1000
0000
0000
0000
0001
0000
0000
,
0000
0000
1000
0000
0000
0100
0000
0000
0010
0000
0000
0001
0000
0000
1000
0000
;

//---------------dance-single - ----------------
#NOTES:
     dance-single:
     :
     Medium:
     11:
     0.373049,0.485547,0.354627,0.209552,0.346567,324.000000,280.000000,44.000000,26.000000,0.000000,0.000000,0.373049,0.485547,0.354627,0.209552,0.346567,324.000000,280.000000,44.000000,26.000000,0.000000,0.000000:
0000
0000
0000
0000
,
0000
0000
0000
0000
,
0000
0000
0000
0000
,
0000
0000
0000
0000
0000
0000
0000
0000
0110
0000
0000
0000
0100
0000
0000
0001
,
0000
0000
0010
0000
0100
1000
0100
0000
,
1000
0000
0001
0000
0100
0010
0100
0000
,
0010
0000
0000
0000
1000
0000
0000
0000
0001
0000
0000
1000
0000
0000
0200
0000
,
0000
0000
0000
0000
,
0310
0000
0100
0000
1000
0000
0010
0000
0100
0000
0000
0000
0102
0000
0000
0013
,
0000
0000
0100
0000
0000
0000
0000
0000
0010
0000
0000
0000
0001
0000
0000
2000
,
0000
0000
0000
0000
0000
0000
0000
0000
0000
0000
0000
0000
3010
0000
0000
1000
,
0000
0000
0100
0000
0000
0000
0000
0000
0000
0000
0000
0000
0010
0000
0000
0100
,
0000
0000
1000
0000
0000
0000
0000
0000
0000
0000
0000
0000
0100
0000
0000
0010
,
0000
0000
0001
0000
0000
0000
0000
0000
0010
0000
0000
0000
0001
0000
0000
0100
,
0000
0000
0001
0000
0000
0000
0000
0000
1000
0000
0000
0000
0001
0000
0000
0200
,
0000
0000
0000
0000
0000
0000
0000
0000
0000
0000
0310
0000
1000
0010
0000
0100
,
0000
0000
0010
0000
0000
1000
0000
0001
0000
0000
0000
0000
0011
0000
0000
0210
,
0000
0000
1300
0000
0000
0000
0000
0000
0000
0000
0000
0000
1100
0000
0000
0110
,
0000
0000
0011
0000
0000
0000
0000
0000
0000
0000
0000
0000
0001
0000
0000
0101
,
0000
0000
1010
0000
0000
0000
0000
0000
0000
0000
0000
0000
0001
0000
0000
1001
,
0000
0101
0000
0000
0001
0000
0010
0000
0000
0000
0000
0000
0000
0000
0100
0010
,
0000
0000
1001
0000
0000
0000
0000
0000
0000
0000
0000
0000
0011
0000
0000
0110
,
0000
0000
1100
0000
0000
0000
0000
0020
0000
0000
1030
0010
0000
0100
0000
0201
,
0000
0000
0000
0000
0000
0000
0000
0000
0000
0000
0000
0000
0310
0000
0000
2002
,
0000
0000
0000
3003
,
1000
0000
0100
0000
1000
0010
1000
0000
,
0010
0000
0000
0000
0100
0000
0000
0000
0001
0000
0010
0000
0001
0010
0000
0010
,
0100
0000
0010
0000
0100
1000
0010
0000
,
0100
0000
0000
0000
0001
0000
0000
0000
1000
0000
0010
0000
0100
0001
0000
0010
,
0000
0000
0100
0000
0010
0001
0100
0000
,
0010
0000
0000
0000
1000
0000
0000
0000
0001
0000
1000
0000
0010
1000
0000
1000
,
0100
0000
0010
0000
0100
1000
0010
0000
,
0100
0000
0000
0000
0010
0000
0000
0000
0100
0000
0001
0000
1000
0001
0000
0001
,
0010
0100
2000
0000
3100
1000
0020
0000
,
0130
0001
2000
0000
3001
1000
0100
0010
,
0100
1000
0002
0000
0103
0001
0020
0000
,
0130
0000
1000
0000
0020
0000
0000
0000
0130
0000
0001
0000
0010
0000
0000
0110
,
0000
0000
1001
0000
0001
0100
1000
0000
,
0100
0000
1100
0000
1000
0100
0001
1000
,
0100
0000
0110
0000
0100
0010
0001
0000
,
0000
0000
1001
0000
0000
1001
0000
0101
0000
0011
0000
0101
0000
0000
0000
0000
,
0000
0000
1000
0000
0000
0100
0000
0001
0000
0000
0100
0000
0000
1000
0000
0010
,
0000
0000
0000
0000
0100
0010
0000
1001
0000
0000
0000
0001
0000
0000
0000
1000
,
0000
0000
0000
0000
0000
0100
0000
0010
0000
0000
0100
0000
0000
1000
0000
0001
,
0000
0000
0100
0000
0010
0000
1000
0000
0001
1000
0000
0110
0000
0000
0000
0000
,
0000
0000
0001
0000
0000
0010
0000
1000
0000
0000
0010
0000
0000
0001
0000
1200
,
0000
0000
0310
0000
0100
0000
0000
1000
0000
0000
0001
0000
1000
0001
0000
0210
,
0000
0000
0000
0000
0001
0000
0000
0000
0010
0000
0000
0000
0301
0000
0000
0021
,
0000
0000
0000
0000
0100
0000
0000
0000
0031
0000
1000
0000
1020
0000
0000
0130
,
0000
0000
1001
0000
0000
0000
0000
0000
0001
0000
0000
0000
0010
0000
0000
0200
,
0000
0000
0000
0000
0000
0000
0000
0000
0300
0000
0000
0000
0010
0000
0000
0001
,
0000
0000
0100
0000
0000
0000
0000
0000
0000
0000
0000
0000
0010
0000
0000
1000
,
0000
0000
0002
0000
0000
0000
0000
0000
0000
0000
0000
0000
0013
0000
0000
0001
,
0000
0000
0100
0000
0000
0000
0000
0000
0010
0000
0000
0000
1000
0000
0000
0001
,
0000
0000
0010
0000
0000
0000
0000
0000
0100
0000
0000
0000
0010
0000
0000
0002
,
0000
0000
0000
0000
0000
0000
0000
0000
0000
0000
1003
0000
0010
0000
0000
1000
,
0000
0000
0100
0000
0000
1000
0000
0010
0000
0000
0000
0000
0110
0000
0000
1001
,
0000
0000
0110
0000
0000
0000
0000
0000
0000
0000
0000
0000
1010
0000
0000
0110
,
0000
0000
0101
0000
0000
0000
0000
0000
0000
0000
0000
0000
0101
0000
0000
0011
,
0000
0000
0110
0000
0000
0000
0000
0000
0000
0000
0000
0000
0110
0000
0000
0001
,
0000
1000
0000
0000
0010
0000
0100
0000
0000
0000
0000
0000
0000
0000
0001
1000
,
0000
0000
1010
0000
0000
0000
0000
0000
1000
0000
0000
0000
0100
0000
0000
1000
,
0000
0000
0010
0000
0000
0000
0100
0000
0000
0000
0010
1000
0000
0001
0000
0020
,
0000
0000
0000
0000
0000
0000
0000
0000
0000
0000
0000
0000
0000
0000
0000
0200
,
0000
0000
0000
0330
,
0000
0000
2000
0000
0000
3010
0000
0000
0100
0000
0002
0000
0000
0013
0000
0000
,
0100
0000
1000
0000
0000
0010
0000
0000
0001
0000
0000
0100
0000
0000
1000
0001
;

//---------------dance-single - ----------------
#NOTES:
     dance-single:
     :
     Hard:
     15:
     0.580299,0.728320,0.443284,0.677015,0.713284,504.000000,449.000000,55.000000,84.000000,0.000000,0.000000,0.580299,0.728320,0.443284,0.677015,0.713284,504.000000,449.000000,55.000000,84.000000,0.000000,0.000000:
0000
0000
0000
0000
,
0000
0000
0000
0000
,
0000
0000
0000
0000
,
0000
0000
0000
0000
0000
0000
0000
0001
1000
0000
0000
0000
0100
0010
0000
0010
,
0000
0000
0000
0000
0100
0000
0000
0000
1000
0000
1000
0000
0001
0000
0000
0100
,
0000
0000
0000
0000
0001
0000
0000
0000
1000
0000
1000
0000
0001
0010
0000
0001
,
0000
0000
0000
0000
1000
0000
0000
0000
0001
0000
0001
0010
0000
0000
0200
0000
,
0000
1000
1000
1000
1000
1000
1000
1300
,
0100
0010
0100
0010
0001
1000
0001
1000
0001
0100
0010
1000
0001
0000
0000
1002
,
0000
0000
0013
0000
0100
1000
0100
1000
0020
0000
0000
0000
0230
0000
0000
0302
,
0010
0000
0000
0000
1000
0000
0000
0000
0103
0000
0000
0000
0010
0100
0010
2000
,
0000
0000
3100
0000
0010
0000
0100
0000
1000
0000
0010
0000
0100
0001
0000
0010
,
0000
0000
0020
0000
0100
0000
0000
0000
0001
0000
0000
0000
0130
1000
0100
2000
,
0000
0000
3010
0000
0100
0001
0100
0001
0020
0000
0000
0000
0230
0000
0000
2300
,
0000
0000
3001
0000
0100
0001
0010
0001
0020
0000
0000
0000
0100
0000
0000
0032
,
0000
0000
0000
0000
0103
0000
0000
0000
0010
0000
0100
0000
0010
1000
0010
0200
,
0000
0000
0001
0000
0001
0000
0000
0302
0000
0000
0000
0003
2020
0000
3000
0230
,
0000
0000
0310
0000
1000
0001
0010
0001
1000
0100
0010
0001
2000
0000
0000
3020
,
0000
0000
0230
0000
0300
0000
0001
0100
0001
0010
0001
1000
0010
0100
0010
2000
,
0000
0000
3001
0000
1000
0000
0000
0000
0001
0000
1000
0000
0100
0010
0000
0001
,
0000
0010
0000
0000
0100
0000
1200
0000
0000
0000
0000
0000
0000
0310
0100
2000
,
0000
0000
3010
0000
0100
0000
0001
0000
1000
0001
1000
0100
0020
0000
0000
0230
,
0000
0000
1300
0000
0000
0000
0002
0000
0000
0000
0103
0010
0000
0100
0000
2001
,
0000
0000
0000
0000
0100
0000
0000
0000
0010
0000
0000
0000
3001
0000
0000
1002
,
0000
0000
0013
0000
0000
0000
0100
1000
0100
0010
0100
1000
0010
0100
0000
0101
,
0000
0000
1001
0000
0001
0001
1000
0000
,
0100
0000
0000
0000
0010
0000
0000
0000
0100
0000
0100
0000
1000
0010
0000
0010
,
0100
0000
0000
0000
0001
0000
0000
0000
0010
0000
0200
0000
0000
2300
0000
0000
,
3020
0000
0000
0000
0000
0000
0000
0000
0000
0000
0100
0000
0130
0010
0000
1002
,
0000
0000
0010
0000
1000
1000
1003
0000
,
0000
0000
0001
0000
0100
0010
0000
0210
0000
0000
0310
0000
1000
0001
0000
2001
,
0000
0000
0000
0000
0100
0000
0000
0000
0010
0000
3020
0000
0000
2030
0000
0000
,
3200
0000
0000
0320
0000
0000
0230
0000
0000
2300
0000
0000
3010
1000
0000
0201
,
0000
0000
0310
0000
0100
0001
0011
0000
,
0010
0000
0110
0000
0100
1000
1010
0000
,
1000
0000
0000
0000
1001
0000
0000
0000
0001
0000
2000
0000
0000
3200
0000
0000
,
0320
0000
0000
0000
0031
0000
0000
0000
0100
0000
0010
0000
0100
0001
0000
1020
,
0000
0000
0130
0000
0001
0010
0110
0000
,
0100
0000
1100
0000
0100
1000
1010
0000
,
0201
0310
1200
0310
,
0000
0000
1001
0000
0000
1100
0000
0011
0000
0101
0000
1002
0000
0000
0000
0000
,
0003
0000
2100
0000
0000
0010
0000
0010
0000
0000
0001
0000
0000
0001
0000
0002
,
3000
1003
0100
0010
0001
1000
0100
0010
0001
0100
0000
1010
0000
1010
0000
0102
,
0000
0000
0000
0000
0000
1000
0000
1000
0000
0000
0100
0000
0000
0100
0000
0103
,
0000
0000
0010
1000
0001
0000
0010
0000
0100
1000
0000
1100
0000
0101
0000
0000
,
0000
0000
0201
0000
0000
0010
0000
0010
0000
0000
0001
0000
0000
0001
0000
0301
,
0000
0000
1000
0010
0100
0001
0000
1001
0000
0000
0101
0000
0000
1010
0000
2100
,
0000
0000
0000
0000
3001
1000
0010
0100
0001
1000
0100
0010
0001
1000
0000
2010
,
0000
0000
0001
0000
0001
0000
0001
0000
3001
0010
0001
0100
0220
0000
0330
2010
,
0000
0000
3001
0000
0010
0100
0010
0001
2000
0000
0000
0000
0010
0000
0000
3002
,
0100
0000
0000
0000
0010
0000
0000
0000
1000
0000
0000
0000
0103
0010
0100
0020
,
0000
0000
1030
0000
0100
0000
0010
0000
0001
0010
0100
0010
0001
0000
0000
1000
,
0000
0000
0002
0000
0010
0000
0000
0000
0010
0000
0000
0000
0013
0100
1000
0002
,
0000
0000
1003
0000
0010
1000
0010
0100
0002
0000
0000
0000
0023
0000
0000
0230
,
0000
0000
1300
0000
0001
0100
0010
0000
2000
0000
0000
0000
3200
0000
0000
0320
,
0000
0000
0000
0000
0001
0000
0000
0000
0130
0000
1000
0000
0010
1000
0001
0010
,
0000
0000
1100
0000
0000
0110
0000
0012
0000
0000
0000
0003
2020
0000
3000
0230
,
0000
0000
0301
0000
1000
0000
0100
0010
0001
0010
0001
0100
0001
2000
0000
3200
,
0000
0000
2300
0000
0010
0000
0000
0000
0001
0000
0000
3010
0100
0001
1000
0200
,
0000
0000
0310
0000
0001
0000
0000
1000
0010
0000
0000
0100
0001
0010
0000
0100
,
0000
0010
0000
0000
0002
0000
2000
0000
0000
0000
0000
3003
1100
0100
0010
0002
,
0000
0000
0103
0000
1001
0000
0000
0000
1000
0010
1000
0001
0010
0100
0000
0020
,
0000
0000
0031
0000
0100
0000
0000
0020
0000
0000
1030
1100
0000
0110
0000
0021
,
0000
0000
0000
0000
0001
0000
0000
0000
0100
0000
0000
0000
0031
0000
0000
1020
,
0000
0100
1000
0130
,
0000
0000
0001
0100
0001
0010
0100
0010
0001
1000
0010
1000
0100
1000
0010
0100
,
0001
1000
1001
0000
0000
0011
0000
0000
0110
0000
0000
1100
0000
0000
1010
1000
;

//---------------dance-double - ----------------
#NOTES:
     dance-double:
     :
     Easy:
     6:
     0.207250,0.323396,0.274030,0.120896,0.048358,180.000000,146.000000,34.000000,15.000000,0.000000,0.000000,0.207250,0.323396,0.274030,0.120896,0.048358,180.000000,146.000000,34.000000,15.000000,0.000000,0.000000:
// measure 0
00000000
00000000
00000000
00000000
,  // measure 1
00000000
00000000
00000000
00000000
,  // measure 2
00000000
00000000
00000000
00000000
,  // measure 3
00000000
00000000
10000000
00000000
,  // measure 4
00010000
00000000
00100000
00000000
,  // measure 5
00001000
00000000
00010000
00000100
,  // measure 6
00010000
00000000
00000000
00001000
,  // measure 7
02000000
00000000
00000000
00000000
,  // measure 8
03100000
01000000
00001000
00011000
,  // measure 9
00010000
00000100
00001000
00000010
,  // measure 10
00000200
00000000
00000000
00000310
,  // measure 11
00002000
00003100
00000000
00000010
,  // measure 12
00000002
00002003
00000000
00003001
,  // measure 13
00000100
00000000
00000010
00001000
,  // measure 14
00000100
00000000
00010000
00001000
,  // measure 15
00020000
00000000
00000000
00031000
,  // measure 16
01000000
00000000
00100000
10010000
,  // measure 17
11000000
00000000
00000000
01100000
,  // measure 18
00110000
00000000
00000000
00101000
,  // measure 19
00011000
00000000
00000000
00010010
,  // measure 20
00001010
00000101
00000000
00000000
,  // measure 21
00001100
00000000
00000000
00000110
,  // measure 22
00001100
00000000
00010100
00011000
,  // measure 23
00201000
00000000
00000000
00000000
,  // measure 24
00002000
00000000
00000000
00303000
,  // measure 25
01000000
00000000
00100000
00000000
,  // measure 26
10000000
00000000
00010000
00100000
,  // measure 27
00001000
00000000
00010000
00000000
,  // measure 28
00000100
00000000
00001000
00000010
,  // measure 29
00000100
00000000
00000001
00000000
,  // measure 30
00000010
00000100
00001000
00000100
,  // measure 31
00010000
00000000
00001000
00000000
,  // measure 32
01000000
00000000
00100000
00000000
,  // measure 33
10010000
00000000
10000000
00010000
,  // measure 34
00100000
00001000
00010000
00000100
,  // measure 35
00001000
00000000
00000010
00000000
,  // measure 36
00000100
00000000
00000000
00000001
,  // measure 37
00000010
00000000
00000100
00000000
,  // measure 38
00001000
00000000
00000100
00010000
,  // measure 39
00001000
00000000
00100000
00000000
,  // measure 40
00022000
00000000
00000000
00000000
00000000
00000000
00000000
00000000
00000000
00000000
00000000
00033000
00000000
00000000
00000000
00000000
,  // measure 41
00000000
00000000
00011000
00000000
00000000
00000000
00000000
00000000
00000000
00000000
00000000
00000000
00000000
00000000
00000000
00010000
,  // measure 42
00000000
00000000
00000000
00000000
00000000
00000000
00000000
00000100
00000000
00000000
00000000
00000000
00000000
00000000
00000000
00010000
,  // measure 43
00000000
00000000
00000000
00000000
00000000
00000000
00000000
00001000
00000000
00000000
00000000
00000000
00000000
00000000
00000000
01000000
,  // measure 44
00000000
00000000
00100000
00000000
,  // measure 45
00000000
00000000
10000000
00000000
00000000
00000000
00000000
01000000
00000000
00000000
00000000
00000000
00000000
00100000
00000000
00000000
,  // measure 46
00000000
00000000
00000000
00000000
00000000
00000000
00000000
01000000
00000000
00000000
00000000
00000000
00000000
00000000
00000000
10000000
,  // measure 47
00000000
00000000
00000000
00000000
00000000
00000000
00000000
00000000
00000000
00000000
00000000
00000000
00000000
00000000
00000000
00010000
,  // measure 48
00000000
00000000
00100000
00011000
,  // measure 49
00000100
00000000
00010000
00000100
,  // measure 50
00002000
00000000
00000000
00003100
,  // measure 51
00000010
00000000
00000000
00000100
,  // measure 52
00002000
00000000
00000000
00003001
,  // measure 53
00000100
00000000
00000010
00010000
,  // measure 54
00001000
00000000
00100000
00001000
,  // measure 55
00020000
00000000
00000000
00031000
,  // measure 56
01000000
00100000
10000000
10010000
,  // measure 57
11000000
00000000
00000000
01100000
,  // measure 58
00110000
00000000
00000000
00101000
,  // measure 59
00011000
00000000
00000000
00010100
,  // measure 60
00010010
00000000
00000000
00000000
00001010
00000000
00000000
00000000
00000000
00000000
00000000
00000000
00000000
00000000
00000000
00000101
,  // measure 61
00000000
00000000
00000000
00001001
,  // measure 62
00001100
00000000
00000010
00010000
,  // measure 63
00012000
00000000
00000000
00000000
,  // measure 64
00020000
00000000
00000000
00033000
,  // measure 65
00000000
00000100
00000000
00000000
00000000
00010000
00000000
00000000
,  // measure 66
00000000
00001000
00000000
00000000
00010000
00000000
00000000
00011000
;

//---------------dance-double - ----------------
#NOTES:
     dance-double:
     :
     Medium:
     11:
     0.347719,0.458572,0.128955,0.177314,0.322388,302.000000,286.000000,16.000000,22.000000,0.000000,0.000000,0.347719,0.458572,0.128955,0.177314,0.322388,302.000000,286.000000,16.000000,22.000000,0.000000,0.000000:
// measure 0
00000000
00000000
00000000
00000000
,  // measure 1
00000000
00000000
00000000
00000000
,  // measure 2
00000000
00000000
00000000
00000000
,  // measure 3
00000000
00000000
00000000
00000000
00000000
00000000
00000000
00000000
10000000
00000000
00000000
00000000
00010000
00000000
00000000
00100000
,  // measure 4
00000000
00000000
00000000
00000000
01000000
00000000
00000000
00000000
10000000
00000000
10000000
00000000
00100000
01000000
00000000
00010000
,  // measure 5
00000000
00000000
00000000
00000000
00100000
00000000
00000000
00000000
00001000
00000000
00001000
00000000
00010000
00000100
00000000
00001000
,  // measure 6
00000000
00000000
00000000
00000000
00000010
00000000
00000000
00000000
00000100
00000000
00000000
00000001
00000000
00000000
00000010
00000000
,  // measure 7
00000000
00000100
00000010
00000100
00000010
00000100
00000010
00000100
,  // measure 8
00000010
00000000
00000001
00000000
00000100
00000000
00000010
00000000
00001000
00000000
00000100
00000000
00010200
00000000
00000000
00001300
,  // measure 9
00000000
00000000
00000100
00000000
00000000
00000000
00000000
00000000
00001000
00000000
00000000
00000000
00000010
00000000
00000000
00020000
,  // measure 10
00000000
00000000
00000000
00000000
00000000
00000000
00000000
00000000
00000000
00000000
00000000
00000000
00031000
00000000
00000000
01000000
,  // measure 11
00000000
00000000
00100000
00000000
00000000
00000000
00000000
00000000
00000000
00000000
00000000
00000000
10000000
00000000
00000000
01000000
,  // measure 12
00000000
00000000
00200000
00000000
00000000
00000000
00000000
00000000
00000000
00000000
00000000
00000000
01300000
00000000
00000000
10000000
,  // measure 13
00000000
00000000
00100000
00000000
00000000
00000000
00000000
00000000
01000000
00000000
00000000
00000000
00001000
00000000
00000000
00010000
,  // measure 14
00000000
00000000
00000100
00000000
00000000
00000000
00000000
00000000
00001000
00000000
00000000
00000000
00000010
00000000
00000000
00000200
,  // measure 15
00000000
00000000
00000000
00000000
00000000
00000000
00000000
00000000
00000000
00000000
00000310
00000000
00000100
00000001
00000000
00000010
,  // measure 16
00000000
00000000
00000100
00000000
00000000
00000010
00000000
00000001
00000000
00000000
00000000
00000000
00002001
00000000
00000000
00003010
,  // measure 17
00000000
00000000
00001100
00000000
00000000
00000000
00000000
00000000
00000000
00000000
00000000
00000000
00000100
00000000
00000000
00010000
,  // measure 18
00000000
00000000
00011000
00000000
00000000
00000000
00000000
00000000
00000000
00000000
00000000
00000000
00001000
00000000
00000000
01000000
,  // measure 19
00000000
00000000
01100000
00000000
00000000
00000000
00000000
00000000
00000000
00000000
00000000
00000000
00100000
00000000
00000000
10000000
,  // measure 20
00000000
00100000
00000000
00000000
01000000
00000000
00010000
00000000
00000000
00000000
00000000
00000000
00000000
00000000
00000000
00100000
,  // measure 21
00000000
00000000
00011000
00000000
00000000
00000000
00000000
00000000
00000000
00000000
00000000
00000000
00100000
00000000
00000000
00001000
,  // measure 22
00000000
00000000
00011000
00000000
00000000
00000000
00010000
00000000
00000000
00000000
00001000
00010000
00000000
00000100
00000000
00002100
,  // measure 23
00000000
00000000
00000000
00000000
00000010
00000000
00000000
00000000
00000000
00000000
00000000
00000000
00003001
00000000
00000000
00001002
,  // measure 24
00000000
00000000
00001000
00000000
00000000
00000003
00001100
00000000
,  // measure 25
00000100
00000000
00010000
00000000
00001000
01000000
00001000
00000000
,  // measure 26
01000000
00000000
00100000
00000000
10000000
01000000
00100000
00010000
,  // measure 27
10000000
00000000
00010000
00000000
00100000
00001000
00010000
00000000
,  // measure 28
00000100
00000000
00001000
00000000
00000010
00000100
00000001
00000010
,  // measure 29
00000100
00000000
00000010
00000000
00000001
00000100
00000010
00000000
,  // measure 30
00001000
00000000
00000100
00000000
00010000
00001000
01000000
00001000
,  // measure 31
00010000
00000000
00000100
00000000
00010000
00001000
01000000
00000000
,  // measure 32
00100000
00000000
00000000
00000000
10000000
00000000
00000000
00000000
01000000
00000000
00000000
00000000
00100000
01000000
00000000
11000000
,  // measure 33
00000000
00000000
01000000
00000000
10000000
00100000
00010000
00000000
,  // measure 34
00100000
00000000
10000000
00000000
00010000
00100000
00001000
00010000
,  // measure 35
00000100
00000000
00000010
00000000
00000001
00000010
00001000
00000000
,  // measure 36
00000001
00000000
00000010
00000000
00000100
00001000
00000100
00010000
,  // measure 37
00001000
00000000
01000000
00000000
10000000
01000000
00010000
00000000
,  // measure 38
00010000
00000000
00100000
00000000
00001000
00010000
00000100
00001000
,  // measure 39
00000010
00000000
00000001
00000000
00000010
00010000
00001000
00010000
,  // measure 40
00000000
00000000
00001000
00000000
00000000
01000000
00000000
00100000
00000000
10000000
00000000
01000000
00000000
00000000
00000000
00000000
,  // measure 41
00000000
00000000
00100000
00000000
00000000
00010000
00000000
00100000
00000000
00000000
00001000
00000000
00000000
00010000
00000000
00001000
,  // measure 42
00000000
00000000
00000000
00000000
00000000
00000000
00000000
00010000
00000000
00000000
00000000
00000100
00000000
00000000
00000000
00001000
,  // measure 43
00000000
00000000
00000000
00000000
00000000
00000010
00000000
00000100
00000000
00000000
00000001
00000000
00000000
00000010
00000000
00000100
,  // measure 44
00000000
00000000
00000000
00000000
00000000
00000000
00000000
00000000
00000100
00001000
00000000
00001100
00000000
00000000
00000000
00000000
,  // measure 45
00000000
00000000
00000100
00000000
00000000
00010000
00000000
00001000
00000000
00000000
01000000
00000000
00000000
00100000
00000000
10000000
,  // measure 46
00000000
00000000
01000000
00000000
00100000
00000000
00000000
00100000
00000000
00000000
00010000
00000000
00000000
00100000
00000000
00001000
,  // measure 47
00000000
00000000
00010000
00000000
00000100
00010000
00000100
00000000
,  // measure 48
00010000
00000000
00001000
00000000
01000000
00000000
00001000
00000000
01000000
00000000
00001000
00000000
00021000
00000000
00000000
00030100
,  // measure 49
00000000
00000000
00001000
00000000
00000000
00000000
00000000
00000000
00000010
00000000
00000000
00000000
00000100
00000000
00000000
00000002
,  // measure 50
00000000
00000000
00000000
00000000
00000000
00000000
00000000
00000000
00000000
00000000
00000000
00000000
00000013
00000000
00000000
00000100
,  // measure 51
00000000
00000000
00001000
00000000
00000000
00000000
00000000
00000000
00000000
00000000
00000000
00000000
00000100
00000000
00000000
00010000
,  // measure 52
00000000
00000000
00002000
00000000
00000000
00000000
00000000
00000000
00000000
00000000
00000000
00000000
01003000
00000000
00000000
00100000
,  // measure 53
00000000
00000000
10000000
00000000
00000000
00000000
00000000
00000000
01000000
00000000
00000000
00000000
10000000
00000000
00000000
00010000
,  // measure 54
00000000
00000000
00100000
00000000
00000000
00000000
00000000
00000000
00001000
00000000
00000000
00000000
00100000
00000000
00000000
00001000
,  // measure 55
00000000
00000000
00000000
00000000
00000000
00000000
00000000
00000000
00000000
00000000
00010000
00000000
00001000
00010000
00000000
00000100
,  // measure 56
00000000
00000000
00010000
00000000
00000000
00001000
00000000
01000000
00000000
00000000
00000000
00000000
10200000
00000000
00000000
02300000
,  // measure 57
00000000
00000000
03100000
00000000
00000000
00000000
00000000
00000000
00000000
00000000
00000000
00000000
02000000
00000000
00000000
03002000
,  // measure 58
00000000
00000000
00013000
00000000
00000000
00000000
00000000
00000000
00000000
00000000
00000000
00000000
00020000
00000000
00000000
00030200
,  // measure 59
00000000
00000000
00001300
00000000
00000000
00000000
00000000
00000000
00000000
00000000
00000000
00000000
00001000
00000000
00000000
00000010
,  // measure 60
00000000
00000100
00000000
00000000
00000001
00000000
00002000
00000000
00000000
00000000
00000000
00000000
00000000
00000000
00003001
00000100
,  // measure 61
00000000
00000000
00001010
00000000
00000000
00000000
00000000
00000000
00000000
00000000
00000000
00000000
00000020
00000000
00000000
00020030
,  // measure 62
00000000
00000000
00031000
00000000
00000000
00000000
00000000
00010000
00000000
00000000
00000010
00000100
00000000
00000001
00000000
00000020
,  // measure 63
00000000
00000000
00000000
00000000
00000000
00000000
00000000
00000000
00000000
00000000
00000000
00000000
00000130
00000000
00000000
00002002
,  // measure 64
00000000
00000000
00000000
00003003
,  // measure 65
00000000
00000001
00000100
00000010
00001000
00000100
00010000
00001000
,  // measure 66
01000000
00000000
00100000
00000000
00000000
10000000
00000000
00000000
01000000
00000000
00000000
00100000
00000000
00000000
00001000
00010000
;

//---------------dance-double - ----------------
#NOTES:
     dance-double:
     :
     Hard:
     15:
     0.553817,0.674371,0.830150,0.298209,0.584329,481.000000,378.000000,103.000000,37.000000,0.000000,0.000000,0.553817,0.674371,0.830150,0.298209,0.584329,481.000000,378.000000,103.000000,37.000000,0.000000,0.000000:
// measure 0
00000000
00000000
00000000
00000000
,  // measure 1
00000000
00000000
00000000
00000000
,  // measure 2
00000000
00000000
00000000
00000000
,  // measure 3
00000000
00000000
00000000
00000000
00000000
00000000
00000000
10000000
00100000
00000000
00000000
00000000
01000000
00010000
00000000
00100000
,  // measure 4
00000000
00000000
00000000
00000000
01000000
00000000
00000000
00000000
10000000
00000000
10000000
00000000
00010000
00100000
00000000
00001000
,  // measure 5
00000000
00000000
00000000
00000000
00010000
00000000
00000000
00000000
00000100
00000000
00001000
00000000
00000010
00000100
00000000
00000001
,  // measure 6
00000000
00000000
00000000
00000000
00000010
00000000
00000000
00000000
00000100
00000000
00000000
00001100
00000000
00000000
00010100
00000000
,  // measure 7
00000000
00000100
00000100
00010000
00010000
00001000
00001000
01000000
,  // measure 8
01000000
00100000
10000000
00010000
00100000
00001000
00010000
00001000
01000000
00001000
00010000
00001000
00200000
00000000
00000000
00301000
,  // measure 9
00000000
00000000
00011000
00000000
00001000
01000000
00001000
00000000
01000000
00000000
00000000
00000000
00100000
00000000
00000000
20010000
,  // measure 10
00000000
00000000
00000000
00000000
00010000
00000000
00000000
00000000
30100000
00000000
00000000
00000000
01000000
00010000
00100000
01000000
,  // measure 11
00000000
00000000
00110000
00000000
00100000
00000000
00000000
00000000
00010000
00000000
00000000
00000000
00011000
00000000
00000000
00010100
,  // measure 12
00000000
00000000
00001020
00000000
00000000
00000000
00000000
00000000
00000100
00000000
00000000
00000000
00001030
00000001
00000010
00000001
,  // measure 13
00000000
00000000
00001100
00000000
00000100
00000010
00000001
00000000
00000101
00000000
00000000
00000000
00001010
00000000
00000000
00011000
,  // measure 14
00000000
00000000
00101000
00000000
01000000
00100000
20000000
00000000
31000000
00000000
00000000
00000000
00110000
00000000
00000000
21000000
,  // measure 15
00000000
00000000
00000000
00000000
01000000
00000000
00000000
00000000
00100000
00000000
30100000
00000000
01000000
00010000
00100000
00001000
,  // measure 16
00000000
00000000
00011000
00000000
00000000
00001100
00000000
01010000
00000000
00000000
00000000
00000000
00021000
00000000
00000000
00030010
,  // measure 17
00000000
00000000
00001001
00000000
00000000
00000000
00000000
00000000
00000000
00000000
00000000
00000000
00000011
00000000
00000000
00000110
,  // measure 18
00000000
00000000
00010100
00000000
00000000
00000000
00000000
00000000
00000000
00000000
00000000
00000000
00000100
00010000
00001000
01000000
,  // measure 19
00000000
00000000
10010000
00000000
00000000
00000000
00000000
00000000
00000000
00000000
00000000
00000000
00110000
00000000
00000000
00101000
,  // measure 20
00000000
00011000
00000000
00000000
00010100
00000000
00001200
00000000
00000000
00000000
00000000
00000000
00001300
00000010
00000100
00000001
,  // measure 21
00000000
00000000
00000011
00000000
00000000
00000000
00000000
00000000
00000000
00000000
00000000
00000000
00000110
00000000
00000000
00001100
,  // measure 22
00000000
00000000
00010100
00000000
00000000
00000000
00101000
00000000
00000000
00000000
00001000
01000000
00000000
00100000
00000000
10200000
,  // measure 23
00000000
00000000
00000000
00000000
01000000
00000000
00000000
00000000
10000000
00000000
00000000
00000000
01300000
00000000
00000000
20010000
,  // measure 24
00000000
00000000
00000000
00000000
00100000
00000000
00000000
00000000
01000000
00000000
00000000
00000000
30010000
00100000
00000000
11000000
,  // measure 25
00000000
00000000
01000000
00000000
00100000
00010000
00100000
00000000
,  // measure 26
00001000
00000000
00000000
00000000
00010000
00000000
00000000
00000000
00000100
00000000
00001000
00000000
00000010
00000100
00000000
00000100
,  // measure 27
00000001
00000000
00000000
00000000
00001000
00000000
00000000
00000000
00000100
00000000
00002000
00000000
00000000
00003200
00000000
00000000
,  // measure 28
00020300
00000000
00000000
00000000
00001000
00000000
00000000
00000000
00030100
00000000
00010000
00000000
00001000
01000000
00000000
01000000
,  // measure 29
00000000
00000000
00100000
00000000
10000000
10000000
00010000
00000000
,  // measure 30
00000000
00000000
00100000
00000000
01000000
10000000
00000000
00100000
00000000
00000000
01000000
00000000
00010000
00000000
00100000
00001000
,  // measure 31
00000000
00000000
00000000
00000000
00010000
00000000
00000000
00011000
00000000
00000000
00002000
00000000
00000000
00023000
00000000
00000000
,  // measure 32
00030020
00000000
00000000
00000230
00000000
00000000
00000302
00000000
00000000
00002003
00000000
00000000
00003100
00010000
00000000
00011000
,  // measure 33
00000000
00000000
00010000
00000000
00000010
00001000
00000100
00000000
,  // measure 34
00000010
00000000
00000000
00000000
00000011
00000000
00000000
00000000
00000010
00000000
00000100
00000000
00000010
00000001
00000000
00001000
,  // measure 35
00000100
00000000
00000000
00000000
00001100
00000000
00000000
00000000
00010000
00000000
00002000
00000000
00000000
02003000
00000000
00000000
,  // measure 36
03200000
00000000
00000000
00000000
10300000
00000000
00000000
00000000
01000000
00000000
00100000
00000000
01000000
10000000
00000000
10100000
,  // measure 37
00000000
00000000
10000000
00000000
00000000
01000000
00000000
00000000
00000000
00000000
00000000
00000000
00100000
00000000
00000000
00000000
,  // measure 38
01000000
00000000
00000000
00000000
10000000
00000000
00010000
10000000
00010000
00000000
00000000
00000000
00010000
00000000
00100000
00000000
,  // measure 39
00001000
00010000
00000100
00001000
,  // measure 40
00000000
00000000
00001100
00000000
00000000
00101000
00000000
00011000
00000000
00010100
00000000
00011000
00000000
00000000
00000000
00000000
,  // measure 41
00000000
00000000
10010000
00000000
00000000
00110000
00000000
00101000
00000000
00000000
00011000
00000000
00000000
00001100
00000000
00001010
,  // measure 42
00000000
00000000
00000000
00000000
00000000
00000000
00000000
00000101
00000000
00000000
00000000
00000110
00000000
00000110
00000000
00000101
,  // measure 43
00000000
00000000
00000000
00000000
00000000
00001010
00000000
00001100
00000000
00000000
00011000
00000000
00000000
00101000
00000000
00110000
,  // measure 44
00000000
00000000
00100000
01000000
10000000
00000000
00100000
00000000
01000000
01000000
00000000
01100000
00000000
10100000
00000000
00000000
,  // measure 45
00000000
00000000
10010000
00000000
00000000
00110000
00000000
00101000
00000000
00000000
00011000
00000000
00000000
00101000
00000000
00110000
,  // measure 46
00000000
00000000
00100000
00001000
00010000
00000100
00000000
00001100
00000000
00000000
00000011
00000000
00000000
00001000
00000000
00000201
,  // measure 47
00000000
00000000
00000000
00000000
00000310
00000000
00001000
00000100
00010000
00001000
01000000
00100000
10000000
01000000
00000000
00200000
,  // measure 48
00000000
00000000
01000000
00000000
01000000
00000000
01000000
00000000
01300000
00100000
00010000
00100000
00002000
00000000
00000000
00023000
,  // measure 49
00000000
00000000
00030010
00000000
00000100
00000001
00000010
00000000
00000100
00000000
00000000
00000000
00010000
00000000
00000000
00002000
,  // measure 50
00000000
00000000
00000000
00000000
00100000
00000000
00000000
00000000
00013000
00000000
00000000
00000000
00001000
01000000
00100000
10000000
,  // measure 51
00000000
00000000
01010000
00000000
00000000
00000000
00000000
00000000
00100000
00000000
00000000
00000000
11000000
00000000
00000000
10010000
,  // measure 52
00000000
00000000
01002000
00000000
00000000
00000000
00000000
00000000
00000000
00000000
00000000
00000000
00013000
00000100
00010000
00001000
,  // measure 53
00000000
00000000
00010100
00000000
00000000
00000000
00000000
00000000
00001100
00000000
00000000
00000000
00000011
00000000
00000000
00000101
,  // measure 54
00000000
00000000
00000110
00000000
00000010
00001000
00000100
00000000
00000110
00000000
00000000
00000000
00001100
00000000
00000000
00021000
,  // measure 55
00000000
00000000
00000000
00000000
00000000
00000000
00000000
00000000
00000000
00000000
00030100
00000000
00010000
00000100
00010000
00001000
,  // measure 56
00000000
00000000
00010000
00000000
00000000
00002000
00000000
00020000
00000000
00000000
00000000
00000000
00033000
00000000
00000000
00110000
,  // measure 57
00000000
00000000
11000000
00000000
00000000
00000000
00000000
00000000
00000000
00000000
00000000
00000000
00110000
00000000
00000000
00011000
,  // measure 58
00000000
00000000
00001100
00000000
00000000
00000000
00000000
00000000
00000000
00000000
00000000
00000000
00000001
00000010
00000001
00001000
,  // measure 59
00000000
00000000
00001100
00000000
00000000
00000000
00000000
00000000
00000000
00000000
00000000
00000000
00010100
00000000
00000000
00011000
,  // measure 60
00000000
00101000
00000000
00000000
00110000
00000000
02100000
00000000
00000000
00000000
00000000
00000000
13000000
01000000
00100000
00010000
,  // measure 61
00000000
00000000
11000000
00000000
10000000
00100000
01000000
00100000
10000000
00010000
00100000
01000000
10000000
00000000
00000000
00110000
,  // measure 62
00000000
00000000
00101000
00000000
00000000
00000000
00020000
00000000
00000000
00000000
00030010
00000100
00000000
00000101
00000000
00000021
,  // measure 63
00000000
00000000
00000000
00000000
00000100
00000000
00000000
00000000
00000001
00000000
00000000
00000000
00000130
00000000
00000000
00001100
,  // measure 64
00000000
00010000
00010000
00011000
,  // measure 65
00000000
00000000
00001000
01000000
00100000
10000000
00010000
00100000
00001000
00010000
00000100
00001000
00000010
00000100
00000001
00000010
,  // measure 66
00000100
00001000
00000200
00000000
00000000
00020300
00000000
00000000
00032000
00000000
00000000
02003000
00000000
00000000
00100000
03100000
;
