#VERSION:0.83;
#TITLE:Saturn;
#SUBTITLE:;
#ARTIST:Mr. Saturn;
#TITLETRANSLIT:;
#SUBTITLETRANSLIT:;
#ARTISTTRANSLIT:;
#GENRE:;
#ORIGIN:;
#CREDIT:;
#BANNER:Saturn.png;
#BACKGROUND:Saturn-bg.png;
#PREVIEWVID:;
#JACKET:Saturn-jacket.png;
#CDIMAGE:;
#DISCIMAGE:;
#LYRICSPATH:;
#CDTITLE:cdtitle.png;
#MUSIC:Saturn.ogg;
#OFFSET:-0.081000;
#SAMPLESTART:26.398001;
#SAMPLELENGTH:12.387000;
#SELECTABLE:YES;
#BPMS:0.000=155.000,
132.000=77.500,
148.000=155.000;
#STOPS:;
#DELAYS:;
#WARPS:;
#TIMESIGNATURES:0.000=4=4;
#TICKCOUNTS:0.000=4;
#COMBOS:0.000=1;
#SPEEDS:0.000=1.000=0.000=0;
#SCROLLS:0.000=1.000;
#FAKES:;
#LABELS:0.000=Song Start;
#BGCHANGES:;
#KEYSOUNDS:;
#ATTACKS:
;

//---------------dance-single - ----------------
#NOTEDATA:;
#CHARTNAME:;
#STEPSTYPE:dance-single;
#DESCRIPTION:;
#CHARTSTYLE:;
#DIFFICULTY:Beginner;
#METER:5;
#RADARVALUES:0.175544,0.287311,0.114924,0.000000,0.000000,139.000000,126.000000,13.000000,0.000000,0.000000,0.000000,0.000000,0.000000,0.000000,0.175544,0.287311,0.114924,0.000000,0.000000,139.000000,126.000000,13.000000,0.000000,0.000000,0.000000,0.000000,0.000000,0.000000;
#CREDIT:Pandemonium X;
#NOTES:
// measure 0
0000
0000
0000
0000
,  // measure 1
0010
0000
0000
0000
,  // measure 2
0000
0000
0000
0000
,  // measure 3
0010
0000
0000
0000
,  // measure 4
0000
0000
0000
0100
,  // measure 5
0010
0000
0000
0000
,  // measure 6
0000
0000
0000
0000
,  // measure 7
0010
0000
0000
0000
,  // measure 8
0100
0000
0010
1001
,  // measure 9
1000
0000
0001
0000
,  // measure 10
0010
0000
0001
0000
,  // measure 11
0100
0000
0010
0000
,  // measure 12
1000
0000
0100
0100
,  // measure 13
1000
0000
0001
0000
,  // measure 14
0100
0000
0001
0000
,  // measure 15
0010
0000
0100
0000
,  // measure 16
0010
0000
0001
1000
,  // measure 17
1001
0000
0001
0000
,  // measure 18
1000
0000
0010
0000
,  // measure 19
1000
0000
0100
0000
,  // measure 20
0010
0000
0001
0010
,  // measure 21
0001
0000
1000
0000
,  // measure 22
0010
0000
1000
0000
,  // measure 23
0100
0000
1000
0000
,  // measure 24
0001
0000
1000
0000
,  // measure 25
0000
0010
0000
0000
0000
0010
0000
0000
,  // measure 26
0000
0010
0000
0000
0000
0010
0000
0000
,  // measure 27
0000
0100
0000
0000
0000
0100
0000
0000
,  // measure 28
0000
0100
0000
0000
0000
0100
0000
0000
,  // measure 29
0000
0001
0000
0000
0000
1000
0000
0000
,  // measure 30
0000
0010
0000
0000
0000
1000
0000
0000
,  // measure 31
0000
0100
0000
0000
0000
0010
0000
0000
,  // measure 32
0100
1000
0010
0100
,  // measure 33
1001
0000
0000
0000
,  // measure 34
0000
0000
0000
0000
,  // measure 35
1001
0000
0010
0000
,  // measure 36
0100
0000
0010
0100
,  // measure 37
0001
0000
0000
0000
,  // measure 38
1000
0000
0000
0000
,  // measure 39
0100
0000
0000
0000
,  // measure 40
0010
0000
0100
0000
,  // measure 41
1000
0000
0000
0000
,  // measure 42
0010
0000
0100
0000
,  // measure 43
0001
0000
0000
0000
,  // measure 44
1000
0100
0010
0001
,  // measure 45
1001
0000
0000
0001
,  // measure 46
0010
0000
0000
0001
,  // measure 47
1000
0000
0000
0001
,  // measure 48
0100
0000
0010
0000
,  // measure 49
1001
0000
0000
1000
,  // measure 50
0010
0000
1000
0000
,  // measure 51
0001
0000
0000
0000
,  // measure 52
0001
0010
0100
1000
,  // measure 53
0001
0000
0001
0000
,  // measure 54
0001
0000
0001
0000
,  // measure 55
1000
0000
1000
0000
,  // measure 56
0010
0000
0010
0000
,  // measure 57
0100
0000
0010
1000
,  // measure 58
0001
0000
0010
0100
,  // measure 59
1000
0000
0100
1000
,  // measure 60
0010
0000
0100
0001
,  // measure 61
0011
0000
0010
0000
,  // measure 62
0110
0000
0100
0000
,  // measure 63
1100
0000
0011
0000
,  // measure 64
0101
0000
1010
0000
,  // measure 65
1001
0000
0000
0000
;

//---------------dance-single - ----------------
#NOTEDATA:;
#CHARTNAME:;
#STEPSTYPE:dance-single;
#DESCRIPTION:;
#CHARTSTYLE:;
#DIFFICULTY:Easy;
#METER:8;
#RADARVALUES:0.358665,0.544840,0.282890,0.203328,0.000000,284.000000,252.000000,32.000000,23.000000,0.000000,0.000000,0.000000,0.000000,0.000000,0.358665,0.544840,0.282890,0.203328,0.000000,284.000000,252.000000,32.000000,23.000000,0.000000,0.000000,0.000000,0.000000,0.000000;
#CREDIT:Pandemonium X;
#NOTES:
// measure 0
0000
0000
0000
0000
,  // measure 1
0000
0000
0000
0000
,  // measure 2
0000
0000
0000
0000
,  // measure 3
0000
0000
0000
0000
,  // measure 4
0000
0000
0000
0000
,  // measure 5
0001
0001
0000
0000
0000
0000
0000
0000
,  // measure 6
0000
0000
0000
0000
,  // measure 7
1000
1000
0000
0000
0000
0000
0000
0000
,  // measure 8
0010
0100
0010
1001
,  // measure 9
0001
0100
0010
1000
,  // measure 10
0100
0001
0100
1000
,  // measure 11
0010
1000
0001
0010
,  // measure 12
0100
0010
0001
0100
,  // measure 13
0010
1001
0100
1001
,  // measure 14
1000
0011
1000
0011
,  // measure 15
0001
1100
0001
1100
,  // measure 16
0101
0001
1010
0101
,  // measure 17
0000
1000
0001
0000
0010
0000
0100
1000
,  // measure 18
0000
0100
1000
0000
0010
0000
0100
0001
,  // measure 19
0000
0010
0100
0000
0010
0000
0001
1000
,  // measure 20
0000
0001
0100
0000
0001
0000
1000
0100
,  // measure 21
0000
0010
0100
0000
1000
0000
0010
0100
,  // measure 22
0000
0010
1000
0000
0001
0000
0010
0100
,  // measure 23
0000
0010
0001
0000
0100
0000
0010
1000
,  // measure 24
0000
0001
0010
0000
0100
0000
0010
0001
,  // measure 25
0000
1000
0001
1000
0000
0001
1000
0001
,  // measure 26
0000
1000
0001
1000
0000
0001
1001
0000
,  // measure 27
0000
1000
0010
1000
0000
0010
1000
0010
,  // measure 28
0000
1000
0010
1000
0000
0010
1010
0000
,  // measure 29
0000
0001
0100
0001
0000
0100
0001
0100
,  // measure 30
0000
0001
0100
0001
0000
0100
0101
0000
,  // measure 31
0000
0001
0010
0001
0000
0001
0010
0001
,  // measure 32
0010
0100
1000
0001
,  // measure 33
1001
0001
0100
0010
,  // measure 34
1000
0000
0100
0000
0010
0000
0001
0010
,  // measure 35
1100
0100
1100
1000
,  // measure 36
0101
0000
0110
0000
1001
0110
1010
0101
,  // measure 37
0002
0010
0010
0013
,  // measure 38
0200
1000
1000
1300
,  // measure 39
0020
1000
1000
1030
,  // measure 40
0002
0013
0002
1003
,  // measure 41
0002
0100
0103
0020
,  // measure 42
2030
0100
3020
0130
,  // measure 43
0020
1000
1000
1030
,  // measure 44
2000
3200
0320
0032
,  // measure 45
2003
0000
0000
0000
0000
0000
3010
1000
,  // measure 46
0002
0000
0000
0000
0000
0000
0013
0100
,  // measure 47
2000
0000
0000
0000
0000
0000
3100
1000
,  // measure 48
0020
0000
0230
0000
,  // measure 49
0302
0000
0000
0000
0000
0000
0013
0001
,  // measure 50
0200
0000
0320
0000
,  // measure 51
2030
0000
0000
0000
,  // measure 52
3001
1000
0010
0100
,  // measure 53
0101
0001
0101
0100
,  // measure 54
0101
0001
0101
1010
,  // measure 55
1100
0100
1100
1000
,  // measure 56
1100
0100
1100
0011
,  // measure 57
1000
0000
0001
0000
0100
0001
0100
0000
,  // measure 58
0001
0000
1000
0000
0100
1000
0100
0000
,  // measure 59
1000
0000
0010
0000
0100
0010
0100
0000
,  // measure 60
0010
0000
1000
0000
0001
1000
0001
0000
,  // measure 61
1000
0000
0100
0000
0010
0001
0010
0000
,  // measure 62
0001
0000
0010
0000
0100
1000
0100
0000
,  // measure 63
1000
0000
0010
0000
0100
0100
0001
0000
,  // measure 64
0010
0000
0100
0000
0010
0010
0001
1000
;

//---------------dance-single - ----------------
#NOTEDATA:;
#CHARTNAME:;
#STEPSTYPE:dance-single;
#DESCRIPTION:;
#CHARTSTYLE:;
#DIFFICULTY:Medium;
#METER:12;
#RADARVALUES:0.502636,0.769992,0.388974,0.088403,0.123765,398.000000,354.000000,44.000000,10.000000,0.000000,0.000000,0.000000,0.000000,0.000000,0.502636,0.769992,0.388974,0.088403,0.123765,398.000000,354.000000,44.000000,10.000000,0.000000,0.000000,0.000000,0.000000,0.000000;
#CREDIT:Pandemonium X;
#NOTES:
// measure 0
0000
0000
0000
0000
,  // measure 1
1000
1001
0000
0000
0000
0000
0000
0000
,  // measure 2
0000
0000
0000
0000
,  // measure 3
0001
1001
0000
0000
0000
0000
0000
0000
,  // measure 4
0000
0000
0000
0000
,  // measure 5
0100
0110
0000
0000
0000
0000
0000
0000
,  // measure 6
0000
0000
0000
0000
,  // measure 7
0100
0110
0000
0000
0000
0000
0000
1000
,  // measure 8
1010
0000
0000
0010
0000
0000
0010
0000
1000
0000
0001
0000
1000
0000
0100
0000
,  // measure 9
0010
0100
1000
0001
,  // measure 10
0100
0000
0001
0000
0010
0000
0100
0010
,  // measure 11
0001
0010
1000
0010
,  // measure 12
0001
0000
0100
0000
1000
0100
0001
1000
,  // measure 13
0100
0000
1100
0000
1000
0010
0100
0000
,  // measure 14
0001
0000
0011
0000
0010
0001
0100
0000
,  // measure 15
0010
0000
1001
0000
0001
1000
0100
0000
,  // measure 16
1000
0100
0001
0100
1000
0010
0001
0010
,  // measure 17
1000
0001
0010
0001
1000
0010
1000
0001
,  // measure 18
0000
1000
0001
0010
0001
1000
0010
1000
,  // measure 19
0000
0100
0010
0001
1000
0100
0010
0100
,  // measure 20
0000
0010
0100
1000
0001
0100
0010
1000
,  // measure 21
0000
0001
0100
0010
1000
0001
0010
0010
,  // measure 22
0000
0100
0010
0001
1000
0100
0010
0010
,  // measure 23
0000
0100
1000
0010
0100
0001
1000
1000
,  // measure 24
0000
0001
0010
0100
0010
0001
1000
1000
,  // measure 25
0000
0001
0100
1000
0000
1000
0100
0001
,  // measure 26
0000
0001
0100
1000
0000
1000
0100
0010
,  // measure 27
0000
1000
0010
0001
0000
0001
0010
1000
,  // measure 28
0000
0010
0100
0001
0000
0010
0100
1000
,  // measure 29
0000
1000
0100
0001
0000
0001
0100
1000
,  // measure 30
0000
1000
0100
0001
0000
0001
0100
1000
,  // measure 31
0000
1000
0010
0001
0000
0001
0010
1000
,  // measure 32
0001
1000
0001
1000
0010
0100
0010
0100
,  // measure 33
0001
0010
1000
0010
,  // measure 34
0001
0000
0000
0000
0000
0000
0000
0000
0100
0000
0000
0000
0000
0000
0000
0000
0010
0000
0000
0000
0000
0000
0000
0000
0001
0000
1001
0000
0000
0101
0000
0000
,  // measure 35
0110
0000
0000
0000
0000
0000
0000
0000
0000
0000
0000
0000
0000
0000
0000
0000
0110
0000
0000
1010
0000
0000
1001
0000
0000
0000
0000
0000
0000
0000
0000
0000
,  // measure 36
1100
0000
0000
0110
0000
0000
0011
0000
0000
0000
0000
0000
0000
0000
0000
0000
0011
0000
0000
0110
0000
0000
1100
0000
0100
0000
0000
0000
1000
0000
0000
0000
,  // measure 37
0001
0000
1000
0010
0110
0000
0100
0001
,  // measure 38
0011
0000
0010
0100
0110
0000
1100
0000
,  // measure 39
1001
0000
0001
0100
0101
0000
0100
0010
,  // measure 40
0110
0000
0010
1000
1010
0000
0011
0000
,  // measure 41
0110
0000
0100
0010
0011
0000
0001
0100
,  // measure 42
0110
0000
0010
1000
1010
0000
0101
0000
,  // measure 43
1001
0000
0001
1000
1100
0000
1000
0010
,  // measure 44
0110
1001
1010
1001
,  // measure 45
1200
0000
0001
0000
1300
0000
1000
0100
,  // measure 46
0020
0000
0001
0000
1030
0000
0001
0100
,  // measure 47
2000
0000
0100
0000
3100
0000
0100
0010
,  // measure 48
2000
0000
3001
0010
0200
0000
0310
0001
,  // measure 49
2000
0000
0100
0000
0010
0000
3001
0010
,  // measure 50
2000
0000
3010
0001
0200
0000
0310
1000
,  // measure 51
0002
0100
0010
0100
,  // measure 52
1003
0000
0000
1100
0000
0000
0101
0000
0010
0100
0000
0100
0010
0000
1000
0000
,  // measure 53
1001
0000
0000
1000
0100
0000
0000
0000
0100
0000
0000
0100
0010
0000
0000
0000
,  // measure 54
0010
0000
0000
0010
0001
0000
0000
0000
0001
0000
0000
0001
1000
0000
0010
0000
,  // measure 55
0100
0000
0000
0010
1000
0000
0000
0000
0100
0000
0000
0001
0010
0000
0000
0000
,  // measure 56
0100
0000
0000
0010
0001
0000
0000
0000
1000
0000
0000
0001
0100
0000
0000
0000
,  // measure 57
0001
0000
1000
0000
0010
1000
0001
0010
,  // measure 58
0100
0000
0010
0000
0001
0100
1000
0100
,  // measure 59
0001
0000
1000
0000
0010
1000
0001
0010
,  // measure 60
0100
0000
0010
0000
0001
0010
1000
0010
,  // measure 61
0001
0000
0100
0000
0010
1000
0001
0010
,  // measure 62
0100
0000
0010
0000
0001
1000
0010
0100
,  // measure 63
0001
0100
0000
0010
0000
1000
0000
0001
0010
0000
0100
0000
0010
0000
0001
0000
,  // measure 64
1000
0100
0000
1000
0000
0010
0000
0100
0001
0000
0010
0000
0100
0000
2000
0000
,  // measure 65
0000
0001
0000
0000
,  // measure 66
0000
0000
0000
0000
,  // measure 67
3000
0000
0000
0000
;

//---------------dance-single - ----------------
#NOTEDATA:;
#CHARTNAME:;
#STEPSTYPE:dance-single;
#DESCRIPTION:;
#CHARTSTYLE:;
#DIFFICULTY:Hard;
#METER:16;
#RADARVALUES:0.737536,1.036528,0.309411,0.106084,0.848671,584.000000,549.000000,35.000000,12.000000,0.000000,0.000000,0.000000,0.000000,0.000000,0.737536,1.036528,0.309411,0.106084,0.848671,584.000000,549.000000,35.000000,12.000000,0.000000,0.000000,0.000000,0.000000,0.000000;
#CREDIT:Pandemonium X;
#NOTES:
// measure 0
0000
0000
0000
0000
,  // measure 1
1001
1001
0000
0000
0000
0000
0000
0000
,  // measure 2
0000
0000
0000
0000
,  // measure 3
0110
0110
0000
0000
0000
0000
0000
0000
,  // measure 4
0000
0000
0000
0000
0000
0000
0000
0000
0000
0000
0000
0000
0100
0010
0100
0000
,  // measure 5
1001
1001
1000
0000
0100
0000
1000
0000
,  // measure 6
0010
1000
0001
0010
,  // measure 7
1001
1001
0001
0000
0010
0000
0001
1001
,  // measure 8
1100
0000
0000
0011
0000
0000
1100
0000
1000
0010
1000
0010
0100
0000
0101
0000
,  // measure 9
0011
0000
0000
0001
0010
0000
0000
0010
0100
0000
0000
0100
1000
0000
0000
1000
,  // measure 10
0001
0000
0000
0100
0010
0000
0000
1000
0010
0000
0000
0100
0001
0000
0000
1000
,  // measure 11
0100
0000
0000
0100
0010
0000
0000
0010
0001
0000
0000
0001
1000
0000
0000
0001
,  // measure 12
0010
0000
0000
0100
0010
0000
0000
0001
0100
0000
0010
0000
1000
0001
1000
0001
,  // measure 13
1000
0100
0011
0000
0001
0100
1010
0000
,  // measure 14
1000
0100
0011
0000
0001
0100
1010
0000
,  // measure 15
1000
0010
0101
0000
0001
0010
1100
0000
,  // measure 16
1000
0010
1000
0010
1000
0000
0010
0000
0100
0001
0100
0001
0010
0001
0010
0001
,  // measure 17
1000
0000
0001
1000
0010
0000
0010
1000
0001
0000
0001
1000
0010
0000
0010
0000
,  // measure 18
0000
0000
0100
0001
0010
0000
0010
0001
0100
0000
0100
0001
1000
0000
1000
0000
,  // measure 19
0000
0000
0100
0010
0001
0000
0001
0010
0100
0000
0100
0010
0001
0000
0001
0000
,  // measure 20
0000
0000
1000
0010
0100
0000
0100
0010
1000
0000
1000
0010
0100
0000
0100
0000
,  // measure 21
0000
0000
0010
1000
0001
0000
0001
1000
0010
0000
0010
1000
0001
0000
0001
0000
,  // measure 22
0000
0000
1000
0100
0010
0000
0010
0100
1000
0000
1000
0100
0010
0000
0010
0000
,  // measure 23
0000
0000
0100
1000
0010
0000
0010
1000
0100
0000
0100
1000
0010
0000
0010
0000
,  // measure 24
0000
0000
0100
0001
0010
0000
0010
0001
0100
0000
0100
0001
0010
0000
0010
0000
,  // measure 25
0000
0000
0100
1000
0100
0000
1000
0000
0000
0000
0100
0010
0100
0000
0010
0000
,  // measure 26
0000
0000
0010
0001
0010
0000
0001
0000
0000
0000
1000
0010
1000
0000
0010
0000
,  // measure 27
0000
0000
0100
0001
0100
0000
0001
0000
0000
0000
0100
0010
0100
0000
0010
0000
,  // measure 28
0000
0000
1000
0010
1000
0000
0010
0000
0000
0000
1000
0100
1000
0000
0100
0000
,  // measure 29
0000
0000
0010
0001
0010
0000
0100
0000
0000
0000
1000
0010
1000
0000
0001
0000
,  // measure 30
0000
0000
0100
0010
0100
0000
0001
0000
0000
0000
0010
0100
0010
0000
0001
0000
,  // measure 31
0000
0000
0001
1000
0001
0000
0100
0000
0000
0000
0010
1000
0010
0000
1000
0000
,  // measure 32
0001
0010
1000
0010
0001
0100
1000
0100
,  // measure 33
0010
0000
0000
0010
0000
0000
0010
0000
0100
0000
0000
0100
0000
0000
0100
0000
0001
0000
0000
0001
0000
0000
0001
0000
1000
0000
0000
1000
0000
0000
1000
0000
,  // measure 34
0010
0000
0000
0010
0000
0000
0010
0000
0100
0000
0000
0100
0000
0000
0100
0000
0001
0000
0000
0001
0000
0000
0001
0000
1000
0000
1100
0000
0000
0011
0000
0000
,  // measure 35
1001
0000
0000
0000
0000
0000
0000
0000
0000
0000
0000
0000
0000
0000
0001
0100
0010
0000
0000
1010
0000
0000
0101
0000
0000
0000
0000
0000
0000
0001
0010
0000
,  // measure 36
0110
0000
0000
1100
0000
1000
0020
0000
0000
0000
0000
0000
0000
0000
0130
0001
0010
0100
0000
0010
0001
1000
0000
0001
1000
0100
0010
0001
0010
0001
0100
0010
,  // measure 37
1000
0000
0000
0001
0100
0000
0001
0000
0010
0000
0000
0100
0010
0000
0001
0000
,  // measure 38
1000
0000
0000
0100
1000
0000
0010
0000
0100
0000
0000
0010
1000
0000
0001
0000
,  // measure 39
0010
0000
0000
0100
0010
0000
0001
0000
0010
0000
0000
0100
0010
0000
0001
0000
,  // measure 40
1000
0000
0000
0001
0100
0000
0001
0000
1000
0000
0000
0100
0010
0000
0100
0000
,  // measure 41
1000
0000
0000
0001
1000
0000
0010
0000
1000
0000
0000
0001
0100
0000
0001
0000
,  // measure 42
0010
0000
0000
0100
0010
0000
0001
0000
1000
0000
0000
0100
1000
0000
0010
0000
,  // measure 43
0100
0000
0000
0010
1000
0000
0001
0000
0010
0000
0000
0100
0010
0000
0001
0000
,  // measure 44
1000
0000
0001
0100
0010
0000
0100
0010
1000
0000
0100
0010
0001
0000
0010
0100
,  // measure 45
2000
0000
0000
0000
0100
0000
0000
0000
0010
0000
0000
0000
3001
0010
1000
0010
,  // measure 46
0002
0000
0000
0000
0100
0000
0000
0000
0010
0000
0000
0000
1003
0100
0001
0100
,  // measure 47
2000
0000
0000
0000
0010
0000
0000
0000
0001
0000
0000
0000
3100
0010
0001
0100
,  // measure 48
0010
0000
0000
0010
0000
0000
0010
0000
0100
0000
0000
0100
0010
0100
0000
0100
,  // measure 49
0002
0000
0000
0013
0000
0000
0100
0000
2000
0000
0000
3010
0100
0001
0100
0001
,  // measure 50
0020
0000
0000
0130
0000
0000
1000
0000
0200
0000
0000
0310
0000
0000
0100
1000
,  // measure 51
0020
0000
0000
1030
0000
0000
0001
0000
0020
0000
0000
0130
0000
0000
0010
0000
,  // measure 52
0001
0000
0010
0000
0100
1000
0100
0010
0100
1000
0010
0100
0001
0010
0001
1000
,  // measure 53
0100
0000
1000
0001
1000
0000
1000
0010
1000
0000
1000
0001
1000
0000
1000
0100
,  // measure 54
1000
0000
1000
0001
1000
0000
1000
0010
1000
0000
1000
0001
1000
0000
1000
0010
,  // measure 55
1000
0000
0001
0100
0001
0000
0001
1000
0001
0000
0001
0010
0001
0000
0001
1000
,  // measure 56
0001
0000
1000
0010
1000
0000
1000
0010
1000
0000
1000
0100
1000
0000
1000
0100
,  // measure 57
0010
0001
0000
0001
0000
0010
0000
0100
0010
0000
0001
0000
1000
0000
0010
0000
,  // measure 58
0100
0001
0000
0010
0000
0100
0000
0010
0001
0000
1000
0000
0010
0000
1000
0000
,  // measure 59
0100
1000
0000
0100
0000
0010
0000
0100
1000
0000
0001
0000
0100
0000
0001
0000
,  // measure 60
0010
0001
0000
0100
0000
0010
0000
1000
0001
0000
0010
0000
0100
0000
0010
0000
,  // measure 61
0001
0100
0000
1000
0000
0100
0000
0010
1000
0000
0001
0000
0010
0000
0001
0000
,  // measure 62
1000
0100
0000
0001
0000
0100
0000
1000
0010
0000
0100
0000
0001
0000
0010
0000
,  // measure 63
0100
1100
0000
1001
0000
0011
0000
0010
0110
0000
1000
0000
0100
0000
0010
0000
,  // measure 64
0001
0011
0000
1010
0000
0011
0000
0001
0101
0000
0100
0000
0001
0000
0010
0000
,  // measure 65
0200
0020
0000
0000
,  // measure 66
0000
0000
0000
0000
,  // measure 67
0330
0000
0000
0000
;

//---------------dance-double - ----------------
#NOTEDATA:;
#CHARTNAME:;
#STEPSTYPE:dance-double;
#DESCRIPTION:;
#CHARTSTYLE:;
#DIFFICULTY:Easy;
#METER:9;
#RADARVALUES:0.364979,0.576831,0.203328,0.088403,0.017681,289.000000,266.000000,23.000000,10.000000,0.000000,0.000000,0.000000,0.000000,0.000000,0.364979,0.576831,0.203328,0.088403,0.017681,289.000000,266.000000,23.000000,10.000000,0.000000,0.000000,0.000000,0.000000,0.000000;
#CREDIT:Pandemonium X;
#NOTES:
00000000
00000000
00000000
00000000
,
10000000
10000000
00000000
00000000
00000000
00000000
00000000
00000000
,
00000000
00000000
00000000
00000000
,
00010000
00010000
00000000
00000000
00000000
00000000
00000000
00000000
,
00000000
00000000
00000000
00000000
00000000
00000000
00100000
00001000
,
00010000
00010000
00000000
00000000
00000000
00000000
00000000
00000000
,
00000000
00000000
00000000
00000000
,
00000100
00000100
00000000
00000000
00000000
00000000
00000000
00001000
,
00001000
00000001
00000100
00001001
,
00000001
00000100
00000010
00001000
,
00000100
00010000
00001000
01000000
,
00100000
10000000
01000000
00010000
,
01000000
10000000
00010000
01000000
,
00010000
00101000
00001000
00010000
,
00000100
00001100
00001000
00000010
,
00000100
00001001
00000001
00000010
,
00000100
00001100
00000100
00010100
,
00000000
00000100
00000000
00010000
00000000
00000100
00010000
00001000
,
00000000
00010000
00000000
00001000
00000000
01000000
00100000
10000000
,
00000000
01000000
00000000
00010000
00000000
01000000
10000000
00100000
,
00000000
01000000
00000000
00001000
00000000
00010000
00000100
00001000
,
00000000
00000010
00000000
00000100
00000000
00000001
00001000
00000100
,
00000000
00000010
00000000
00000001
00000000
00000010
00000100
00001000
,
00000000
00000100
00000000
00010000
00000000
00001000
01000000
00100000
,
00000000
10000000
00000000
01000000
00000000
00010000
01000000
10000000
,
00000000
01000000
10000000
01000000
00000000
10000000
01000000
10000000
,
00000000
01000000
10000000
01000000
00000000
10000000
10010000
00000000
,
00000000
00100000
00010000
00100000
00000000
00010000
00100000
00010000
,
00000000
00100000
00010000
00100000
00000000
00100000
00101000
00000000
,
00000000
00010000
00001000
00010000
00000000
00001000
00010000
00001000
,
00000000
00010000
00001000
00010000
00000000
00001000
00011000
00000000
,
00000000
00000100
00001000
00000100
00000000
00000100
00001000
00000100
,
00001000
00000100
00000010
00000001
,
00001100
00000100
00010000
00001000
,
01000000
00100000
10000000
00010000
,
00101000
00011000
00010100
00001100
,
00000110
00000000
00000011
00000000
00000101
00000000
00001010
00000101
,
00001001
00001000
00001000
00000001
,
00000100
00000100
00000010
00001000
,
00000100
00000100
00010000
00001000
,
01000000
00000000
00100000
00000000
10000000
00000000
01000000
00100000
,
00010000
00000000
00100000
00000000
00001000
00000000
00010000
00000100
,
00001000
00000010
00000100
00000001
,
00000010
00000100
00001000
00000100
,
00010000
00001000
01000000
00100000
,
10200000
00000000
00000000
00000000
00000000
00000000
10300000
01000000
,
00200000
00000000
00000000
00000000
00300000
00000000
00100000
00010000
,
00002000
00000000
00000000
00000000
00003000
00000000
00001000
00010000
,
00000200
00000000
00020000
00030300
,
00021000
00000000
00000000
00000000
00000000
00000000
00031000
01000000
,
00200000
00000000
20300000
00000000
,
00020000
00000000
00000000
30030000
,
10000000
01000000
00100000
00010000
,
00011000
00010000
00000100
00001000
,
00000010
00000100
00000001
00000010
,
00000100
00000010
00000001
00000100
,
00000010
00001000
00000100
00010000
,
00001000
00000000
00100000
00000000
00010000
10000000
00010000
00000000
,
10000000
00000000
01000000
00000000
00100000
00010000
01000000
00100000
,
01000000
00000000
00100000
00000000
00001000
00010000
00001000
00000000
,
00010000
00000000
00000100
00000000
00001000
00000010
00001000
00000001
,
00000100
00000000
00000001
00000000
00000010
00000100
00001000
00000100
,
00001000
00000000
00000100
00000000
00010000
00001000
00010000
00000100
,
00010000
00000000
00000000
00001000
00000000
00001000
00000000
00000000
00010000
00000000
00001000
00000000
01000000
00000000
00100000
00000000
,
10000000
00000000
00000000
00010000
00000000
00100000
00000000
00000000
01000000
00000000
10000000
00000000
00100000
00000000
02000000
00000000
,
00000000
03000000
00000000
00000000
;

//---------------dance-double - ----------------
#NOTEDATA:;
#CHARTNAME:;
#STEPSTYPE:dance-double;
#DESCRIPTION:;
#CHARTSTYLE:;
#DIFFICULTY:Medium;
#METER:12;
#RADARVALUES:0.491270,0.562687,0.221008,0.247529,0.278470,389.000000,364.000000,25.000000,28.000000,0.000000,0.000000,0.000000,0.000000,0.000000,0.491270,0.562687,0.221008,0.247529,0.278470,389.000000,364.000000,25.000000,28.000000,0.000000,0.000000,0.000000,0.000000,0.000000;
#CREDIT:Pandemonium X;
#NOTES:
00000000
00000000
00000000
00000000
,
10010000
10010000
00000000
00000000
00000000
00000000
00000000
00000000
,
00000000
00000000
00000000
00000000
,
00101000
00101000
00000000
00000000
00000000
00000000
00000000
00000000
,
00000000
00000000
00000000
00000000
00000000
00000000
00010000
00001000
,
00011000
00011000
00000000
00000000
00000000
00000000
00000000
00000000
,
00000000
00000000
00000000
00000000
00000000
00000000
00000000
00000010
,
00000110
00000110
00000000
00000000
00000000
00000000
00000000
00001000
,
00000001
00000000
00000000
00000100
00000000
00000000
00000010
00000000
00001000
00000000
00000100
00000000
00010100
00000000
00000000
00000000
,
00011000
00000000
00000000
00001000
01000000
00000000
00000000
01000000
00100000
00000000
10000000
00000000
00010000
00000000
00000000
00000000
,
00100000
00000000
00000000
01000000
10000000
00000000
00000000
10000000
00010000
00000000
00100000
00000000
00001000
00000000
00000000
00000000
,
00010000
00000000
00000000
00000100
00001000
00000000
00000000
00001000
00000010
00000000
00000100
00000000
00000001
00000000
00000000
00000000
,
00000010
00000000
00000000
00000100
00000010
00000000
00000000
00000010
00000001
00000000
00000100
00000000
00000001
00000000
00001000
00000000
,
00000010
00001000
00000100
00000000
00010000
00001000
01000000
00000000
,
00100000
10000000
01000000
00000000
00010000
01000000
10000000
00000000
,
01000000
00100000
00001000
00000000
00010000
00000100
00001000
00000000
,
00000010
00000100
00000010
00000000
00000100
00000000
00000100
00000000
00000010
00001000
00000010
00000000
00000100
00000001
00000100
00000000
,
00000000
00000000
00000001
00000010
00000000
00000000
00000100
00001000
00000000
00000000
00010000
00001000
00010000
00000000
00001000
00000000
,
00000000
00000000
00001000
01000000
00000000
00000000
01000000
00100000
00000000
00000000
00100000
10000000
00100000
00000000
10000000
00000000
,
00000000
00000000
10000000
01000000
00000000
00000000
01000000
00100000
00000000
00000000
00100000
00010000
00100000
00000000
00010000
00000000
,
00000000
00000000
00100000
00001000
00000000
00000000
00001000
00010000
00000000
00000000
00010000
00000100
00010000
00000000
00000100
00000000
,
00000000
00001000
00000010
00000001
00000010
00001000
00000001
00000001
,
00000000
00001000
00000100
00000001
00000100
00001000
00000100
00000100
,
00000000
00010000
00001000
01000000
10000000
01000000
00010000
00010000
,
00000000
10000000
01000000
00010000
01000000
10000000
00100000
00100000
,
00000000
01000000
01000000
00010000
00000000
00100000
00100000
00001000
,
00000000
00010000
00010000
00000010
00000000
00000010
00010000
00010000
,
00000000
00001000
00001000
01000000
00000000
00100000
00100000
10000000
,
00000000
01000000
01000000
00100000
00000000
01000000
01000000
10000000
,
00000000
00010000
00010000
00100000
00000000
00001000
00001000
00010000
,
00000000
00000100
00000100
00001000
00000000
00000010
00000010
00000100
,
00000000
00000001
00000001
00000010
00000000
00000100
00000010
00000001
,
00000100
00001000
00000100
00000010
00010000
00001000
01000000
00100000
,
10100000
10000000
01000000
00100000
,
00010000
00001000
00000100
00000010
,
00000011
00000000
00000000
00000000
00000000
00000000
00000000
00000000
00000000
00000000
00000000
00000000
00000000
00000000
00000000
00000000
00000001
00000000
00000000
00000100
00000000
00000000
00000010
00000000
00000000
00000000
00000000
00000000
00000000
00000000
00000000
00000000
,
00000010
00000000
00000000
00010000
00000000
00000000
00011000
00000000
00000000
00000000
00000000
00000000
00000000
00000000
00000000
00000000
00100000
00010000
00000000
00000000
00100000
01000000
00000000
10000000
01000000
00000000
00100000
00000000
00001000
00000000
00010000
00000000
,
00000200
00010000
00001000
00010300
,
00001002
00000010
00000100
00001003
,
00002100
00000010
00000100
00003010
,
00001020
00010030
00020100
00031000
,
02001000
00000000
00010000
00000000
00001000
00000000
03010000
00100000
,
02100000
13000000
10200000
01300000
,
02010000
00001000
00010000
00001000
,
03010000
00100000
00001000
00010000
00000100
00001000
00000100
00000010
,
00000012
00000000
00000000
00000000
00000000
00000000
00001003
00000010
,
00020000
00000000
00000000
00000000
00000000
00000000
00031000
00100000
,
00002000
00000000
00000000
00000000
00000000
00000000
00013000
00100000
,
02000000
00000000
23000000
30010000
,
00120000
00000000
00000000
00000000
00000000
00000000
00130000
00001000
,
00020000
00000000
00000000
00000000
00000000
00000000
00000000
00000000
00030020
00000000
00000000
00000000
00000000
00000000
00000130
00000001
,
00002000
00000000
00000000
00000000
,
00003010
00000000
00000000
00011000
00000000
00000000
00100000
00000000
01000000
10000000
00000000
10000000
00100000
00000000
01000000
00000000
,
01010000
00000000
00000000
10000000
00100000
00000000
00000000
01000000
00010000
00000000
00000000
10000000
00100000
00000000
01000000
00000000
,
00010000
00000000
00000000
00010000
00001000
00000000
00000000
00001000
00010000
00000000
00000000
00010000
00000100
00000000
00001000
00000000
,
00000010
00000000
00000000
00000100
00000001
00000000
00000000
00000001
00000100
00000000
00000000
00000100
00000001
00000000
00000010
00000000
,
00000100
00000000
00000000
00000100
00001000
00000000
00000000
00001000
00000100
00000000
00000000
00000100
00001000
00000000
00000100
00000000
,
00000020
00000000
00000032
00000000
00000103
00000010
00001000
00000100
,
00020000
00000000
00032000
00000000
01003000
10000000
01000000
00010000
,
20000000
00000000
32000000
00000000
03100000
00001000
00010000
00000100
,
00002000
00000000
00003020
00000000
00000031
00000010
00001000
00000001
,
00001000
00000100
00000000
00010000
00000000
00001000
00000000
00000000
00010000
00000000
00001000
00000000
01000000
00000000
00000000
00000000
,
00100000
10000000
00000000
01000000
00000000
00100000
00000000
00000000
00100000
00000000
00001000
00000000
00010000
00000000
00000000
00000000
,
00001000
00010000
00000000
00000100
00000000
00001000
00000000
00000010
00000100
00000000
00000001
00000000
00000010
00000000
00000100
00000000
,
00001000
00000100
00000000
00010000
00000000
00001000
00000000
01000000
00100000
00000000
10000000
00000000
00010000
00000000
00200000
00000000
,
00000000
00002000
00000000
00000000
,
00000000
00000000
00000000
00000000
,
00303000
00000000
00000000
00000000
;

//---------------dance-double - ----------------
#NOTEDATA:;
#CHARTNAME:;
#STEPSTYPE:dance-double;
#DESCRIPTION:;
#CHARTSTYLE:;
#DIFFICULTY:Hard;
#METER:16;
#RADARVALUES:0.775423,1.038296,0.733747,0.114924,0.835411,614.000000,531.000000,83.000000,13.000000,0.000000,0.000000,0.000000,0.000000,0.000000,0.775423,1.038296,0.733747,0.114924,0.835411,614.000000,531.000000,83.000000,13.000000,0.000000,0.000000,0.000000,0.000000,0.000000;
#CREDIT:Pandemonium X;
#NOTES:
00000000
00000000
00000000
00000000
,
10010000
10010000
00000000
00000000
00000000
00000000
00000000
00000000
,
00000000
00000000
00000000
00000000
,
00011000
00011000
00000000
00000000
00000000
00000000
00000000
00000000
,
00000000
00000000
00000000
00000000
00000000
00000000
00000000
00000000
00000000
00000000
00000000
00000000
00000001
00001000
00000001
00000000
,
00001001
00001001
00000001
00000000
00000100
00000000
00000010
00000000
,
00001000
00000000
00000100
00000000
00010000
00000000
00001000
00011000
,
00101000
00011000
00001000
00000000
01000000
00000000
00100000
10100000
,
01010000
00000000
00000000
00110000
00000000
00000000
00101000
00000000
00001000
00010000
00000100
00010000
00001000
00010000
00000100
00010000
,
00001000
00000000
00000000
01000000
00100000
00000000
00000000
10000000
01000000
00000000
00000000
01000000
00100000
00000000
00000000
00100000
,
00010000
00000000
00000000
00010000
01000000
00000000
00000000
01000000
00001000
00000000
00000000
00001000
00010000
00000000
00000100
00000000
,
00001100
00000000
00000000
00000100
00001000
00000000
00000000
00001000
00000010
00000000
00000000
00000010
00000100
00000000
00000000
00000100
,
00000001
00000000
00000000
00000001
00001000
00000000
00000000
00001000
00000100
00000000
00000000
00000100
00010000
00000000
00001000
00000000
,
01000000
00100000
10100000
00000000
10000000
01000000
00110000
00000000
,
00100000
00001000
00011000
00000000
00010000
00000100
00001010
00000000
,
00000100
00000001
00000011
00000000
00000100
00000010
00001001
00000101
,
00000001
00001000
00000100
00001000
00000010
00000000
00000110
00000000
00000001
00000100
00000010
00001000
00000100
00010000
00001000
01000000
,
00100000
00000000
01000000
00100000
10000000
00000000
10000000
00010000
00100000
00000000
00100000
00001000
00010000
00000000
00011000
00000000
,
00000000
00000000
00010000
00000100
00001000
00000000
00001000
00000010
00000100
00000000
00000100
00000001
00000010
00000000
00000110
00000000
,
00000000
00000000
00000100
00000010
00000001
00000000
00000001
00000010
00000100
00000000
00000100
00001000
00000010
00000000
00000101
00000000
,
00000000
00000000
00000001
00000100
00000010
00000000
00000010
00010000
00001000
00000000
00001000
00100000
00010000
00000000
11000000
00000000
,
00000000
00000000
10000000
01000000
00010000
00000000
00010000
01000000
10000000
00000000
10000000
00100000
01000000
00000000
01010000
00000000
,
00000000
00000000
01000000
00001000
00010000
00000000
00010000
00000100
00001000
00000000
00001000
00000010
00000001
00000000
00000011
00000000
,
00000000
00000000
00000001
00000010
00001000
00000000
00001000
00000010
00000001
00000000
00000001
00000010
00000100
00000000
00000101
00000000
,
00000000
00000000
00000010
00001000
00000100
00000000
00000100
00010000
00001000
00000000
00001000
01000000
10000000
00000000
11000000
00000000
,
00000000
00000000
10000000
01000000
00100000
00000000
01100000
00000000
00000000
00000000
01000000
00010000
00100000
00000000
00110000
00000000
,
00000000
00000000
00100000
00001000
00010000
00000000
00011000
00000000
00000000
00000000
00010000
00000100
00001000
00000000
00001001
00000000
,
00000000
00000000
00000010
00000100
00000001
00000000
00001010
00000000
00000000
00000000
00001000
00000100
00010000
00000000
00011000
00000000
,
00000000
00000000
00001000
00010000
00001000
00000000
00101000
00000000
00000000
00000000
00010000
00001000
00010000
00000000
00010100
00000000
,
00000000
00000000
00000100
00010000
00001000
00000000
00101000
00000000
00000000
00000000
00001000
01000000
00100000
00000000
10100000
00000000
,
00000000
00000000
10000000
01000000
00100000
00000000
01100000
00000000
00000000
00000000
01000000
00100000
00010000
00000000
00110000
00000000
,
00000000
00000000
00100000
00001000
00010000
00000000
00011000
00000000
00000000
00000000
00010000
00000010
00000100
00000000
00000110
00000000
,
00000001
00000000
00000100
00000000
00001000
00000000
00010000
00000000
00100000
10000000
00010000
01000000
00010000
00100000
00010000
00001000
,
00010000
00000000
00000000
00010000
00000000
00000000
00010000
00000000
00000100
00000000
00000000
00000100
00000000
00000000
00000100
00000000
00000010
00000000
00000000
00000001
00000000
00000000
00000100
00000000
00000010
00000000
00000000
00001000
00000000
00000000
00000100
00000000
,
00010000
00000000
00000000
00010000
00000000
00000000
00010000
00000000
00001000
00000000
00000000
00001000
00000000
00000000
00001000
00000000
01000000
00000000
00000000
00100000
00000000
00000000
10000000
00000000
01000000
00000000
01100000
00000000
00000000
11000000
00000000
00000000
,
10010000
00000000
00000000
00000000
00000000
00000000
00000000
00000000
00000000
00000000
00000000
00000000
00000000
00000000
00100000
00001000
00010000
00000000
00000000
00011000
00000000
00010000
00010000
00000000
00000000
00000000
00000000
00000000
00000000
00001000
00001000
00000000
,
00010100
00000000
00000000
00000110
00000000
00000001
00000201
00000000
00000000
00000000
00000000
00000000
00000000
00000000
00000310
00001000
00000001
00000010
00000000
00000010
00000100
00001000
00000000
00001000
00000100
00010000
00000100
00001000
00000100
00010000
00001000
01000000
,
00100000
00000000
00000000
01000000
00010000
00000000
00100000
00000000
01100000
00000000
00000000
10000000
01000000
00000000
00100000
00000000
,
00110000
00000000
00000000
00100000
00001000
00000000
00010000
00000000
00010100
00000000
00000000
00000100
00001000
00000000
00000010
00000000
,
00000101
00000000
00000000
00000001
00000010
00000000
00000100
00000000
00001100
00000000
00000000
00000100
00001000
00000000
00000010
00000000
,
00000101
00000000
00000000
00000001
00000100
00000000
00000010
00000000
00020010
00000000
00000000
00001000
00000000
00000000
00030010
00000000
,
00000110
00000000
00000000
00000010
00010000
00000000
00001000
00000000
00011000
00000000
00000000
00001000
01000000
00000000
00100000
00000000
,
10100000
00000000
00000000
10000000
01000000
00000000
00100000
00000000
01100000
00000000
00000000
01000000
10000000
00000000
00100000
00000000
,
01100000
00000000
00000000
01000000
00010000
00000000
00100000
00000000
00110000
00000000
00000000
00100000
00001000
00000000
00010000
00000000
,
00011000
00000000
00000100
00010000
00001000
00000000
00001000
01000000
00010000
00000000
00001000
00100000
00010000
00000000
00100000
00001000
,
00020000
00000000
00000000
00000000
00000000
00000000
00000000
00000000
00000000
00000000
00000000
00000000
00030100
00001000
00000001
00001000
,
00000020
00000000
00000000
00000000
00000000
00000000
00000000
00000000
00000000
00000000
00000000
00000000
00000130
00000010
00010000
00000100
,
00002000
00000000
00000000
00000000
00000000
00000000
00000000
00000000
00000000
00000000
00000000
00000000
00003100
00010000
00001000
00010000
,
00002000
00000000
00000000
01000000
00000000
00000000
01000000
00000000
02003000
00000000
00000000
00000000
03100000
10000000
00000000
10000000
,
20010000
00000000
00000000
00000000
00000000
00000000
00000000
00000000
00000000
00000000
00000000
00000000
31000000
10000000
00010000
00100000
,
00002000
00000000
00000000
00000000
00000000
00000000
00000000
00000000
00023000
00000000
00000000
00000000
00000000
00000000
00030010
00000100
,
00000020
00000000
00000000
00000030
,
00011000
00000000
00000000
00110000
00000000
00000000
01100000
00000000
10000000
01000000
00100000
00010000
00001000
00000100
00000001
00001000
,
00000010
00000000
00000100
00000010
00000100
00000000
00000010
00001000
00000010
00000000
00000100
00000001
00000100
00000000
00000001
00000010
,
00000001
00000000
00000010
00000100
00000010
00000000
00000100
00001000
00000100
00000000
00010000
00001000
00010000
00000000
00001000
01000000
,
00001000
00000000
01000000
00100000
01000000
00000000
00100000
10000000
00100000
00000000
10000000
00010000
10000000
00000000
00010000
00100000
,
00010000
00000000
00100000
00001000
00100000
00000000
00001000
00010000
00001000
00000000
00010000
00000100
00010000
00000000
00000100
00001000
,
00000100
00000010
00000000
00000100
00000000
00001000
00000000
00000001
00000010
00000000
00001000
00000000
00000010
00000000
00000001
00000000
,
00000100
00000010
00000000
00001000
00000000
00000100
00000000
00010000
00001000
00000000
00100000
00000000
00001000
00000000
00010000
00000000
,
00001000
01000000
00000000
10000000
00000000
01000000
00000000
00100000
10000000
00000000
01000000
00000000
00010000
00000000
01000000
00000000
,
10000000
01000000
00000000
00100000
00000000
00010000
00000000
00100000
00001000
00000000
00010000
00000000
00000100
00000000
00001000
00000000
,
00000010
00000001
00000000
00000010
00000000
00001000
00000000
00000010
00010000
00000000
00001000
00000000
01000000
00000000
10000000
00000000
,
01000000
00010000
00000000
00100000
00000000
10000000
00000000
00100000
00010000
00000000
00001000
00000000
00000100
00000000
00000001
00000000
,
00001000
00001001
00000000
00000110
00000000
00001010
00000000
00000010
00001010
00000000
00001100
00000000
00010100
00000000
00011000
00000000
,
00001000
01001000
00000000
01100000
00000000
10100000
00000000
10000000
11000000
00000000
01100000
00000000
00110000
00000000
00022000
00000000
,
00000000
00033000
00000000
00000000
;
