#VERSION:0.83;
#TITLE:STARS;
#SUBTITLE:;
#ARTIST:James Landino;
#TITLETRANSLIT:;
#SUBTITLETRANSLIT:;
#ARTISTTRANSLIT:;
#GENRE:;
#ORIGIN:;
#CREDIT:;
#BANNER:STARS.png;
#BACKGROUND:STARS-bg.png;
#PREVIEWVID:;
#JACKET:STARS-jacket.png;
#CDIMAGE:;
#DISCIMAGE:;
#LYRICSPATH:;
#CDTITLE:;
#MUSIC:STARS.ogg;
#OFFSET:0.000000;
#SAMPLESTART:54.456001;
#SAMPLELENGTH:13.617000;
#SELECTABLE:YES;
#BPMS:0.000=141.000;
#STOPS:;
#DELAYS:;
#WARPS:;
#TIMESIGNATURES:0.000=4=4;
#TICKCOUNTS:0.000=4;
#COMBOS:0.000=1;
#SPEEDS:0.000=1.000=0.000=0;
#SCROLLS:0.000=1.000;
#FAKES:;
#LABELS:0.000=Song Start;
#BGCHANGES:;
#KEYSOUNDS:;
#ATTACKS:
;

//---------------dance-single - ----------------
#NOTEDATA:;
#CHARTNAME:;
#STEPSTYPE:dance-single;
#DESCRIPTION:;
#CHARTSTYLE:;
#DIFFICULTY:Beginner;
#METER:4;
#RADARVALUES:0.143393,0.281755,0.149682,0.000000,0.000000,114.000000,97.000000,17.000000,0.000000,0.000000,0.000000,0.000000,0.000000,0.000000,0.143393,0.281755,0.149682,0.000000,0.000000,114.000000,97.000000,17.000000,0.000000,0.000000,0.000000,0.000000,0.000000,0.000000;
#CREDIT:Pandemonium X;
#NOTES:
// measure 0
0000
0000
0000
0000
,  // measure 1
0000
0000
0000
0000
,  // measure 2
0000
0000
0000
0000
,  // measure 3
0000
0000
0000
0000
,  // measure 4
0110
0000
0000
0000
,  // measure 5
0000
0000
0000
0000
,  // measure 6
0110
0000
0000
0000
,  // measure 7
0000
0000
0000
0000
,  // measure 8
1001
0000
0000
0000
,  // measure 9
0001
0000
0000
0000
,  // measure 10
0000
0000
0000
0000
,  // measure 11
1000
0000
0000
0000
,  // measure 12
0110
0000
0000
0000
,  // measure 13
0100
0000
0000
0000
,  // measure 14
0000
0000
0000
0000
,  // measure 15
0010
0000
0000
0000
,  // measure 16
1001
0000
0001
0000
,  // measure 17
1000
0000
0001
0000
,  // measure 18
1000
0000
0001
0000
,  // measure 19
1000
0000
0001
0000
,  // measure 20
0110
0000
0010
0000
,  // measure 21
0100
0000
0010
0000
,  // measure 22
0100
0100
0100
0100
,  // measure 23
0010
0010
0000
1001
,  // measure 24
0001
0000
0000
0000
,  // measure 25
1000
0000
0000
0000
,  // measure 26
0010
0000
0000
0000
,  // measure 27
0100
0000
0000
0000
,  // measure 28
0001
0010
0000
0000
,  // measure 29
0100
0000
0000
0000
,  // measure 30
1000
0000
1000
0000
,  // measure 31
0001
0000
0000
0000
,  // measure 32
0100
0010
0000
0000
,  // measure 33
1000
0000
0000
0000
,  // measure 34
0100
0000
0100
0000
,  // measure 35
0100
0000
0000
0000
,  // measure 36
0010
0001
0000
0001
,  // measure 37
0000
0001
0000
0000
,  // measure 38
1000
0000
0001
0000
,  // measure 39
0100
0100
0000
0110
,  // measure 40
0010
0000
1000
0000
,  // measure 41
0001
0000
0010
0000
,  // measure 42
0100
0000
1000
0000
,  // measure 43
0001
0000
0100
0000
,  // measure 44
0010
0000
0100
0000
,  // measure 45
0001
0000
1000
0000
,  // measure 46
0100
0000
0010
0000
,  // measure 47
0100
0000
0000
0000
,  // measure 48
0001
1000
0000
1000
,  // measure 49
0000
1000
0000
0000
,  // measure 50
0110
0000
1001
0000
,  // measure 51
0110
0000
1001
0000
,  // measure 52
1001
0001
0000
0001
,  // measure 53
0000
0001
0000
0000
,  // measure 54
0100
0000
0010
0000
,  // measure 55
1001
0000
0000
0000
,  // measure 56
0110
0000
0000
0000
,  // measure 57
0001
0000
0000
0001
0000
0000
0001
0000
,  // measure 58
0000
0000
0000
0000
,  // measure 59
1000
0000
0000
1000
0000
0000
1000
0000
,  // measure 60
0110
0000
0000
0000
,  // measure 61
0010
0000
0000
0010
0000
0000
0010
0000
,  // measure 62
0000
0000
0000
0000
,  // measure 63
0100
0000
0000
0100
0000
0000
0100
0000
,  // measure 64
1001
0000
0000
0000
;

//---------------dance-single - ----------------
#NOTEDATA:;
#CHARTNAME:;
#STEPSTYPE:dance-single;
#DESCRIPTION:;
#CHARTSTYLE:;
#DIFFICULTY:Easy;
#METER:7;
#RADARVALUES:0.300622,0.394457,0.457851,0.184901,0.000000,239.000000,187.000000,52.000000,21.000000,0.000000,0.000000,0.000000,0.000000,0.000000,0.300622,0.394457,0.457851,0.184901,0.000000,239.000000,187.000000,52.000000,21.000000,0.000000,0.000000,0.000000,0.000000,0.000000;
#CREDIT:Pandemonium X;
#NOTES:
// measure 0
0000
0000
0000
0000
,  // measure 1
0000
0000
0000
0000
,  // measure 2
0000
0000
0000
0000
,  // measure 3
0000
0000
0000
0000
,  // measure 4
0000
0000
0000
0000
,  // measure 5
0000
0000
0000
0000
,  // measure 6
0000
0000
0000
0000
,  // measure 7
0000
0000
0000
0000
,  // measure 8
1000
0001
0010
0001
,  // measure 9
0100
0000
0000
0010
0000
0000
1000
0000
,  // measure 10
0001
0010
0100
1000
,  // measure 11
0100
0000
0000
1000
0000
0000
0020
0000
,  // measure 12
0130
0010
1000
0001
,  // measure 13
0010
0000
0000
0001
0000
0000
1000
0000
,  // measure 14
0100
1000
0010
0100
,  // measure 15
0001
0000
0000
1000
0000
0000
0200
0000
,  // measure 16
0310
0100
2000
3000
,  // measure 17
0001
0100
0020
0030
,  // measure 18
0100
0010
2000
3000
,  // measure 19
0001
0010
0200
0300
,  // measure 20
0010
0010
0100
0100
,  // measure 21
1000
1000
0001
0001
,  // measure 22
1000
0010
0100
0001
,  // measure 23
1001
0220
0000
0330
,  // measure 24
0001
1010
0001
1010
,  // measure 25
0001
1010
0001
1000
,  // measure 26
0100
0011
0100
0011
,  // measure 27
0100
0011
0001
1000
,  // measure 28
0010
1001
0010
1001
,  // measure 29
0010
1001
0010
1000
,  // measure 30
0100
1100
1000
1100
,  // measure 31
0100
0010
0000
0000
,  // measure 32
0001
1010
0001
1010
,  // measure 33
0001
1010
0001
1000
,  // measure 34
0100
1100
1000
1100
,  // measure 35
0100
1100
0100
1000
,  // measure 36
0010
1001
0010
1001
,  // measure 37
0010
1001
0010
0100
,  // measure 38
0001
1010
0001
1010
,  // measure 39
0110
2002
0000
3003
,  // measure 40
0001
0011
0001
0110
,  // measure 41
0001
1010
0001
1000
,  // measure 42
0100
1100
1000
1010
,  // measure 43
0010
0110
0100
0001
,  // measure 44
1000
0011
0001
0110
,  // measure 45
0001
1010
0100
1000
,  // measure 46
0010
0110
0001
1001
,  // measure 47
0200
0000
0300
0000
,  // measure 48
0001
1010
0001
0110
,  // measure 49
0001
1100
0100
1000
,  // measure 50
0010
0101
0001
0011
,  // measure 51
0010
0110
0100
1000
,  // measure 52
0100
1100
1000
1010
,  // measure 53
0010
1010
0001
1000
,  // measure 54
0001
0011
0001
1100
,  // measure 55
2002
0000
0000
3003
,  // measure 56
0110
0000
0000
0000
,  // measure 57
2000
0000
0000
3002
0000
0000
1003
0000
,  // measure 58
0000
0000
0000
0000
,  // measure 59
0002
0000
0000
2003
0000
0000
3001
0000
,  // measure 60
0110
0000
0000
0000
,  // measure 61
0020
0000
0000
0230
0000
0000
0310
0000
,  // measure 62
0000
0000
0000
0000
,  // measure 63
0200
0000
0000
0320
0000
0000
0130
0000
,  // measure 64
1001
0000
0000
0000
;

//---------------dance-single - ----------------
#NOTEDATA:;
#CHARTNAME:;
#STEPSTYPE:dance-single;
#DESCRIPTION:;
#CHARTSTYLE:;
#DIFFICULTY:Medium;
#METER:9;
#RADARVALUES:0.372319,0.482725,0.123268,0.158487,0.268547,296.000000,282.000000,14.000000,18.000000,0.000000,0.000000,0.000000,0.000000,0.000000,0.372319,0.482725,0.123268,0.158487,0.268547,296.000000,282.000000,14.000000,18.000000,0.000000,0.000000,0.000000,0.000000,0.000000;
#CREDIT:Pandemonium X;
#NOTES:
// measure 0
0000
0000
0000
0000
,  // measure 1
0000
0000
0000
0000
,  // measure 2
0000
0000
0000
0000
,  // measure 3
0000
0000
0000
0000
,  // measure 4
0000
0000
0000
0000
,  // measure 5
0000
0000
0000
0000
,  // measure 6
0000
0000
0000
0000
,  // measure 7
0000
0000
0000
0000
,  // measure 8
1000
0010
1000
0100
,  // measure 9
0010
0000
0100
1000
0000
0100
0020
0000
,  // measure 10
0130
0010
0001
1000
,  // measure 11
0100
0000
1000
0010
0000
1000
0002
0000
,  // measure 12
0013
0001
0100
0001
,  // measure 13
1000
0000
0100
1000
0000
0010
0200
0000
,  // measure 14
0301
0010
0001
1000
,  // measure 15
0010
0000
0100
0010
0000
1000
0020
0000
,  // measure 16
1030
0001
0010
0001
,  // measure 17
1000
0010
1000
1001
,  // measure 18
0001
1000
0100
1000
,  // measure 19
0001
0100
0001
1001
,  // measure 20
0001
0010
0001
0000
1000
0010
1000
0000
,  // measure 21
0001
0010
0001
0000
1000
0010
1000
0000
,  // measure 22
0001
0010
0100
1000
0001
0010
0100
1000
,  // measure 23
0002
2000
0000
3003
,  // measure 24
0110
0000
0000
0000
0001
0000
0000
1000
0000
1000
0000
0000
0001
0000
0000
1000
,  // measure 25
0000
1000
0000
0000
0001
0000
0000
1000
0001
0000
0000
1000
0000
0000
0010
0000
,  // measure 26
1000
0000
0000
1000
0010
0000
0000
0000
0010
0000
0000
0010
0100
0000
0000
0000
,  // measure 27
0100
0000
0000
0100
0001
0000
0000
0000
1000
0000
0000
0001
0000
0000
0010
0000
,  // measure 28
0100
0000
0000
0000
1000
0000
0000
0001
0000
0001
0000
0000
1000
0000
0000
0001
,  // measure 29
0000
0001
0000
0000
1000
0000
0000
0001
1000
0000
0000
0001
0000
0000
0100
0000
,  // measure 30
0010
0000
0100
0001
0010
0000
0100
0000
,  // measure 31
2000
0100
0000
0000
,  // measure 32
3001
0000
0000
0000
0100
0000
0000
0010
0000
0010
0000
0000
0100
0000
0000
0010
,  // measure 33
0000
0010
0000
0000
0100
0000
0000
0010
0100
0000
0000
0001
0000
0000
1000
0000
,  // measure 34
0001
0000
0000
0001
1000
0000
0000
0000
1000
0000
0000
1000
0001
0000
0000
0000
,  // measure 35
0100
0000
0000
0100
0010
0000
0000
0000
2002
0000
0000
0000
3003
0000
0000
0000
,  // measure 36
0011
0000
0000
0000
0010
0000
0000
0100
0000
0100
0000
0000
0010
0000
0000
0100
,  // measure 37
0000
0100
0000
0000
0010
0000
0000
0000
0100
0000
0000
0010
0000
0000
0001
0000
,  // measure 38
1000
0000
0000
0001
0100
0000
0000
0000
1000
0000
0000
0010
0100
0000
0000
0000
,  // measure 39
0002
2000
0000
3003
,  // measure 40
1000
0000
0100
0000
0001
0000
0000
0000
0100
0000
0000
0010
0000
0010
0000
0000
,  // measure 41
0100
0000
0000
1000
0000
1000
0000
0000
0010
0000
0000
0100
0000
0000
0001
0000
,  // measure 42
1000
0000
0000
0000
0001
0000
0010
0000
0100
0000
0000
0010
0000
0010
0000
0000
,  // measure 43
0001
0000
0000
0100
0000
0100
0000
0000
0010
0000
1000
0000
1100
0000
0000
0000
,  // measure 44
1000
0000
0001
0000
0200
0000
0000
0000
0310
0000
0000
1000
0000
1000
0000
0000
,  // measure 45
0001
0000
0000
0010
0000
0010
0000
0000
0100
0000
0000
1000
0000
0000
0010
0000
,  // measure 46
1000
0000
0000
0000
0001
0000
0100
0000
0010
0000
0000
1000
0000
1000
0000
0000
,  // measure 47
0001
0000
0000
0010
0000
0100
0000
0000
2000
0000
0000
0000
0000
0000
0000
0000
,  // measure 48
3001
0000
0000
0000
1100
0000
0000
0001
0000
0001
0000
0000
1010
0000
0000
0010
,  // measure 49
0000
0010
0000
0000
0110
0000
0000
0010
0100
0000
0000
0010
0000
0000
1000
0000
,  // measure 50
0001
0000
0010
0100
1000
0000
0100
1000
,  // measure 51
0010
0000
0100
0001
0010
0000
1001
0000
,  // measure 52
0110
0000
0000
0000
0101
0000
0000
1000
0000
1000
0000
0000
0011
0000
0000
0100
,  // measure 53
0000
0100
0000
0000
1001
0000
0000
0000
0100
0000
0000
1000
0000
0000
0001
0000
,  // measure 54
0100
0000
0010
1000
0001
0000
0010
0100
,  // measure 55
1000
0000
0000
0000
,  // measure 56
0001
1000
0010
1000
,  // measure 57
0100
0000
1000
0010
0000
0100
0002
0000
,  // measure 58
0013
0001
0010
0100
,  // measure 59
0010
0000
0001
0010
0000
0100
2000
0000
,  // measure 60
3010
0100
0001
1000
,  // measure 61
0001
0000
1000
0010
0000
0010
0200
0000
,  // measure 62
0310
1000
0001
0010
,  // measure 63
0100
0000
0010
0001
0000
0010
0200
0000
,  // measure 64
2000
0000
3300
0000
;

//---------------dance-single - ----------------
#NOTEDATA:;
#CHARTNAME:;
#STEPSTYPE:dance-single;
#DESCRIPTION:;
#CHARTSTYLE:;
#DIFFICULTY:Hard;
#METER:13;
#RADARVALUES:0.471687,0.653098,0.334584,0.449046,0.383010,375.000000,337.000000,38.000000,51.000000,0.000000,0.000000,0.000000,0.000000,0.000000,0.471687,0.653098,0.334584,0.449046,0.383010,375.000000,337.000000,38.000000,51.000000,0.000000,0.000000,0.000000,0.000000,0.000000;
#CREDIT:Pandemonium X;
#NOTES:
// measure 0
0000
0000
0000
0000
,  // measure 1
0000
0000
0000
0000
,  // measure 2
0000
0000
0000
0000
,  // measure 3
0000
0000
0000
0000
,  // measure 4
0000
0000
0000
0000
,  // measure 5
0000
0000
0000
0000
,  // measure 6
0000
0000
0000
0000
,  // measure 7
0000
0000
0000
0000
,  // measure 8
1000
0010
1000
0001
,  // measure 9
0020
0000
1030
0020
0000
0031
0020
0000
,  // measure 10
0130
0010
0001
1000
,  // measure 11
0200
0000
1300
0200
0000
0301
0200
0000
,  // measure 12
0310
0100
1000
0001
,  // measure 13
2000
0000
3010
2000
0000
3100
2000
0000
,  // measure 14
3001
0100
0001
0010
,  // measure 15
0002
0000
0103
0002
0000
0013
0002
0000
,  // measure 16
2003
0010
0100
3010
,  // measure 17
0002
0100
0010
0103
,  // measure 18
2000
0010
0100
3010
,  // measure 19
0002
0100
0010
0103
,  // measure 20
0001
0001
1000
0000
0100
0100
0010
0000
,  // measure 21
0100
1000
0010
0000
0100
0001
1000
0000
,  // measure 22
0001
0000
0010
0000
0100
0000
1000
0000
0001
1000
0001
1000
0010
0100
0010
0100
,  // measure 23
0002
2000
0000
3003
,  // measure 24
0110
0000
0000
0000
2010
0000
0000
0100
0000
3100
0000
0000
0012
0000
0000
0100
,  // measure 25
0000
0103
0000
0000
2010
0000
0000
3100
0010
0000
0010
0001
0000
0001
1000
0000
,  // measure 26
1001
0000
0000
1000
0010
0000
0100
0000
0001
0000
0000
0010
0001
0000
1000
0000
,  // measure 27
0100
0000
0000
0010
0100
0000
1000
0000
0020
0000
0000
0000
1000
0000
0000
0000
,  // measure 28
0130
0000
0000
0000
0102
0000
0000
0010
0000
0013
0000
0000
2100
0000
0000
0010
,  // measure 29
0000
3010
0000
0000
0102
0000
0000
0013
0100
0000
0100
1000
0000
1000
0001
0000
,  // measure 30
1001
0000
0000
0001
0100
0000
0010
0000
1000
0000
0000
0100
1000
0000
0001
0000
,  // measure 31
0010
0000
0100
0000
0010
0001
0100
0010
0000
0000
1000
0001
0000
1000
0000
0000
,  // measure 32
0001
0000
0000
0000
0201
0000
0000
0010
0000
0310
0000
0000
1200
0000
0000
0010
,  // measure 33
0000
0310
0000
0000
0201
0000
0000
0310
1000
0000
0001
0100
0000
0001
0010
0000
,  // measure 34
0100
0000
0000
0010
0100
0000
1000
0000
0010
0000
0000
0100
0001
0000
1000
0000
,  // measure 35
0100
0000
0000
0010
0001
0000
1000
0000
0002
0000
0000
0000
0010
0000
0000
0000
,  // measure 36
1003
0000
0000
0000
1020
0000
0000
0100
0000
0130
0000
0000
0021
0000
0000
0100
,  // measure 37
0000
0130
0000
0000
1020
0000
0000
0130
0001
0000
1000
0010
0000
1000
0100
0000
,  // measure 38
0010
0000
0000
0100
0010
0000
0001
0000
0100
0000
0000
0010
1000
0000
0001
0000
,  // measure 39
0020
0200
0000
0330
,  // measure 40
1001
0000
0000
0000
1020
0000
0000
0000
0130
0000
0100
0010
0000
0010
0000
0000
,  // measure 41
0100
0000
0100
0010
0000
0010
0000
0000
0100
0000
0100
0010
0000
1000
0001
0000
,  // measure 42
0010
0000
0000
0000
0100
0000
0100
0000
1000
0000
0001
1000
0000
1000
0000
0000
,  // measure 43
0001
0000
0001
1000
0000
1000
0000
0000
0001
0000
0100
0000
1010
0000
0000
0000
,  // measure 44
1100
0000
0000
0000
0012
0000
0000
0000
0103
0000
0010
0100
0000
0100
0000
0000
,  // measure 45
0010
0000
0010
0100
0000
0100
0000
0000
0010
0000
0010
0100
0000
0010
1000
0000
,  // measure 46
0001
0000
0000
0000
0010
0000
0100
0000
0011
0000
0010
0100
0000
0100
0000
0000
,  // measure 47
0010
0000
0000
0001
0000
0001
0000
0000
0000
0000
0100
0010
0000
1000
0000
0000
,  // measure 48
1001
0000
0000
0000
1010
0000
0000
0101
0000
0101
0000
0000
1010
0000
0000
0101
,  // measure 49
0000
0101
0000
0000
1010
0000
0000
0001
0100
0000
0010
1000
0000
0001
0100
0000
,  // measure 50
0010
0000
0000
1000
0100
0000
0001
0000
0100
0000
0000
1000
0010
0000
0001
0000
,  // measure 51
0010
0000
0000
1000
0100
0000
0001
0000
0200
0000
0000
0000
1300
0000
0000
0000
,  // measure 52
1001
0000
0000
0000
0101
0000
0000
1010
0000
1010
0000
0000
0101
0000
0000
1010
,  // measure 53
0000
1010
0000
0000
0101
0000
0000
1000
0010
0000
0100
0001
0000
1000
0010
0000
,  // measure 54
0100
0000
0000
0001
0010
0000
1000
0000
0010
0000
0000
0001
0100
0000
0010
0000
,  // measure 55
2000
0100
0100
3100
,  // measure 56
1001
0001
1000
0100
,  // measure 57
0020
0000
0031
0020
0000
1030
0020
0000
,  // measure 58
0031
0100
0001
1000
,  // measure 59
0200
0000
0301
0200
0000
1300
0200
0000
,  // measure 60
0310
0100
1000
0001
,  // measure 61
2000
0000
3010
2000
0000
3001
2000
0000
,  // measure 62
3100
1000
0100
0010
,  // measure 63
0002
0000
0013
0002
0000
0103
0002
0000
,  // measure 64
2000
0000
3003
0000
;

//---------------dance-single - ----------------
#NOTEDATA:;
#CHARTNAME:;
#STEPSTYPE:dance-single;
#DESCRIPTION:;
#CHARTSTYLE:;
#DIFFICULTY:Challenge;
#METER:14;
#RADARVALUES:0.491813,0.709890,0.360998,0.792435,0.462254,391.000000,350.000000,41.000000,90.000000,59.000000,0.000000,0.000000,0.000000,0.000000,0.491813,0.709890,0.360998,0.792435,0.462254,391.000000,350.000000,41.000000,90.000000,59.000000,0.000000,0.000000,0.000000,0.000000;
#CREDIT:Pandemonium X;
#NOTES:
// measure 0
0000
0000
0000
0000
,  // measure 1
0000
0000
0000
0000
,  // measure 2
0000
0000
0000
0000
,  // measure 3
0000
0000
0000
0000
,  // measure 4
0000
0000
0000
0000
,  // measure 5
0000
0000
0000
0000
,  // measure 6
0000
0000
0000
0000
,  // measure 7
0000
0000
0000
0000
,  // measure 8
0011
0100
0001
1000
,  // measure 9
0200
0300
0M01
0200
0300
1M00
0200
0300
,  // measure 10
0M10
0100
1000
0001
,  // measure 11
0020
0030
00M1
0020
0030
10M0
0020
0030
,  // measure 12
02M0
0310
0001
1000
,  // measure 13
0002
0003
010M
0002
0003
001M
0002
0003
,  // measure 14
100M
0010
1000
0100
,  // measure 15
2000
3000
M010
2000
3000
M100
2000
3000
,  // measure 16
1002
0000
0000
0000
0203
0000
0000
0000
0320
0000
0000
1000
0000
1000
0000
0000
,  // measure 17
0230
0000
0000
0000
0320
0000
0000
0000
2030
0100
0000
0100
0000
0000
0000
0000
,  // measure 18
3020
0000
0000
0000
0230
0000
0000
0000
0302
0000
0000
0010
0000
0010
0000
0000
,  // measure 19
2003
0000
0000
0000
3002
0000
0000
0000
0203
0010
0000
0010
0000
0000
0310
0000
,  // measure 20
1000
0100
0010
0001
1000
1000
0001
0001
,  // measure 21
1000
0100
0010
0001
0010
0010
0001
0001
,  // measure 22
0100
0001
0100
0001
1000
0010
1000
0010
0100
0001
1000
0001
0100
0010
0100
0010
,  // measure 23
2000
0000
0002
0000
0000
3003
MMMM
0000
,  // measure 24
0110
0000
0000
0000
0102
0000
0000
0013
0000
001M
0000
0000
2100
0000
0000
3010
,  // measure 25
0000
M010
0000
0000
0102
0000
0000
0013
0100
0000
0100
1000
0000
1000
0001
0000
,  // measure 26
1001
0000
0000
0001
0100
0000
0010
0000
1000
0000
0000
0100
1000
0000
0001
0000
,  // measure 27
0010
0000
0000
0100
0010
0000
0001
0000
0200
0000
0000
0000
0001
0000
0000
0000
,  // measure 28
0310
0000
0000
0000
2010
0000
0000
3100
0000
M100
0000
0000
0012
0000
0000
0103
,  // measure 29
0000
010M
0000
0000
2010
0000
0000
3100
0010
0000
0010
0001
0000
0001
1000
0000
,  // measure 30
1001
0000
0000
1000
0010
0000
0100
0000
0001
0000
0000
0010
0001
0000
1000
0000
,  // measure 31
0100
0000
0010
0000
0100
1000
0010
0100
0000
0000
0001
1000
0000
0001
0000
0000
,  // measure 32
0101
0000
0000
0000
1020
0000
0000
0130
0000
01M0
0000
0000
0021
0000
0000
0130
,  // measure 33
0000
01M0
0000
0000
1020
0000
0000
0130
0001
0000
1000
0010
0000
1000
0100
0000
,  // measure 34
0010
0000
0000
0100
0010
0000
0001
0000
0100
0000
0000
0010
1000
0000
0001
0000
,  // measure 35
0010
0000
0000
0100
1000
0000
0001
0000
2000
0000
0000
0000
0100
0000
0000
0000
,  // measure 36
3001
0000
0000
0000
0201
0000
0000
0310
0000
0M10
0000
0000
1200
0000
0000
0310
,  // measure 37
0000
0M10
0000
0000
0201
0000
0000
0310
1000
0000
0001
0100
0000
0001
0010
0000
,  // measure 38
0100
0000
0000
0010
0100
0000
1000
0000
0010
0000
0000
0100
0001
0000
1000
0000
,  // measure 39
0200
0000
0020
0000
0000
0330
MMMM
0000
,  // measure 40
1001
0000
0000
0000
0201
0000
0000
0000
0310
0000
0010
0100
0000
01M0
0000
0000
,  // measure 41
0010
0000
0010
0100
0000
01M0
0000
0000
0010
0000
0010
0100
0000
0001
1000
0000
,  // measure 42
0100
0000
0000
0000
0010
0000
0010
0000
0001
0000
1000
0001
0000
M001
0000
0000
,  // measure 43
1000
0000
1000
0001
0000
M001
0000
0000
1000
0000
0010
0000
0101
0000
0000
0000
,  // measure 44
0011
0000
0000
0000
2100
0000
0000
0000
3010
0000
0100
0010
0000
0M10
0000
0000
,  // measure 45
0100
0000
0100
0010
0000
0M10
0000
0000
0100
0000
0100
0010
0000
0100
0001
0000
,  // measure 46
1000
0000
0000
0000
0100
0000
0010
0000
1100
0000
0100
0010
0000
0M10
0000
0000
,  // measure 47
0100
0000
0000
1000
0000
100M
0000
0000
0000
0000
0010
0100
0000
MMM1
0000
0000
,  // measure 48
1001
0000
0000
0000
0202
0303
0M0M
2020
3030
2020
3030
0000
0202
0303
0M0M
2020
,  // measure 49
3030
2020
3030
0000
0202
0303
0M0M
2000
3010
0000
0100
0001
0000
1000
0010
0000
,  // measure 50
0100
0000
0000
0001
0010
0000
1000
0000
0010
0000
0000
0001
0100
0000
1000
0000
,  // measure 51
0100
0000
0000
0001
0010
0000
1000
0000
0020
0000
0000
0000
0031
0000
0000
0000
,  // measure 52
1001
0000
0000
0000
2020
3030
0M0M
0202
0303
0202
0303
0000
2020
3030
0M0M
0202
,  // measure 53
0303
0202
0303
0000
2020
3030
0000
0002
0103
0000
0010
1000
0000
0001
0100
0000
,  // measure 54
0010
0000
0000
1000
0100
0000
0001
0000
0100
0000
0000
1000
0010
0000
0100
0000
,  // measure 55
0002
0100
0100
0103
,  // measure 56
1010
1000
0001
0010
,  // measure 57
0200
0300
1M00
0200
0300
0M01
0200
0300
,  // measure 58
1M00
0010
1000
0001
,  // measure 59
0020
0030
10M0
0020
0030
00M1
0020
0030
,  // measure 60
01M0
0010
0001
1000
,  // measure 61
0002
0003
010M
0002
0003
100M
0002
0003
,  // measure 62
001M
0001
0010
0100
,  // measure 63
2000
3000
M100
2000
3000
M010
0200
0000
,  // measure 64
0020
0000
0330
0000
;
