#VERSION:0.83;
#TITLE:SEXY PLANET(FROM NONSTOP MEGAMIX);
#SUBTITLE:;
#ARTIST:Crystal Aliens;
#TITLETRANSLIT:;
#SUBTITLETRANSLIT:;
#ARTISTTRANSLIT:;
#GENRE:;
#ORIGIN:;
#CREDIT:;
#BANNER:SEXY PLANET(FROM NONSTOP MEGAMIX).png;
#BACKGROUND:SEXY PLANET(FROM NONSTOP MEGAMIX)-bg.png;
#PREVIEWVID:;
#JACKET:SEXY PLANET(FROM NONSTOP MEGAMIX)-jacket.png;
#CDIMAGE:;
#DISCIMAGE:;
#LYRICSPATH:;
#CDTITLE:;
#MUSIC:SEXY PLANET(FROM NONSTOP MEGAMIX).ogg;
#OFFSET:0.000000;
#SAMPLESTART:23.980000;
#SAMPLELENGTH:15.000000;
#SELECTABLE:YES;
#BPMS:0.000=180.000;
#STOPS:;
#DELAYS:;
#WARPS:;
#TIMESIGNATURES:0.000=4=4;
#TICKCOUNTS:0.000=4;
#COMBOS:0.000=1;
#SPEEDS:0.000=1.000=0.000=0;
#SCROLLS:0.000=1.000;
#FAKES:;
#LABELS:0.000=Song Start;
#BGCHANGES:4.000=SEXY PLANET(FROM NONSTOP MEGAMIX).avi=1.000=1=0=1===CrossFade==,
99999=-nosongbg-=1.000=0=0=0 // don't automatically add -songbackground-
;
#KEYSOUNDS:;
#ATTACKS:
;

//---------------dance-single - ----------------
#NOTEDATA:;
#CHARTNAME:;
#STEPSTYPE:dance-single;
#DESCRIPTION:;
#CHARTSTYLE:;
#DIFFICULTY:Beginner;
#METER:6;
#RADARVALUES:0.208571,0.498750,0.200000,0.000000,0.000000,146.000000,126.000000,20.000000,0.000000,0.000000,0.000000,0.000000,0.000000,0.000000,0.208571,0.498750,0.200000,0.000000,0.000000,146.000000,126.000000,20.000000,0.000000,0.000000,0.000000,0.000000,0.000000,0.000000;
#CREDIT:Pandemonium X;
#NOTES:
// measure 0
0000
0000
0000
0000
,  // measure 1
0000
0000
0000
0000
,  // measure 2
0000
0000
0000
0000
,  // measure 3
0000
0000
0000
0000
,  // measure 4
0000
0000
0000
0000
,  // measure 5
0000
0000
0000
0000
,  // measure 6
0001
0000
0000
0000
,  // measure 7
1000
0000
0000
0000
,  // measure 8
0010
0000
0000
0000
,  // measure 9
1000
0000
0000
0000
,  // measure 10
1001
0000
0000
0000
,  // measure 11
1001
0000
0000
0000
,  // measure 12
1001
0000
0000
0000
,  // measure 13
1001
0000
0000
0000
,  // measure 14
1001
0000
0110
0000
,  // measure 15
1001
0000
0110
0000
,  // measure 16
0001
0001
1000
1000
,  // measure 17
0110
0110
0110
0110
,  // measure 18
1001
0000
0001
0000
,  // measure 19
1000
1000
1000
0000
,  // measure 20
0010
0000
1000
0000
,  // measure 21
0100
0100
0100
0000
,  // measure 22
0010
0000
0100
0000
,  // measure 23
1000
1000
1000
0000
,  // measure 24
0100
0000
1000
0000
,  // measure 25
0010
0010
0010
0010
,  // measure 26
0000
0100
0000
0100
,  // measure 27
0000
0100
0000
0100
,  // measure 28
0000
0100
0000
0100
,  // measure 29
0000
0100
0000
0000
,  // measure 30
0000
0010
0000
0010
,  // measure 31
0000
0010
0000
0010
,  // measure 32
0000
0010
0000
0010
,  // measure 33
0000
0010
0000
0000
,  // measure 34
1000
0000
0000
0000
,  // measure 35
0001
0000
0000
0000
,  // measure 36
0010
0000
0000
0000
,  // measure 37
0001
0000
1000
0000
,  // measure 38
0100
0000
0000
0000
,  // measure 39
1000
0000
0000
0000
,  // measure 40
0010
0000
0000
0000
,  // measure 41
0100
0100
0100
0000
,  // measure 42
0110
0000
0000
0000
,  // measure 43
0001
0000
0000
0000
,  // measure 44
0010
0000
0000
0000
,  // measure 45
0001
0000
0000
0000
,  // measure 46
1001
0000
0010
0000
,  // measure 47
0000
0000
0100
0000
,  // measure 48
0010
0000
0000
0000
,  // measure 49
1000
0000
0000
0000
,  // measure 50
0001
0000
1000
0000
,  // measure 51
0001
0000
1000
0000
,  // measure 52
0001
1000
0001
1000
,  // measure 53
0110
0110
0110
0110
,  // measure 54
1001
0000
0001
0000
,  // measure 55
0010
0010
0100
0000
,  // measure 56
0010
0000
0001
0000
,  // measure 57
0100
0100
0010
0000
,  // measure 58
1000
0000
0001
0000
,  // measure 59
0010
0010
0010
0000
,  // measure 60
0100
0000
0010
0000
,  // measure 61
0001
0001
0001
0001
,  // measure 62
0000
0100
0000
0100
,  // measure 63
0000
0100
0000
0100
,  // measure 64
0000
0100
0000
0100
,  // measure 65
0000
0100
0000
0000
,  // measure 66
0000
0010
0000
0010
,  // measure 67
0000
0010
0000
0010
,  // measure 68
0000
0010
0000
0010
,  // measure 69
0000
1000
0000
0100
,  // measure 70
0000
0010
0000
0001
,  // measure 71
0000
0100
0000
0000
;

//---------------dance-single - ----------------
#NOTEDATA:;
#CHARTNAME:;
#STEPSTYPE:dance-single;
#DESCRIPTION:;
#CHARTSTYLE:;
#DIFFICULTY:Easy;
#METER:8;
#RADARVALUES:0.337143,0.659250,0.530000,0.090000,0.000000,236.000000,183.000000,53.000000,9.000000,0.000000,0.000000,0.000000,0.000000,0.000000,0.337143,0.659250,0.530000,0.090000,0.000000,236.000000,183.000000,53.000000,9.000000,0.000000,0.000000,0.000000,0.000000,0.000000;
#CREDIT:Pandemonium X;
#NOTES:
// measure 0
0000
0000
0000
0000
,  // measure 1
0000
0000
0000
0000
,  // measure 2
0000
0000
0000
0000
,  // measure 3
0000
0000
0000
0000
,  // measure 4
0000
0000
0000
0000
,  // measure 5
0000
0000
0000
0100
,  // measure 6
1001
0000
0000
0020
0000
0000
0000
0000
,  // measure 7
0000
0000
0000
0000
,  // measure 8
0000
0000
0000
0000
,  // measure 9
0000
0000
0000
0130
,  // measure 10
1001
0000
0000
0000
,  // measure 11
0110
0000
0000
0000
,  // measure 12
1001
0000
0000
0000
,  // measure 13
0110
0000
0000
0000
,  // measure 14
1001
0000
0110
0000
,  // measure 15
1001
0000
0110
0000
,  // measure 16
1001
0110
1001
0110
,  // measure 17
1001
1001
1001
1001
,  // measure 18
0110
0001
0100
0010
,  // measure 19
1000
0000
0000
0002
0000
0000
0003
0000
,  // measure 20
0010
0001
0100
0001
,  // measure 21
1000
0000
0000
0200
0000
0000
0300
0000
,  // measure 22
0010
0100
1000
0010
,  // measure 23
0100
0000
0000
0002
0000
0000
0003
0000
,  // measure 24
0010
0001
0100
0010
,  // measure 25
1000
1000
1000
1000
,  // measure 26
0001
0101
0100
0101
,  // measure 27
0011
0000
0000
0000
0000
0000
0010
0100
,  // measure 28
1000
0000
0000
0000
0000
0000
1000
0100
,  // measure 29
0010
0000
0000
0000
,  // measure 30
0010
0011
0001
0101
,  // measure 31
0110
0000
0000
0000
0000
0000
0100
0001
,  // measure 32
1000
0000
0000
0000
0000
0000
1000
0001
,  // measure 33
0100
0000
0000
0000
,  // measure 34
0010
0000
0000
1000
0000
0000
0100
0000
,  // measure 35
0000
1000
0000
0000
0010
0000
1000
0000
,  // measure 36
0001
0000
0000
0010
0000
0000
0100
0000
,  // measure 37
0000
0010
0000
0000
0001
0000
1000
0000
,  // measure 38
0010
0000
0000
0010
0000
0000
0100
0000
,  // measure 39
0000
0100
0000
0000
0001
0000
1000
0000
,  // measure 40
0100
0000
0000
1000
0000
0000
0001
0000
,  // measure 41
0000
1000
0001
0000
1001
0000
0000
0000
,  // measure 42
0001
0000
0000
1000
0000
0000
0000
0000
,  // measure 43
0000
0000
0000
0010
0000
0100
0001
0000
,  // measure 44
0010
0000
0000
0100
0000
0000
0000
0000
,  // measure 45
0010
0001
0000
0100
0000
0000
0010
0000
,  // measure 46
1001
0000
0000
2100
0000
0000
0000
0000
,  // measure 47
0000
0000
0000
0001
0000
0000
0001
0000
,  // measure 48
0001
0000
0000
0001
0000
0000
0000
0000
,  // measure 49
0001
0000
3001
0000
,  // measure 50
1001
0000
0110
0000
,  // measure 51
1001
0000
0110
0000
,  // measure 52
1001
0110
1001
0110
,  // measure 53
1001
1001
1001
1001
,  // measure 54
0110
1000
0010
0100
,  // measure 55
0001
0000
0010
0200
0000
0000
0300
0000
,  // measure 56
0010
0100
1000
0001
,  // measure 57
1000
0000
0001
0200
0000
0000
0000
0000
,  // measure 58
0310
0100
0001
0010
,  // measure 59
0100
0000
1000
0002
0000
0000
0003
0000
,  // measure 60
1000
0001
0100
0001
,  // measure 61
0010
0010
0010
0010
,  // measure 62
0001
0101
0100
0110
,  // measure 63
0010
1010
1000
1001
,  // measure 64
0001
0011
0010
0110
,  // measure 65
0100
1100
0000
0000
,  // measure 66
1000
1100
0100
0110
,  // measure 67
0010
0011
0001
0101
,  // measure 68
0100
0110
0010
1010
,  // measure 69
0000
0001
0000
0001
,  // measure 70
0000
0001
0000
0001
,  // measure 71
0000
2000
0000
0000
,  // measure 72
0000
0000
0000
0000
,  // measure 73
0000
3000
0000
0000
;

//---------------dance-single - ----------------
#NOTEDATA:;
#CHARTNAME:;
#STEPSTYPE:dance-single;
#DESCRIPTION:;
#CHARTSTYLE:;
#DIFFICULTY:Medium;
#METER:12;
#RADARVALUES:0.532857,0.659250,0.860000,0.390000,0.000000,373.000000,287.000000,86.000000,39.000000,0.000000,0.000000,0.000000,0.000000,0.000000,0.532857,0.659250,0.860000,0.390000,0.000000,373.000000,287.000000,86.000000,39.000000,0.000000,0.000000,0.000000,0.000000,0.000000;
#CREDIT:Pandemonium X;
#NOTES:
// measure 0
0000
0000
0000
0000
,  // measure 1
0000
0000
0000
0000
,  // measure 2
0000
0000
0000
0000
,  // measure 3
0000
0000
0000
0000
,  // measure 4
0000
0000
0000
0000
,  // measure 5
0000
0000
0000
0010
,  // measure 6
1001
0000
0000
0201
0001
0000
0001
0000
,  // measure 7
0010
0010
0010
0010
,  // measure 8
0001
0001
0010
0010
,  // measure 9
0001
0010
0001
0310
,  // measure 10
1000
0100
0000
1100
0000
1001
0000
0001
,  // measure 11
0010
0100
0000
1100
0000
0110
0000
0010
,  // measure 12
0001
0100
0000
0101
0000
1010
0000
1000
,  // measure 13
0010
0100
0000
0110
0000
1010
0000
0001
,  // measure 14
1000
0010
0000
0010
1000
0001
0000
0001
,  // measure 15
1000
0100
0000
0100
1000
0001
0000
1000
,  // measure 16
1001
0110
1001
0110
,  // measure 17
0001
0100
0010
1000
0001
0100
0010
1000
,  // measure 18
1100
0110
0011
0110
,  // measure 19
1100
0000
1000
0020
0000
0000
0030
0000
,  // measure 20
0101
0011
0110
1100
,  // measure 21
0110
0000
0100
2000
0000
0000
3000
0000
,  // measure 22
0101
0011
1100
1010
,  // measure 23
0110
0000
0001
2000
0000
0000
3000
0000
,  // measure 24
1001
0101
0011
0110
,  // measure 25
1001
1001
1001
1001
,  // measure 26
0101
1010
1100
0110
,  // measure 27
0011
0000
0001
0000
1000
0000
0001
0100
,  // measure 28
1000
0100
0001
0000
1000
0000
0001
0010
,  // measure 29
1000
0010
0001
0000
1000
0000
1000
0000
,  // measure 30
0101
0011
0110
1100
,  // measure 31
1010
0000
1000
0000
0001
0000
1000
0100
,  // measure 32
0001
0100
1000
0000
0001
0000
1000
0010
,  // measure 33
0001
0010
1000
0000
0010
0000
0100
0000
,  // measure 34
0001
0100
0000
0100
0000
0010
0000
0010
,  // measure 35
0000
1000
0000
1000
0100
0010
0001
1000
,  // measure 36
0000
0001
0000
0001
0000
0100
0000
0100
,  // measure 37
0000
0010
0000
0010
1000
0000
1100
0000
,  // measure 38
0002
0000
0000
0023
0000
0000
0230
0000
,  // measure 39
0000
2300
0000
0000
0001
0000
3010
0000
,  // measure 40
0200
0000
0000
0320
0000
0000
2030
0000
,  // measure 41
3000
0001
1000
0000
0101
0000
0000
0000
,  // measure 42
1010
0000
1000
0010
1000
0000
0010
0000
,  // measure 43
0100
0000
0001
0020
0000
0130
2000
0000
,  // measure 44
3001
0000
1000
0100
0000
1000
0010
0000
,  // measure 45
0100
0001
0000
0110
0000
0000
2100
0000
,  // measure 46
3010
0000
0100
0001
0010
0000
0100
0000
,  // measure 47
1000
0100
0001
0100
,  // measure 48
1000
0010
0001
0010
,  // measure 49
0200
0320
2030
3001
,  // measure 50
1000
0010
0000
1000
0001
0010
0000
0010
,  // measure 51
0001
1000
0000
1000
0001
0010
0000
0010
,  // measure 52
0001
0100
0010
1000
,  // measure 53
0001
0100
0010
1000
0001
0100
0010
1000
,  // measure 54
1010
0110
1100
0110
,  // measure 55
0010
0001
1000
0200
0000
0000
0300
0000
,  // measure 56
0110
1100
1010
1100
,  // measure 57
0100
0010
0001
2000
0000
0000
3000
0000
,  // measure 58
0101
0011
0110
1100
,  // measure 59
0100
1000
0001
0200
0000
0000
0300
0000
,  // measure 60
0101
1010
1100
0110
,  // measure 61
1001
1001
1001
1001
,  // measure 62
2010
3010
1020
1030
,  // measure 63
2010
3010
1020
1030
,  // measure 64
2010
3010
1020
1030
,  // measure 65
2010
0000
3010
0000
0100
0010
1000
0000
,  // measure 66
0021
0031
0012
0013
,  // measure 67
0021
0031
0012
0013
,  // measure 68
0021
0031
0012
0013
,  // measure 69
0000
0020
0030
0200
,  // measure 70
0300
2000
3000
0020
,  // measure 71
0030
2002
0000
0000
,  // measure 72
0000
0000
0000
0000
,  // measure 73
0000
3003
0000
0000
;

//---------------dance-single - ----------------
#NOTEDATA:;
#CHARTNAME:;
#STEPSTYPE:dance-single;
#DESCRIPTION:;
#CHARTSTYLE:;
#DIFFICULTY:Hard;
#METER:14;
#RADARVALUES:0.621429,0.952250,1.220000,0.920000,0.150000,435.000000,313.000000,122.000000,92.000000,59.000000,0.000000,0.000000,0.000000,0.000000,0.621429,0.952250,1.220000,0.920000,0.150000,435.000000,313.000000,122.000000,92.000000,59.000000,0.000000,0.000000,0.000000,0.000000;
#CREDIT:Pandemonium X;
#NOTES:
// measure 0
0000
0000
0000
0000
,  // measure 1
0000
0000
0000
0000
,  // measure 2
0000
0000
0000
0000
,  // measure 3
0000
0000
0000
0000
,  // measure 4
0000
0000
0000
0000
,  // measure 5
0000
0000
0000
0000
0000
0000
0000
0000
0000
0000
0000
0000
0020
0000
0000
0030
,  // measure 6
10M1
0000
0001
1000
0002
0000
0100
0000
,  // measure 7
0010
0010
1000
1000
,  // measure 8
0100
0100
0010
0010
,  // measure 9
1000
1000
1000
0103
,  // measure 10
1010
0010
0000
0110
0000
0110
0000
0001
,  // measure 11
0011
0010
0000
0110
0000
0110
0000
0100
,  // measure 12
1100
1000
0000
0110
0000
0110
0000
0001
,  // measure 13
0101
0100
0000
0110
0000
0110
0000
0010
,  // measure 14
1001
0010
0000
0010
1001
0010
0000
0010
,  // measure 15
1001
0010
0000
0010
1001
0010
0000
0010
,  // measure 16
1001
0110
1001
0110
,  // measure 17
1001
1001
1001
1001
1001
1001
1001
1001
,  // measure 18
0201
0010
0001
0010
,  // measure 19
0301
0010
0001
2000
0100
0000
3010
0000
,  // measure 20
0210
0010
0001
0310
,  // measure 21
0100
0010
1000
0100
0010
0001
1000
0001
,  // measure 22
0102
0010
0100
1003
,  // measure 23
0001
0010
0001
0200
0010
0000
0301
0000
,  // measure 24
1020
0100
1000
0130
,  // measure 25
0110
1001
0110
1001
,  // measure 26
0202
0000
0000
0303
1M1M
0000
0000
0000
0202
0000
0000
0303
1M1M
0000
0000
0000
,  // measure 27
0202
0000
0000
0303
1M1M
0000
0000
0000
0202
0000
0000
0303
1M1M
0000
0000
0000
,  // measure 28
0202
0000
0000
0303
1M1M
0000
0000
0000
0202
0000
0000
0303
1M1M
0000
0000
0000
,  // measure 29
0202
0000
0000
0303
1M1M
0000
0000
0000
1000
0000
0100
0000
0010
0000
0001
0000
,  // measure 30
2200
0000
0000
3300
MM11
0000
0000
0000
2200
0000
0000
3300
MM11
0000
0000
0000
,  // measure 31
2200
0000
0000
3300
MM11
0000
0000
0000
2200
0000
0000
3300
MM11
0000
0000
0000
,  // measure 32
2200
0000
0000
3300
MM11
0000
0000
0000
2200
0000
0000
3300
MM11
0000
0000
0000
,  // measure 33
2200
0000
0000
3300
MM11
0000
0000
0000
0001
0000
1000
0000
0001
0000
1000
0000
,  // measure 34
0001
0100
0000
0100
0000
0100
0000
0100
,  // measure 35
0000
0100
0000
0010
1000
0100
0001
0100
,  // measure 36
0010
0001
0000
0001
0000
0001
0000
0001
,  // measure 37
0000
0001
0000
0001
0010
1000
0010
0001
,  // measure 38
0200
0000
1300
0200
0000
0301
0020
0000
,  // measure 39
1030
0020
0000
0130
2000
0000
3020
0000
,  // measure 40
0230
0000
0310
2000
0000
3001
0020
0000
,  // measure 41
0000
0100
0100
0000
0100
0130
0000
0000
,  // measure 42
1001
0000
0001
0010
1000
0000
0010
0000
,  // measure 43
0001
0000
0001
0200
0000
0310
2000
0000
,  // measure 44
3001
0000
0100
0010
0000
1000
0001
0000
,  // measure 45
1000
0000
0100
0000
0000
0000
0022
0000
0000
0000
0033
0000
0202
0000
0000
0303
,  // measure 46
1M1M
0000
0001
2000
0100
0000
0100
0000
,  // measure 47
0010
0010
0001
0001
,  // measure 48
0010
0010
0100
0100
,  // measure 49
0010
0010
0001
3001
,  // measure 50
1001
0100
0000
0100
1001
0100
0000
0100
,  // measure 51
1001
0100
0000
0100
1001
0100
0000
0100
,  // measure 52
1001
0110
1001
0110
,  // measure 53
1001
1001
1001
1001
1001
1001
1001
1001
,  // measure 54
0102
1000
0100
0013
,  // measure 55
0100
0001
1000
0200
0010
0000
0310
0000
,  // measure 56
0012
0010
0100
1000
,  // measure 57
1003
0100
0001
0200
1000
0000
0310
0000
,  // measure 58
2100
0100
0010
0001
,  // measure 59
3001
0010
1000
0020
0100
0000
0031
0000
,  // measure 60
0210
1000
0010
1300
,  // measure 61
0110
1001
0110
1001
,  // measure 62
2020
0000
0000
3030
M1M1
0000
0000
0000
2020
0000
0000
3030
M1M1
0000
0000
0000
,  // measure 63
2020
0000
0000
3030
M1M1
0000
0000
0000
2020
0000
0000
3030
M1M1
0000
0000
0000
,  // measure 64
2020
0000
0000
3030
M1M1
0000
0000
0000
2020
0000
0000
3030
M1M1
0000
0000
0000
,  // measure 65
2020
0000
0000
3030
M1M1
0000
0000
0000
0001
0000
0010
0000
0100
0000
1000
0000
,  // measure 66
0022
0000
0000
0033
11MM
0000
0000
0000
0022
0000
0000
0033
11MM
0000
0000
0000
,  // measure 67
0022
0000
0000
0033
11MM
0000
0000
0000
0022
0000
0000
0033
11MM
0000
0000
0000
,  // measure 68
0022
0000
0000
0033
11MM
0000
0000
0000
0022
0000
0000
0033
11MM
0000
0000
0000
,  // measure 69
0022
0000
0000
0033
11MM
0000
0000
0000
0000
0000
0000
0000
2000
0000
0000
0000
,  // measure 70
3000
0200
0300
0020
,  // measure 71
0030
2002
0000
0000
,  // measure 72
0000
0000
0000
0000
,  // measure 73
0000
3003
0000
0000
;

//---------------dance-double - ----------------
#NOTEDATA:;
#CHARTNAME:;
#STEPSTYPE:dance-double;
#DESCRIPTION:;
#CHARTSTYLE:;
#DIFFICULTY:Easy;
#METER:8;
#RADARVALUES:0.328571,0.659250,0.640000,0.080000,0.000000,230.000000,166.000000,64.000000,8.000000,0.000000,0.000000,0.000000,0.000000,0.000000,0.328571,0.659250,0.640000,0.080000,0.000000,230.000000,166.000000,64.000000,8.000000,0.000000,0.000000,0.000000,0.000000,0.000000;
#CREDIT:Pandemonium X;
#NOTES:
00000000
00000000
00000000
00000000
,
00000000
00000000
00000000
00000000
,
00000000
00000000
00000000
00000000
,
00000000
00000000
00000000
00000000
,
00000000
00000000
00000000
00000000
,
00000000
00000000
00000000
00100000
,
10010000
00000000
00000000
02000000
00000000
00000000
00000000
00000000
,
00000000
00000000
00000000
00000000
,
00000000
00000000
00000000
00000000
,
00000000
00000000
03000000
00010000
,
00101000
00000000
00000000
00000000
,
00011000
00000000
00000000
00000000
,
00010100
00000000
00000000
00000000
,
00001100
00000000
00000000
00000000
,
00000011
00000000
00001100
00000000
,
00000011
00000000
00001100
00000000
,
00000011
00001100
00000011
00001100
,
00001001
00000110
00001001
00000110
,
00001001
00000001
00000100
00000010
,
00001000
00000000
00000100
00020000
00000000
00000000
00030000
00000000
,
00001000
01000000
00100000
10000000
,
01000000
00000000
00100000
02000000
00000000
00000000
03000000
00000000
,
00100000
00010000
01000000
00001000
,
00010000
00000000
00000100
00002000
00000000
00000000
00003000
00000000
,
00000100
00001000
00000010
00000100
,
00000001
00000001
00000001
00000001
,
00001000
00001001
00000000
00001010
,
00000000
00010100
00000000
00011000
,
00000000
01001000
00000000
01100000
,
00000000
10100000
00000000
00000000
,
10000000
11000000
00000000
01100000
,
00000000
00110000
00000000
00101000
,
00000000
00011000
00000000
00010100
,
00000000
00001100
00000000
00000000
,
00000001
00000000
00000000
00000100
00000000
00000000
00000010
00000000
,
00000000
00001000
00000000
00000000
00000100
00000000
00001100
00000000
,
00000100
00000000
00000000
00010000
00000000
00000000
00001000
00000000
,
00000000
01000000
00000000
00000000
00100000
00000000
01100000
00000000
,
10000000
00000000
00000000
01000000
00000000
00000000
00010000
00000000
,
00000000
01000000
00000000
00000000
10000000
00000000
10100000
00000000
,
10000000
00000000
00000000
00100000
00000000
00000000
00010000
00000000
,
00000000
00100000
01100000
00000000
,
10010000
00000000
00000000
00010000
00000000
00000000
00000000
00000000
,
00000000
00000000
00000000
00100000
00000000
00000000
00000000
00000000
,
00001000
00000000
00000000
00010000
00000000
00000000
00000000
00000000
,
00000100
00000000
00000000
00010000
00000000
00000000
00000100
00000000
,
00001100
00000000
00000000
00000010
00000000
00000000
00000000
00000000
,
00000000
00000000
00000000
00000100
00000000
00000001
00001000
00000000
,
00000100
00000000
00000000
00000010
00000000
00000000
00000000
00000000
,
00000100
00000000
00000000
00001000
00000000
00000000
00000000
00000000
,
00001100
00000000
00011000
00000000
,
00110000
00000000
11000000
00000000
,
00110000
11000000
00110000
11000000
,
10010000
01100000
10010000
01100000
,
10010000
10000000
00010000
00100000
,
00001000
00000000
00010000
00000020
00000000
00000000
00000030
00000000
,
00000100
00000010
00001000
00000100
,
00010000
00000000
00001000
00020000
00000000
00000000
00000000
00000000
,
00030010
00000100
00000001
00000010
,
00000100
00000000
00001000
00000200
00000000
00000000
00000300
00000000
,
00010000
00001000
01000000
00100000
,
10000000
10000000
10000000
10000000
,
01000000
11000000
00000000
01100000
,
00000000
10010000
00000000
01010000
,
00000000
00101000
00000000
00011000
,
00000000
00010100
00000000
00000000
,
00001000
00001100
00000000
00000110
,
00000000
00000011
00000000
00000101
,
00000000
00000110
00000000
00001010
,
00000000
00001000
00000000
00000100
,
00000000
00010000
00000000
00001000
,
00000000
02000000
00000000
00000000
,
00000000
00000000
00000000
00000000
,
00000000
03000000
00000000
00000000
;

//---------------dance-double - ----------------
#NOTEDATA:;
#CHARTNAME:;
#STEPSTYPE:dance-double;
#DESCRIPTION:;
#CHARTSTYLE:;
#DIFFICULTY:Medium;
#METER:11;
#RADARVALUES:0.461429,0.622625,0.560000,0.170000,0.000000,323.000000,267.000000,56.000000,17.000000,0.000000,0.000000,0.000000,0.000000,0.000000,0.461429,0.622625,0.560000,0.170000,0.000000,323.000000,267.000000,56.000000,17.000000,0.000000,0.000000,0.000000,0.000000,0.000000;
#CREDIT:Pandemonium X;
#NOTES:
00000000
00000000
00000000
00000000
,
00000000
00000000
00000000
00000000
,
00000000
00000000
00000000
00000000
,
00000000
00000000
00000000
00000000
,
00000000
00000000
00000000
00000000
,
00000000
00000000
00000000
00100000
,
10010000
00000000
00010000
00200000
00001000
00000000
00001000
00000000
,
00010000
00010000
00010000
00010000
,
00001000
00001000
00010000
00010000
,
00001000
00010000
00001000
00310000
,
00001000
00010000
00000000
00000100
00000000
00001000
00000000
00000010
,
00000100
00000001
00000000
00000010
00000000
00000100
00000000
00001000
,
00000100
00001000
00000000
00000100
00000000
00010000
00000000
00001000
,
00010000
00001000
00000000
00100000
00000000
00010000
00000000
10000000
,
00010000
10000000
00000000
10000000
00010000
10000000
00000000
10000000
,
00010000
10000000
00000000
10000000
00010000
10000000
00000000
10000000
,
00010000
10000000
00010000
10000000
,
00010000
10000000
00010000
10000000
00010000
10000000
00010000
10000000
,
00100000
01000000
00010000
00100000
,
00001000
00000000
00010000
00000020
00000000
00000000
00000030
00000000
,
00000100
00000010
00001000
00000100
,
00010000
00000000
00001000
02000000
00000000
00000000
00000000
00000000
,
03100000
10000000
00010000
00100000
,
00001000
00000000
00010000
00000200
00000000
00000000
00000300
00000000
,
00001000
00000010
00000100
00000001
,
00001001
00000110
00001001
00000110
,
00000001
00000101
00000100
00000110
,
00000010
00001010
00001000
00001100
,
00000100
00010100
00010000
00011000
,
00001000
00000000
01001000
00000000
01000000
00100000
10000000
00000000
,
10000000
11000000
01000000
01100000
,
00100000
00110000
00100000
00101000
,
00010000
00011000
00001000
00001100
,
00000100
00000000
00000110
00000000
00000010
00000001
00000010
00000001
,
00001000
00000001
00000000
00000100
00000000
00000010
00000000
00001000
,
00000000
00000100
00000000
00010000
00001000
01000000
00100000
10000000
,
00000000
01000000
00000000
10000000
00000000
00100000
00000000
01000000
,
00000000
00010000
00000000
00100000
00001000
00010000
00000100
00001000
,
00000020
00000000
00000000
00000230
00000000
00000000
00000302
00000000
,
00000000
00000023
00000000
00000000
00000130
00000000
00001001
00000000
,
00002000
00000000
00000000
00003200
00000000
00000000
00010300
00000000
,
00000000
00001000
00010000
00000000
00011000
00000000
00000000
00000000
,
01001000
00000000
00000000
01100000
00000000
00000000
00000000
00000000
,
00000000
00000000
00000000
10000000
00000000
00100000
01000000
00000000
,
01010000
00000000
00000000
11000000
00000000
00000000
00000000
00000000
,
10000000
01000000
00000000
00100000
00000000
00000000
00210000
00000000
,
00301000
00000000
00010000
00000200
00001000
00000000
00001000
00000000
,
00010000
00010000
00010000
00010000
,
00001000
00001000
00010000
00010000
,
00001000
00010000
00001300
00000100
,
00011000
00000000
01010000
00000000
,
00011000
00000000
00010100
00000000
,
00011000
00011000
00010100
00010100
,
00001000
00000010
00001000
00000010
00001000
00000010
00001000
00000010
,
00000100
00000010
00000100
00000001
,
00001000
00000000
00000100
00002000
00000000
00000000
00003000
00000000
,
00000100
00010000
00001000
01000000
,
00100000
00000000
20000000
00020000
00000000
00000000
30030000
00000000
,
00110000
00100000
00001000
00010000
,
00000100
00000000
00001000
00000020
00000000
00000000
00000030
00000000
,
00000100
00000001
00001000
00000100
,
00001001
00000110
00001001
00000110
,
00000001
00000101
00000100
00000110
,
00000010
00001010
00001000
00001100
,
00000100
00010100
00010000
00011000
,
00001000
00000000
01001000
00000000
01000000
00100000
10000000
00010000
,
00100000
00110000
00100000
00101000
,
00001000
00011000
00010000
00010100
,
00001000
00001100
00001000
00001010
,
00000000
00000101
00000000
00001010
,
00000000
00010100
00000000
00011000
,
00000000
02000000
00000000
00000000
,
00000000
00000000
00000000
00000000
,
00000000
03000000
00000000
00000000
;

//---------------dance-double - ----------------
#NOTEDATA:;
#CHARTNAME:;
#STEPSTYPE:dance-double;
#DESCRIPTION:;
#CHARTSTYLE:;
#DIFFICULTY:Hard;
#METER:15;
#RADARVALUES:0.617143,0.952250,1.230000,0.960000,0.145000,432.000000,309.000000,123.000000,96.000000,57.000000,0.000000,0.000000,0.000000,0.000000,0.617143,0.952250,1.230000,0.960000,0.145000,432.000000,309.000000,123.000000,96.000000,57.000000,0.000000,0.000000,0.000000,0.000000;
#CREDIT:Pandemonium X;
#NOTES:
00000000
00000000
00000000
00000000
,
00000000
00000000
00000000
00000000
,
00000000
00000000
00000000
00000000
,
00000000
00000000
00000000
00000000
,
00000000
00000000
00000000
00000000
,
00000000
00000000
00000000
00000000
00000000
00000000
00000000
00000000
00000000
00000000
00000000
00000000
02000000
00000000
00000000
03000000
,
1M010000
00000000
10000000
00020000
01000000
00000000
01000000
00000000
,
00100000
00100000
10000000
10000000
,
01000000
01000000
00100000
00100000
,
01000000
00000000
00000000
00000000
00100000
00000000
00000000
00000000
01000000
00000000
00000000
00000000
00230000
00000000
00000000
00300000
,
10M10000
10000000
00000000
11000000
00000000
00110000
00000000
00100000
,
00101000
00001000
00000000
00011000
00000000
00010100
00000000
00000100
,
00001100
00001000
00000000
00001010
00000000
00000101
00000000
00000001
,
00001001
00001000
00000000
00001100
00000000
00011000
00000000
00000100
,
00010000
00001000
00000000
00001000
00100000
00010000
00000000
00100000
,
00001000
00010000
00000000
00000100
00010000
00001000
00000000
00100000
,
00001000
00010000
00001000
00010000
00001000
00010000
00001000
00010000
,
00011000
00011000
00011000
00011000
00011000
00011000
00011000
00011000
,
00110000
01100000
11000000
10100000
,
02010000
00000000
00100000
00200000
00000000
00000000
03300000
00000000
,
11000000
01100000
00110000
00101000
,
00021000
00000000
00000010
00000020
00000000
00000000
00000000
00030030
,
00001001
00000011
00000101
00001010
,
00001020
00000000
00000100
00000200
00000000
00000000
00000330
00000000
,
00000110
00001001
00000110
00001001
,
00000010
00010000
00001000
00100000
10000000
00100000
00001000
00100000
,
00220000
00000000
00000000
00330000
00MM1010
00000000
00000000
00000000
00002020
00000000
00000000
00003030
0011M0M0
00000000
00000000
00000000
,
00220000
00000000
00000000
00330000
00MM1010
00000000
00000000
00000000
00002020
00000000
00000000
00003030
0011M0M0
00000000
00000000
00000000
,
00220000
00000000
00000000
00330000
00MM1010
00000000
00000000
00000000
00002020
00000000
00000000
00003030
0011M0M0
00000000
00000000
00000000
,
00220000
00000000
00000000
00330000
00MM1010
00000000
00000000
00000000
00000100
00000000
00010000
00000000
00000100
00000000
00001000
00000000
,
00002200
00000000
00000000
00003300
0101MM00
00000000
00000000
00000000
02020000
00000000
00000000
03030000
0M0M1100
00000000
00000000
00000000
,
00002200
00000000
00000000
00003300
0101MM00
00000000
00000000
00000000
02020000
00000000
00000000
03030000
0M0M1100
00000000
00000000
00000000
,
00002200
00000000
00000000
00003300
0101MM00
00000000
00000000
00000000
02020000
00000000
00000000
03030000
0M0M1100
00000000
00000000
00000000
,
00002200
00000000
00000000
00003300
0101MM00
00000000
00000000
00000000
01000000
00000000
00100000
00000000
10000000
00000000
00010000
00000000
,
00100000
00001000
00010000
00001000
00100000
00001000
00010000
00001000
,
00100000
00001000
00010000
00001000
00100000
10000000
00100000
00010000
,
01000000
00001000
00010000
00001000
01000000
00001000
00010000
00001000
,
01000000
00001000
00010000
00001000
01000000
00001000
00010000
00000100
,
00002000
00000000
00003100
00020000
00000000
00031000
00200000
00000000
,
10300000
00200000
00000000
01300000
20000000
00000000
30010000
00000000
,
20000000
00000000
31000000
00020000
00000000
01030000
00200000
00000000
,
00000000
00001000
00001000
00000000
00001000
00301000
00000000
00000000
,
00011000
00000000
00010000
00000100
00001100
00000000
00001000
00000000
,
00000010
00000100
00000000
00000210
00000000
00000001
00000302
00000000
,
00000013
00000000
00000100
00001000
00000000
00000100
00010000
00000000
,
00001000
02000000
00000000
03200000
00000000
00000000
20300000
30000000
,
M0110000
00000000
01000000
20000000
01000000
00000000
01000000
00000000
,
00100000
00100000
00010000
00010000
,
00100000
00100000
00010000
00010000
,
00100000
00000000
01000000
00000000
00100000
00000000
00020000
30030000
,
11000000
00000000
01100000
00000000
,
00011000
00000000
00001100
00000000
,
00000110
00000011
00000110
00001100
,
00011000
00011000
00011000
00011000
00011000
00011000
00011000
00011000
,
00010200
00001000
00010000
00001000
,
00010300
00001000
00100000
00002000
00000000
00000000
00000000
00000000
,
00203000
00010000
00001000
00010000
,
00301000
00100000
00010000
02000000
00000000
00000000
00000000
03000000
,
10200000
01300000
00210000
00301000
,
00010000
00000010
00000100
00000002
00000000
00000000
00000000
00000003
,
00000021
00000130
00002100
00003010
,
00000010
00000010
00010000
00010000
00001000
00001000
00100000
00100000
,
02200000
00000000
00000000
03300000
0MM11000
00000000
00000000
00000000
00000220
00000000
00000000
00000330
00011MM0
00000000
00000000
00000000
,
02200000
00000000
00000000
03300000
0MM11000
00000000
00000000
00000000
00000220
00000000
00000000
00000330
00011MM0
00000000
00000000
00000000
,
02200000
00000000
00000000
03300000
0MM11000
00000000
00000000
00000000
00000220
00000000
00000000
00000330
00011MM0
00000000
00000000
00000000
,
02200000
00000000
00000000
03300000
0MM11000
00000000
00000000
00000000
00010000
00000000
00001000
00000000
00010000
00000000
00000010
00000000
,
00000220
00000000
00000000
00000330
00011MM0
00000000
00000000
00000000
02200000
00000000
00000000
03300000
0MM11000
00000000
00000000
00000000
,
00000220
00000000
00000000
00000330
00011MM0
00000000
00000000
00000000
02200000
00000000
00000000
03300000
0MM11000
00000000
00000000
00000000
,
00000220
00000000
00000000
00000330
00011MM0
00000000
00000000
00000000
02200000
00000000
00000000
03300000
0MM11000
00000000
00000000
00000000
,
00000000
20020000
30030000
00022000
,
00033000
00002002
00003003
00022000
,
00033000
02000000
00000000
00000000
,
00000000
00000000
00000000
00000000
,
00000000
03000000
00000000
00000000
;
