#VERSION:0.83;
#TITLE:Rising Sun;
#SUBTITLE:;
#ARTIST:Yuta Imai;
#TITLETRANSLIT:;
#SUBTITLETRANSLIT:;
#ARTISTTRANSLIT:;
#GENRE:;
#ORIGIN:;
#CREDIT:;
#BANNER:Rising Sun.png;
#BACKGROUND:Rising Sun-bg.png;
#PREVIEWVID:;
#JACKET:Rising Sun-jacket.png;
#CDIMAGE:;
#DISCIMAGE:;
#LYRICSPATH:;
#CDTITLE:;
#MUSIC:Rising Sun.ogg;
#OFFSET:-0.121000;
#SAMPLESTART:41.912998;
#SAMPLELENGTH:24.774000;
#SELECTABLE:YES;
#BPMS:0.000=155.000;
#STOPS:;
#DELAYS:;
#WARPS:;
#TIMESIGNATURES:0.000=4=4;
#TICKCOUNTS:0.000=4;
#COMBOS:0.000=1;
#SPEEDS:0.000=1.000=0.000=0;
#SCROLLS:0.000=1.000;
#FAKES:;
#LABELS:0.000=Song Start;
#BGCHANGES:0.000=Rising Sun.avi=1.000=0=0=0=StretchNoLoop====,
99999=-nosongbg-=1.000=0=0=0 // don't automatically add -songbackground-
;
#KEYSOUNDS:;
#ATTACKS:
;

//---------------dance-single - ----------------
#NOTEDATA:;
#CHARTNAME:;
#STEPSTYPE:dance-single;
#DESCRIPTION:;
#CHARTSTYLE:;
#DIFFICULTY:Beginner;
#METER:5;
#RADARVALUES:0.197288,0.368803,0.119741,0.023948,0.000000,173.000000,158.000000,15.000000,3.000000,0.000000,0.000000,0.000000,0.000000,0.000000,0.197288,0.368803,0.119741,0.023948,0.000000,173.000000,158.000000,15.000000,3.000000,0.000000,0.000000,0.000000,0.000000,0.000000;
#CREDIT:Pandemonium X;
#NOTES:
0000
0000
0000
0000
,
0000
0000
0000
0000
,
0000
0000
0000
0000
,
0001
0000
0000
0100
,
0000
0000
0000
0000
,
0010
0000
1000
0000
,
0100
0100
0100
0000
,
0010
0000
0000
0100
,
0000
0000
0000
0000
,
1000
0000
0000
0000
,
0001
1000
0001
0000
,
0110
0000
0100
0000
,
0001
0000
0010
0000
,
0001
0000
1000
0000
,
0100
0000
1000
0001
,
1000
0000
0100
0000
,
1000
0000
0010
0000
,
0100
0100
0100
0000
,
0010
0010
0010
0000
,
1001
0000
0001
0001
,
0000
0000
1000
1000
,
0000
0000
0100
0100
,
0010
0000
0100
0000
,
1000
1000
0001
0000
,
0100
0100
0010
0000
,
1000
0000
0001
0000
,
0110
0100
0010
0000
,
1001
0000
0001
0000
,
1000
1000
0001
0000
,
1000
0000
0010
0000
,
0200
0000
0300
0000
,
0010
0000
1000
0000
,
0100
0100
0010
0000
,
0001
0000
1000
0000
,
0110
0000
0000
0000
,
1001
0000
0000
0000
,
0001
0001
1000
0000
,
0001
0000
0100
0000
,
0020
0000
0030
0100
,
0001
0000
0010
0000
,
0100
0100
1000
0000
,
0001
0000
1000
0000
,
0110
0000
0000
0000
,
1001
0000
0000
0000
,
0000
0000
0000
0000
,
1000
0000
0100
0000
,
0010
0010
0001
0000
,
0100
0000
0000
0000
,
0010
0000
0000
0100
,
0100
0000
0000
0001
,
1000
0000
0000
0000
,
0001
0000
0100
0000
,
0010
0000
1000
0000
,
0100
0000
0010
0000
,
0002
0000
0000
0003
,
0010
0000
0100
0000
,
0000
1000
0001
1000
,
0000
0000
0000
0000
,
0001
0100
0010
0000
,
0110
0000
1001
0000
,
0110
0110
0110
0000
,
1001
0000
1000
0000
,
0001
0000
0010
0100
,
1000
0000
0100
0000
,
1000
0000
0010
0100
,
0010
0000
0100
0000
,
0001
0000
0010
0100
,
1000
0000
0100
0000
,
1000
0001
0100
0010
,
0000
0100
0000
0001
,
0000
0010
0000
0100
,
1000
0010
0000
0100
,
0001
0000
1000
0001
,
0010
0001
0000
0100
,
0000
0010
0000
1000
,
0100
0000
0010
0000
,
0001
0010
0001
0000
,
1001
0000
0000
0000
;

//---------------dance-single - ----------------
#NOTEDATA:;
#CHARTNAME:;
#STEPSTYPE:dance-single;
#DESCRIPTION:;
#CHARTSTYLE:;
#DIFFICULTY:Easy;
#METER:8;
#RADARVALUES:0.335276,0.430271,0.295362,0.183603,0.000000,294.000000,257.000000,37.000000,23.000000,0.000000,0.000000,0.000000,0.000000,0.000000,0.335276,0.430271,0.295362,0.183603,0.000000,294.000000,257.000000,37.000000,23.000000,0.000000,0.000000,0.000000,0.000000,0.000000;
#CREDIT:Pandemonium X;
#NOTES:
0000
0000
0000
0000
,
0000
0000
0000
0000
,
0000
0000
0000
0000
,
2002
0000
0000
0000
,
0000
0000
0000
3003
,
0001
0100
1000
0100
,
0001
1000
0001
0000
,
2000
3100
0001
0101
,
0002
0103
1000
0100
,
0010
0001
0010
0100
,
2000
3002
2000
3003
,
0101
0010
1000
0100
,
0001
0100
1000
0010
,
0100
0001
0010
0100
,
0010
0001
1000
0010
,
0100
0001
0100
0010
,
0100
0001
0100
0010
,
2000
0100
3010
0001
,
2000
0100
3002
0103
,
0010
0000
1000
0000
0001
0100
0001
0000
,
0100
0000
0010
0000
1000
0001
1000
0000
,
0001
0000
0010
0000
0100
1000
0100
0000
,
1100
0000
0000
0000
,
0100
0000
0011
0000
0001
1000
0010
0000
,
1000
0000
0001
0000
0100
0001
0010
0000
,
0100
0000
1000
0000
0100
1000
0010
0000
,
0200
0320
0200
0330
,
1000
0001
0010
0001
,
1000
1000
0001
1000
,
1010
0011
0010
0100
,
2100
0000
3000
0100
,
1000
0010
0001
0010
,
0100
0100
0010
1000
,
0010
0000
0000
1000
0000
0000
0001
1000
,
0020
0000
0000
0000
0030
0000
0100
0001
,
0010
0100
1000
0100
,
1000
0010
0001
0010
,
0110
0101
0001
1000
,
0102
0000
0003
1000
,
0001
0010
0001
1000
,
0100
0100
0010
0100
,
0110
0000
1001
0000
0001
0100
0010
0000
,
2020
0000
0000
3030
,
0101
0000
0000
0000
,
0000
0000
0000
0000
,
0001
0000
0100
0000
,
0010
0000
1000
0010
,
0101
0000
0000
0001
,
1100
0000
0000
1000
,
0101
0000
0000
0000
,
0020
0000
0000
0030
,
0100
0000
0010
0000
,
1000
0000
0001
0000
,
0010
0000
0001
0000
,
2000
0000
0000
3000
,
0001
1000
0010
1000
,
0001
0010
0100
0010
,
0001
1000
0010
0100
,
0001
1000
0010
1000
,
0010
0010
0010
0010
,
0110
1001
0110
0000
,
1000
0100
1000
0010
,
0100
0001
0010
0110
,
0100
0010
0001
1000
,
0010
0000
0100
0000
0001
0000
1000
0001
,
0100
0001
0010
0001
,
1000
0100
0010
0011
,
0010
0100
1000
0100
,
1000
0100
0010
0001
0010
0100
1000
0000
,
0001
1010
0001
1010
,
0001
1010
0001
1001
,
1000
0011
1000
0011
,
1000
0000
0011
0000
1000
0000
0001
1000
,
0010
1010
1000
1100
,
0100
0110
0010
1100
,
0010
0011
0001
0101
,
0002
2003
0002
3003
,
0110
0000
0000
0000
;

//---------------dance-single - ----------------
#NOTEDATA:;
#CHARTNAME:;
#STEPSTYPE:dance-single;
#DESCRIPTION:;
#CHARTSTYLE:;
#DIFFICULTY:Medium;
#METER:11;
#RADARVALUES:0.432209,0.553205,0.447034,0.119741,0.007983,379.000000,323.000000,56.000000,15.000000,0.000000,0.000000,0.000000,0.000000,0.000000,0.432209,0.553205,0.447034,0.119741,0.007983,379.000000,323.000000,56.000000,15.000000,0.000000,0.000000,0.000000,0.000000,0.000000;
#CREDIT:Pandemonium X;
#NOTES:
0000
0000
0000
0000
,
0000
0000
0000
0000
,
0000
0000
0000
0000
,
0002
0100
0100
1000
,
0100
0100
0100
0103
,
0001
0100
0001
1000
,
0100
0010
0001
0010
0100
0000
1000
0000
,
1000
0100
0010
0011
,
0001
0100
0010
1000
,
0001
0100
0010
1000
0010
0100
0001
1000
,
0002
2003
0200
3300
,
0011
0011
1100
1100
,
0011
1100
0011
1100
,
0101
0101
1010
1010
,
0101
1010
0101
1010
,
1000
0001
1000
0000
0001
0100
0001
0000
,
0100
0010
0100
0000
0010
1000
0010
0000
,
1000
0000
1000
0100
0010
0000
0010
0100
,
1000
0100
0010
0001
1000
0000
0110
0000
,
0001
0000
0100
0000
0010
0010
0010
0000
,
0100
0000
0001
0000
1000
1000
1000
0000
,
0100
0000
0010
0000
0001
0001
0001
0000
,
0010
0000
0000
0010
0000
0000
0100
0000
0000
0100
0000
0000
1000
0000
0000
0000
,
0001
0000
1010
0000
1000
1000
0001
0000
,
0100
0000
0001
0000
0010
0010
0100
0000
,
0010
0000
0001
0000
1000
1000
0001
0000
,
0120
0230
0002
0303
,
0001
0100
0010
1000
,
0100
0010
0100
1000
,
0010
0100
0001
0010
,
1000
0000
0010
0000
0001
0000
1000
1000
,
0001
1000
0010
0001
,
0010
0100
0001
1000
,
0001
0000
1000
0001
0000
0001
0010
0010
,
0100
0000
0010
0001
0000
1000
0100
0000
,
0110
0000
1000
1100
0000
0101
0000
0000
,
0010
1000
0100
0010
,
0100
1000
0001
0100
,
1000
0000
0100
0010
1000
0001
1000
0100
,
0010
0001
0100
0010
,
1000
0000
0001
0000
0010
0000
0100
0010
,
0001
0000
0011
0000
0001
0100
1000
0000
,
0202
0000
0000
0303
,
1010
0000
0000
0000
,
0000
0000
1000
0001
0010
0000
0100
0010
,
0001
1000
0000
0000
,
0000
0000
0001
1000
,
1010
0000
0000
0101
,
0011
0000
0000
1001
,
1100
0000
0000
0200
,
0000
0000
0000
0300
,
1000
0000
0001
0000
0100
0000
0001
0010
,
0001
0100
0010
1000
,
0100
0010
0001
0010
0100
1000
0001
0000
,
1000
0010
1000
0001
,
0100
0000
0001
0010
0100
0000
0010
0000
,
0100
0000
1000
0100
0010
0010
0001
0000
,
1000
0001
1000
0001
,
1000
0010
0100
0001
1000
0000
1000
0010
,
0110
1001
1001
0110
,
0110
1001
0220
0330
,
0001
0000
1000
0000
0100
0000
0010
0100
,
1000
0000
0100
0000
0010
0000
0011
0010
,
0001
0000
0100
0000
0010
0000
1000
0001
,
0100
0000
0001
0000
0010
0100
1000
0100
,
0010
0100
1000
0010
,
0100
0001
0010
0110
,
0100
0010
0001
1000
,
0001
0100
1000
0100
0001
1000
0100
0000
,
0010
0011
0010
0110
,
0100
1100
0010
1001
,
0001
0110
1000
0101
,
0011
0010
0010
0000
0011
0000
1100
0000
,
0001
1010
1000
0011
,
0001
0101
1000
1001
,
0001
0011
0100
1100
,
2000
3002
0200
0303
,
1010
0000
0000
0000
;

//---------------dance-single - ----------------
#NOTEDATA:;
#CHARTNAME:;
#STEPSTYPE:dance-single;
#DESCRIPTION:;
#CHARTSTYLE:;
#DIFFICULTY:Hard;
#METER:14;
#RADARVALUES:0.591864,0.768340,0.423086,0.311328,0.191586,519.000000,466.000000,53.000000,39.000000,0.000000,0.000000,0.000000,0.000000,0.000000,0.591864,0.768340,0.423086,0.311328,0.191586,519.000000,466.000000,53.000000,39.000000,0.000000,0.000000,0.000000,0.000000,0.000000;
#CREDIT:Pandemonium X;
#NOTES:
0000
0000
0000
0000
,
0000
0000
0000
0000
,
0000
0000
0000
0000
,
0102
0100
0010
0010
,
1000
1000
0100
0103
,
0010
0100
0001
1000
0001
0000
0010
0100
,
1000
0100
0010
0100
1000
0000
0000
0000
,
0001
0010
0001
0010
0100
1000
0100
1000
,
0010
1000
0010
1000
0001
0100
0001
0100
,
0010
0000
0010
0000
0100
0000
0100
0000
0001
1000
0001
1000
0001
1000
0001
1000
,
0001
0000
0000
0000
,
1010
1010
0101
0101
,
1010
0101
1010
0101
,
1100
1100
0011
0011
,
1100
0000
0000
0000
0011
0000
0000
0000
1000
0100
0000
0100
1000
0010
0100
0000
,
0001
0010
0100
1000
0001
0010
0100
1000
,
0001
0010
0100
1000
0001
0010
0100
1000
,
0010
0010
0001
0010
0200
0000
0310
1000
,
0100
0010
0001
1000
0002
0000
0010
0000
,
1003
0100
0110
0000
0010
0001
0101
0000
,
0100
0000
0010
0000
1010
0000
0000
0000
1000
0001
0000
0001
1000
0000
0001
0000
,
0010
0100
1100
0000
1000
0001
0011
0000
,
0101
0000
0000
0101
0000
0000
1010
0000
0000
1010
0000
0000
1001
0000
0000
0000
,
0001
1000
0100
0000
0011
0000
0000
0000
0020
0000
0130
0000
2000
0000
3010
0000
,
0100
0000
0101
0001
0020
0031
0200
0310
,
1000
0000
0000
0000
0100
0010
0100
0010
0001
0010
0100
1000
0001
0000
0000
0000
,
0110
0000
0000
0000
,
1000
0010
0001
0010
0200
0000
0301
1000
,
0001
0010
0100
1000
0001
0000
1000
0001
,
0011
0000
1010
0000
1000
0001
0021
0000
,
0200
0000
0000
0000
0330
0000
0100
1000
,
0001
0100
1000
0100
0020
0000
1030
0001
,
1000
0100
0010
0001
1000
0000
0001
1000
,
1020
0000
0130
0102
0000
0013
1000
0010
,
0021
0000
0100
0100
0000
0100
0130
0000
,
1001
0000
0010
0110
0000
0110
0000
0000
,
1000
0100
0010
0001
1000
0000
0001
1000
,
0002
0000
0023
0000
0130
0010
0002
0000
,
0200
0000
0000
0000
0000
0000
0000
0000
0303
0000
0000
0000
0010
1000
0010
1000
,
0010
0100
0001
1000
0001
0000
0010
0100
,
0010
0001
1000
0010
1000
0000
0100
0010
,
0100
0000
1100
0000
1000
0001
0010
0000
,
2002
0000
0000
3003
,
0110
0001
1000
0001
,
0100
0010
0100
0010
,
1000
0100
0010
0100
1000
0001
0010
0100
,
0010
0001
1000
0100
0010
0000
0000
0000
,
0200
1000
0010
1300
,
0020
0100
1000
0130
,
0001
1000
0010
1000
,
0100
0010
0200
2300
,
3010
0000
0000
0010
0000
0000
0010
0000
0000
0010
0000
0000
0010
0000
0100
0010
,
0100
0000
0000
0100
0000
0000
0100
0000
0000
0100
0000
0000
0100
0000
0010
0100
,
0010
0000
0000
0010
0000
0000
0010
0000
0000
0010
0000
0000
0010
0000
0100
0010
,
0100
0000
0000
0100
0000
0000
0100
0000
0000
0100
0000
0000
0100
0000
0010
0100
,
0010
0010
1000
0001
0010
1000
0010
0001
,
0100
0100
0001
1000
0100
0001
0100
1000
,
0010
1000
0010
1000
0001
0100
0001
0100
0001
0010
0001
0010
0100
1000
0100
1000
,
0001
0000
0000
0000
,
0002
0023
0230
2300
,
3001
0100
1000
0010
0001
0000
1001
0000
,
1000
0000
0001
0000
0010
0000
0001
0000
1000
0000
0000
0010
0100
0000
0001
0000
,
1000
0000
0100
0000
1000
0000
0001
0000
0100
0000
0000
0010
2000
0000
0000
0000
,
3100
0000
0010
0000
0001
0000
0010
0000
0100
0000
0000
0010
0001
0000
1000
0000
,
0010
0000
1000
0000
0100
0000
0010
0000
0001
0000
0000
1000
0001
0010
0001
0000
,
0100
0000
0010
0000
1000
0000
0001
0000
0010
0000
0000
0100
0010
0000
0001
0000
,
0010
0000
0100
0000
1000
0000
0001
0000
0010
0000
0000
0100
0020
0000
0000
0000
,
0031
0100
0001
1000
0100
0100
0010
0010
,
0002
0023
2030
3020
0032
0203
0320
0030
,
1000
0001
0011
0010
0100
1000
1001
1000
,
0001
0010
0110
0100
1000
0010
0210
0000
,
0301
0010
0110
0100
1000
0010
1010
1000
,
0001
1000
0001
0000
1000
0000
0100
0000
0001
0000
0100
0000
1000
0000
0010
0000
,
0100
0001
0011
0010
0100
1000
1001
0001
,
1000
0010
0110
0100
0001
0010
0120
0000
,
0130
0000
1000
0000
1010
0000
0010
0000
0100
0000
0001
0000
0010
0100
0010
0100
,
1000
0000
0000
0000
,
0011
0000
0000
0000
;

//---------------dance-single - ----------------
#NOTEDATA:;
#CHARTNAME:;
#STEPSTYPE:dance-single;
#DESCRIPTION:;
#CHARTSTYLE:;
#DIFFICULTY:Challenge;
#METER:16;
#RADARVALUES:0.721869,0.891275,0.662569,0.423086,0.423086,633.000000,547.000000,83.000000,53.000000,8.000000,3.000000,0.000000,0.000000,0.000000,0.721869,0.891275,0.662569,0.423086,0.423086,633.000000,547.000000,83.000000,53.000000,8.000000,3.000000,0.000000,0.000000,0.000000;
#CREDIT:Pandemonium X;
#NOTES:
0000
0000
0000
0000
,
0000
0000
0000
0000
,
0000
0000
0000
0000
,
1020
0100
1000
0230
,
0320
1000
0100
1030
,
0001
0010
1000
0010
0001
0100
1000
0100
,
0010
0000
0000
0000
0000
0000
1000
0000
0000
0000
0000
0000
0001
0000
0000
0000
0000
0000
0010
0000
0000
0000
0000
0000
0100
0000
0000
1000
0000
0000
0000
0000
0100
0000
0000
0000
1000
0000
0000
0100
0000
0000
1000
0000
0000
0000
0000
0000
,
0001
0001
1000
0001
0100
0100
0020
0100
,
1030
1000
0010
0100
0001
0001
0010
0100
,
0010
0001
0010
0001
1000
0100
1000
0100
1000
0010
1000
0010
1000
0001
1000
0001
,
0200
0320
2000
3030
,
0011
0101
0011
2001
,
3100
0000
0000
0000
0110
0000
0000
0001
0010
0000
0100
1000
0010
0000
0100
0001
,
1000
0000
0000
0000
0000
0000
0100
0000
0000
1000
0000
0000
0010
0000
0000
0000
0000
0000
0100
0000
0000
0001
0000
0000
1000
0000
0000
0000
0000
0000
0100
0000
0000
0010
0000
0000
0002
0000
0000
0000
0000
0000
1003
0000
0001
0000
1000
0000
,
0001
0000
0100
0010
1000
0000
0100
0010
0001
0100
0000
0010
0100
0001
1000
0000
,
0001
0010
0100
1000
0001
0100
1000
0100
,
0001
0010
0100
1000
0001
0100
1000
0100
,
0001
0010
1000
0010
0210
0000
0310
0001
,
0010
1000
0100
0010
0011
0000
MMMM
0000
,
1100
0000
0000
0000
0011
0000
0010
0001
0100
0010
0100
0010
0200
0000
0000
0000
,
0310
0000
0000
0000
1010
0000
1000
0001
0010
0100
0010
0100
0020
0000
0000
0000
,
0031
0000
0000
0000
1010
0000
1000
0001
0010
0100
0010
0100
0020
0000
0000
0000
,
0031
0000
0000
1100
0000
0000
0001
0000
1000
0001
0100
0000
0220
0000
0300
0000
,
1030
0001
0010
0000
1100
0000
1000
0001
0100
0010
0100
0010
0200
0000
0000
0000
,
0301
0000
0000
0000
1000
0000
0001
0010
0100
0010
0100
0010
0200
0000
0000
0000
,
1300
0000
0000
0000
0100
0010
0001
1000
0010
0100
0010
0100
0020
0000
0000
0000
,
2030
3002
0020
0033
,
1100
1000
0100
0001
0200
0000
0310
0001
,
0100
1000
0100
0010
1010
0000
1000
0001
,
0011
0000
1010
0000
0001
0010
0110
0000
,
2200
0000
0000
0000
3300
0000
1000
0001
,
0100
1000
0100
0010
2000
0000
3001
0010
,
1000
0010
0100
0010
0002
0000
0013
0100
,
1100
0000
0000
0000
0000
0000
0011
0000
0000
0101
0000
0000
0000
0000
0000
1010
0000
0000
0101
0000
0000
0001
1000
0001
,
1000
0000
0000
0010
0100
0010
0100
0000
0000
0110
0000
0000
0000
0000
0000
0110
0000
0000
0000
0000
0000
1000
0001
1000
,
0001
0000
1110
0111
0000
1011
0000
0000
,
0001
0010
1000
0010
0110
0000
0100
0010
,
0011
0000
1010
0000
1000
0001
0101
0000
,
1002
0000
0000
0000
0000
0000
0100
0000
0000
0100
0000
0000
0103
0000
0000
0100
0000
0000
0010
0100
0010
0100
0000
0000
,
0001
0010
1000
0010
0002
0000
0103
1000
,
0100
0010
1000
0001
0020
0000
0130
0010
,
0011
0000
1100
0000
0001
0100
2000
0000
,
0200
0000
0000
3300
,
0101
0001
0010
0001
,
1000
0100
0001
0100
,
1000
0100
0010
0001
0010
1000
0010
0001
,
0100
0000
0000
0000
0000
0000
1000
0000
0000
0000
0000
0000
0100
0000
0000
0000
0000
0000
0001
0000
0000
0000
0000
0000
1000
0000
0000
0001
0000
0000
0000
0000
1000
0000
0001
0000
1000
0000
0000
0001
0000
0000
0100
0000
0000
0000
0000
0000
,
0201
0000
0000
0010
,
0001
0000
0000
0001
,
0020
0000
0000
0000
0000
0000
0330
0000
0000
1000
1000
1000
,
0002
0023
0130
1000
,
1100
0000
0000
0100
0000
0000
0100
0000
0000
0100
0000
0000
0100
0000
0100
0010
,
0001
0000
0000
0001
0000
0000
0001
0000
0000
0001
0000
0000
0001
0000
0001
0100
,
0010
0000
0000
0010
0000
0000
0010
0000
0000
0010
0000
0000
0010
0000
0010
1000
,
0100
0000
0000
0100
0000
0000
0100
0000
0000
0100
0000
0000
0100
0000
0010
0100
,
1000
1000
0001
0100
0010
0010
0100
0010
,
1000
1000
0001
0010
0100
0100
0010
0100
,
1000
0100
1000
0100
1000
0100
1000
0100
0010
0001
0010
0001
0010
0001
0010
0001
,
1000
0001
0100
0001
0010
0000
0100
0001
,
0011
1010
0011
1010
,
0002
0203
2300
3020
0032
0000
0000
0003
,
1010
0000
0010
0000
1010
0000
1000
0000
1010
0000
0000
0100
0001
0000
0010
0000
,
0110
0000
0100
0000
0110
0000
0010
0000
0110
0000
0000
0100
2000
0000
3001
0100
,
0101
0000
0100
0000
0101
0000
0001
0000
0101
0000
0000
0010
1000
0000
0100
0000
,
0110
0000
0000
0000
0000
0000
0010
0000
0000
0000
0000
0000
0110
0000
0000
0000
0000
0000
0011
0000
0000
0000
0000
0000
1001
0000
0000
1000
0000
0000
0001
0000
1000
0000
0001
0000
1000
0000
0000
0001
0000
0000
1000
0000
0000
0000
0000
0000
,
0101
0000
0100
0000
0101
0000
0001
0000
0101
0000
0000
0010
1000
0000
0100
0000
,
0110
0000
0010
0000
0110
0000
0100
0000
0110
0000
0000
0100
2000
0000
3000
0000
,
1010
0000
0010
0000
1010
0000
1000
0000
1010
0000
0000
0100
0001
0000
1000
0000
,
0102
0000
0000
0000
0000
0000
0000
0000
0000
0000
0000
0000
0000
0000
0000
0000
0000
0000
0000
0000
0000
0000
0000
0M00
0013
0000
0000
0000
0000
0000
0000
0000
0000
0000
0000
0000
0000
0000
0000
0000
0000
0000
0000
0000
0000
0000
0000
0000
2100
0000
0000
0000
0000
0000
0000
0000
0000
0000
0000
0000
0000
0000
0000
0000
0000
0000
0000
0000
0000
0000
0000
0000
3M10
0000
0000
0000
0000
0000
0000
0000
0000
0000
0000
0000
0000
0000
0000
0000
0000
0000
0000
0000
0000
0000
0000
0000
2001
0000
0000
0000
0000
0000
0000
0000
0000
0000
0000
0000
0000
0000
0000
0000
0000
0000
0000
0000
0000
0000
0000
0000
0100
0000
0000
0000
0000
0000
0000
0000
0000
0000
0000
0000
0000
0000
0000
0000
0000
0000
0000
0000
0000
0000
0000
0000
3100
0000
0000
0000
0000
0000
0000
0000
0000
0000
0000
0000
0000
0000
0000
0000
0000
0000
0000
0000
0000
0000
0000
0000
0000
0000
0000
0000
0000
0000
0000
0000
0000
0000
0000
0000
0000
0000
0000
0000
0000
0000
0000
0000
0000
0000
0000
0000
,
0101
0000
0001
0100
0010
0000
1000
0000
1100
0000
0100
1000
0010
0000
0100
0000
,
0101
0000
0001
0010
0100
0000
0010
0000
0011
0000
0001
0000
2001
0000
0000
0000
,
3010
0000
1000
0100
0010
0000
0001
0000
0011
0000
0001
0100
0010
0000
0100
0000
,
0001
0100
0001
0000
0101
0000
0001
0000
2000
0000
3200
0000
0320
0000
0130
0000
,
1100
0000
0100
1000
0010
0000
0100
0000
0101
0000
0001
1000
0010
0000
0100
0000
,
0101
0000
0001
0010
0100
0000
0010
0000
0011
0000
0001
1000
0200
0000
0000
0000
,
0310
0000
0001
0010
0100
0000
0010
0000
0011
0000
0001
0100
0010
0100
0010
0100
,
0020
0000
2030
0000
0002
0000
0000
3003
,
M11M
0000
0000
0000
;

//---------------dance-double - ----------------
#NOTEDATA:;
#CHARTNAME:;
#STEPSTYPE:dance-double;
#DESCRIPTION:;
#CHARTSTYLE:;
#DIFFICULTY:Easy;
#METER:8;
#RADARVALUES:0.343259,0.430271,0.263431,0.087810,0.000000,301.000000,268.000000,33.000000,11.000000,0.000000,0.000000,0.000000,0.000000,0.000000,0.343259,0.430271,0.263431,0.087810,0.000000,301.000000,268.000000,33.000000,11.000000,0.000000,0.000000,0.000000,0.000000,0.000000;
#CREDIT:Pandemonium X;
#NOTES:
// measure 0
00000000
00000000
00000000
00000000
,  // measure 1
00000000
00000000
00000000
00000000
,  // measure 2
00000000
00000000
00000000
00000000
,  // measure 3
10000000
10000000
00010000
10010000
,  // measure 4
00010000
00010000
00100000
00100000
,  // measure 5
00001000
00010000
00000100
00001000
,  // measure 6
00000010
00000100
00000001
00000000
,  // measure 7
00001000
00000001
00000010
00001001
,  // measure 8
00000001
00000100
00000010
00001000
,  // measure 9
00000100
00010000
00001000
00100000
,  // measure 10
00001000
00010000
00011000
00000000
,  // measure 11
00001000
00001000
00100000
00110000
,  // measure 12
00010000
00000000
00010000
00000000
01000000
00000000
01000000
00100000
,  // measure 13
01000000
01000000
00100000
01100000
,  // measure 14
10000000
00000000
10000000
00000000
00010000
00000000
00100000
00001000
,  // measure 15
00010000
00000100
00010000
00001000
,  // measure 16
01000000
00001000
00010000
00000100
,  // measure 17
00010000
00000100
00002000
00003010
,  // measure 18
00000100
00000001
00000020
00000130
,  // measure 19
00001001
00000000
00000001
00000000
00000010
00000001
00000010
00000000
,  // measure 20
00000100
00000000
00001000
00000000
00000100
00010000
00000100
00000000
,  // measure 21
00010000
00000000
00001000
00000000
01000000
00001000
01000000
00000000
,  // measure 22
01100000
00000000
00000000
10010000
00000000
00000000
01100000
00000000
,  // measure 23
10000000
01000000
00100000
00000000
01000000
10000000
01000000
00000000
,  // measure 24
10000000
00000000
00010000
00000000
00100000
00001000
00100000
00000000
,  // measure 25
00001000
00000000
00010000
00000000
00000100
00010000
00000100
00000000
,  // measure 26
00011000
00000000
00000000
00000000
,  // measure 27
00010000
00000100
00001000
00000010
,  // measure 28
00000001
00000010
00000100
00000010
,  // measure 29
00001000
00000100
00010000
00001000
,  // measure 30
00022000
00000000
00000000
00000000
00033000
00000000
00001000
00100000
,  // measure 31
00001000
00100000
00001000
00010000
,  // measure 32
00001000
01000000
00100000
10000000
,  // measure 33
01000000
00000000
00000000
00100000
00000000
00000000
01000000
00100000
,  // measure 34
00020000
00000000
00030000
00000000
,  // measure 35
00100000
00000000
00001000
00010000
00000000
00011000
00000000
00000000
,  // measure 36
00010000
00000100
00001000
00000010
,  // measure 37
00000100
00000000
00000001
00000000
00000010
00000100
00000010
00000000
,  // measure 38
00000022
00000000
00000033
00001000
,  // measure 39
00000100
00010000
00001000
00100000
,  // measure 40
00001000
00010000
00000010
00000100
,  // measure 41
00000001
00000000
00000010
00000000
00000100
00010000
00001000
00000000
,  // measure 42
00022000
00000000
00000000
00000000
,  // measure 43
00033000
00000000
00000000
00000000
,  // measure 44
00000000
00100000
00010000
01000000
,  // measure 45
00100000
10000000
00000000
00000000
,  // measure 46
00000000
00000000
00000000
00000000
,  // measure 47
00110000
00000000
00000000
00001000
,  // measure 48
00011000
00000000
00000000
00010000
,  // measure 49
00010100
00000000
00000000
00002000
,  // measure 50
00003000
00000000
00000000
00000000
,  // measure 51
00000001
00000100
00000010
00001000
,  // measure 52
00000100
00000000
00000000
00000000
,  // measure 53
00010000
00001000
01000000
00000000
,  // measure 54
00200000
00000000
00000000
00300000
,  // measure 55
01000000
00000000
00010000
00000000
,  // measure 56
00000000
00100000
00001000
00010000
,  // measure 57
00000000
00000000
00000000
00000000
00000000
00000000
00000000
00000100
,  // measure 58
00010000
00001000
01000000
00100000
10000000
00000000
00010000
00000000
,  // measure 59
10010000
00100000
10010000
01000000
,  // measure 60
10000000
01000000
00100000
00010000
00100000
00000000
00000000
00000000
,  // measure 61
00001000
00010000
00000100
00001000
,  // measure 62
00000010
00000100
00000001
00001100
,  // measure 63
00000100
00010000
00001000
01000000
,  // measure 64
00100000
00000000
10000000
00000000
00010000
00100000
01000000
10000000
,  // measure 65
00010000
00100000
00001000
00010000
,  // measure 66
00000100
00001000
00000010
00000110
,  // measure 67
00000100
00000001
00000010
00000100
,  // measure 68
00001000
00000100
00001000
00000100
00000010
00000001
00001000
00000000
,  // measure 69
00000001
00001001
00001000
00001010
,  // measure 70
00000010
00000110
00000010
00010010
,  // measure 71
00010000
00011000
00001000
01001000
,  // measure 72
01000000
01000000
01000000
00000000
00100000
00000000
10000000
00000000
,  // measure 73
00010000
00110000
00100000
01100000
,  // measure 74
01000000
11000000
10000000
10100000
,  // measure 75
01010000
00000000
00010000
00000000
00100000
00001000
00010000
00000000
,  // measure 76
00000100
00010000
00001000
00000000
,  // measure 77
00011000
00000000
00000000
00000000
;

//---------------dance-double - ----------------
#NOTEDATA:;
#CHARTNAME:;
#STEPSTYPE:dance-double;
#DESCRIPTION:;
#CHARTSTYLE:;
#DIFFICULTY:Medium;
#METER:11;
#RADARVALUES:0.461860,0.553205,0.694500,0.095793,0.007983,405.000000,318.000000,87.000000,12.000000,0.000000,0.000000,0.000000,0.000000,0.000000,0.461860,0.553205,0.694500,0.095793,0.007983,405.000000,318.000000,87.000000,12.000000,0.000000,0.000000,0.000000,0.000000,0.000000;
#CREDIT:Pandemonium X;
#NOTES:
// measure 0
00000000
00000000
00000000
00000000
,  // measure 1
00000000
00000000
00000000
00000000
,  // measure 2
00000000
00000000
00000000
00000000
,  // measure 3
00010000
01000000
00010000
00101000
,  // measure 4
00100000
00001000
00010000
00000100
,  // measure 5
00001000
00000100
00001000
00000000
00000100
00000010
00000100
00000000
,  // measure 6
00000010
00000001
00000100
00000010
00001000
00000000
00000000
00000000
,  // measure 7
00000010
00010000
00001000
00011000
,  // measure 8
00001000
01000000
00100000
10000000
,  // measure 9
00010000
00100000
01000000
10000000
00010000
00100000
01000000
10000000
,  // measure 10
00020000
00230000
00002000
00303000
,  // measure 11
00101000
00101000
00011000
00011000
,  // measure 12
00010100
00010100
00001100
00001100
,  // measure 13
00000110
00000110
00000011
00000011
,  // measure 14
00000101
00000101
00000110
00000110
,  // measure 15
00000010
00001000
00000010
00000000
00001000
00000000
00001100
00000000
,  // measure 16
00000100
00010000
00000100
00000000
00010000
00000000
00011000
00000000
,  // measure 17
00001000
01000000
10000000
01000000
00010000
00000000
00010000
01000000
,  // measure 18
10000000
01000000
00010000
10000000
01000000
00000000
00110000
00000000
,  // measure 19
10000000
00000000
10010000
00000000
00010000
00010000
00010000
00000000
,  // measure 20
00100000
00000000
00101000
00000000
00001000
00001000
00001000
00000000
,  // measure 21
00010000
00000000
00011000
00000000
00001000
00001000
00001000
00000000
,  // measure 22
00010000
00000000
00000000
00000010
00000000
00000000
00000100
00000000
00000000
00000001
00000000
00000000
00001001
00000000
00000000
00000000
,  // measure 23
00001000
00000001
00000110
00000000
00000001
00000001
00000001
00000000
,  // measure 24
00001000
00000000
00001100
00000000
00000100
00000100
00000100
00000000
,  // measure 25
00010000
00000000
00011000
00000000
00001000
00001000
00001000
00000000
,  // measure 26
02000000
03020000
00200000
00330000
,  // measure 27
11000000
11000000
01100000
01100000
,  // measure 28
00110000
00110000
00101000
00101000
,  // measure 29
00011000
00011000
00010100
00010100
,  // measure 30
00001100
00000011
00001010
00000000
,  // measure 31
00000101
00000101
00000110
00000110
,  // measure 32
00001010
00001010
00001100
00001100
,  // measure 33
00010100
00000000
00000000
00011000
00000000
00000000
00001000
01000000
,  // measure 34
00100000
00000000
01000000
01000000
00000000
01000000
00000000
00000000
,  // measure 35
01010000
00000000
00010000
00110000
00000000
00101000
00000000
00000000
,  // measure 36
00011000
00011000
00101000
00101000
,  // measure 37
00110000
11000000
01010000
01100000
,  // measure 38
20020000
00000000
00000000
00000000
30030000
00000000
10000000
00010000
,  // measure 39
00110000
00101000
00011000
00000000
,  // measure 40
00011000
00010100
00001100
00000000
,  // measure 41
00000011
00000000
00001100
00000000
00001000
00000010
00000100
00000000
,  // measure 42
00002002
00000000
00000000
00003003
,  // measure 43
00000110
00000000
00000000
00000000
,  // measure 44
00000000
00000000
00000000
00000000
,  // measure 45
00001000
00000100
00010000
00001000
,  // measure 46
01000000
10000000
01000000
00010000
,  // measure 47
11000000
00000000
00000000
00100000
,  // measure 48
10010000
00000000
00000000
00100000
,  // measure 49
00101000
00000000
00000000
00000000
,  // measure 50
00000000
00000000
00000000
00000000
,  // measure 51
00100000
00001000
00010000
00000100
,  // measure 52
00001000
00000000
00000000
00000000
,  // measure 53
00000010
00000100
00000010
00001000
00000001
00000010
00000000
00000000
,  // measure 54
00000200
00000000
00000000
00000300
,  // measure 55
00001001
00000000
00000000
00000001
00001000
00000010
00000000
00000000
,  // measure 56
00000000
00000000
00000100
00000010
00001000
00000100
00010000
00000000
,  // measure 57
00001000
00000000
01000000
00000000
00001000
00000000
00100000
00001000
,  // measure 58
01000000
00100000
10000000
01000000
00100000
00000000
01000000
00100000
,  // measure 59
00010000
00010000
01000000
01000000
,  // measure 60
00001000
00010000
00001000
01000000
00002000
00000000
00000000
00000000
,  // measure 61
01003000
00000000
00100000
00000000
10000000
00000000
01000000
00100000
,  // measure 62
00010000
01000000
00010000
00101000
,  // measure 63
00001000
00000000
00010000
00000000
00000100
00000000
00001000
00000010
,  // measure 64
00000100
00000000
00000001
00000000
00000010
00001000
00000010
00000001
,  // measure 65
00001000
00000010
00010000
00001000
,  // measure 66
01000000
00100000
10000000
00110000
,  // measure 67
10010000
00100000
10010000
10010000
,  // measure 68
00100000
00001000
00010000
00000100
00001000
00000010
00000100
00000000
,  // measure 69
00000001
00000100
00000010
00000000
00000100
00000010
00001000
00000000
,  // measure 70
00000100
00010000
00001000
00000000
00001000
01000000
01100000
00000000
,  // measure 71
00100000
10000000
01000000
00000000
00100000
00001000
00010000
00000000
,  // measure 72
00001000
00001000
00001000
00010000
00000100
00010000
00001000
00010000
,  // measure 73
00000100
00001000
00000010
00000000
00000100
00000001
00000010
00000000
,  // measure 74
00000100
00000010
00000001
00000000
00000010
00000100
00001100
00000000
,  // measure 75
00000100
00010000
00001000
00000000
00010000
00001000
01000000
00100000
,  // measure 76
01000000
00001000
00010000
00000000
,  // measure 77
00011000
00000000
00000000
00000000
;

//---------------dance-double - ----------------
#NOTEDATA:;
#CHARTNAME:;
#STEPSTYPE:dance-double;
#DESCRIPTION:;
#CHARTSTYLE:;
#DIFFICULTY:Hard;
#METER:13;
#RADARVALUES:0.577039,0.768340,0.502914,0.367207,0.135707,506.000000,443.000000,63.000000,46.000000,0.000000,0.000000,0.000000,0.000000,0.000000,0.577039,0.768340,0.502914,0.367207,0.135707,506.000000,443.000000,63.000000,46.000000,0.000000,0.000000,0.000000,0.000000,0.000000;
#CREDIT:Pandemonium X;
#NOTES:
00000000
00000000
00000000
00000000
,
00000000
00000000
00000000
00000000
,
00000000
00000000
00000000
00000000
,
10200000
01000000
01000000
20300000
,
32000000
00100000
00100000
10000000
,
03100000
00010000
01000000
00000000
00010000
00100000
01000000
00000000
,
01000000
00100000
00001000
00010000
00000200
00000000
00020300
00000000
,
00030010
00000100
00000010
00000100
00000010
00000100
00002002
00003003
,
00000001
00000100
00000010
00001000
00000010
00000100
00000010
00000010
,
00000100
00000010
00010000
00001000
00010000
00100000
10000000
00100000
,
00020000
02030000
00002000
03003000
,
01010000
01010000
00110000
00110000
,
00101000
00000000
00101000
00000000
00011000
00000000
00011000
00000100
,
00010100
00010100
00001100
00001100
,
00000110
00000000
00000000
00000000
00000110
00000000
00000000
00000000
00000010
00000001
00000000
00000001
00000100
00000000
00000010
00000000
,
00001000
00000100
00010000
00001000
00010000
00000100
00010000
00001000
,
00010000
00000100
00010000
00001000
00010000
00000100
00010000
00001000
,
00010000
00010000
00001000
01000000
00200000
00000000
10300000
01000000
,
00010000
01000000
10000000
00100000
02000000
00000000
03001000
00000000
,
00101000
00000000
00021000
00000000
00000100
00000100
00030100
00000000
,
00010100
00000000
00001200
00000000
00000010
00000010
00000310
00000000
,
00000011
00000000
00000201
00000000
00000010
00000010
00000310
00000000
,
00000110
00000000
00000000
00000110
00000000
00000000
00001001
00000000
00000000
00001001
00000000
00000000
00000110
00000000
00000000
00000000
,
00000001
00001000
00000010
00000000
00001010
00000000
00000010
00000000
00010000
00000000
00002000
00000000
00020000
00000000
00003000
00000000
,
00031000
01000000
00100000
10000000
01000000
00200000
02000000
00300000
,
13000000
01000000
00100000
00010000
00200000
00302000
00020000
00003000
,
00030200
00020300
00002000
00033000
,
00010100
00000100
00010000
00001000
00200000
00000000
01300000
10000000
,
00010000
01000000
10000000
01000000
00010000
00000000
00100000
00001000
,
00011000
00000000
00010100
00000000
00000100
00001000
00000020
00000000
,
00000200
00000000
00000000
00000000
00000000
00000330
00000010
00001000
,
00000001
00001000
00000100
00000010
00000001
00000000
00000010
00000001
,
00000100
00001000
00000100
00000001
00001000
00000000
00000100
00010000
,
00012000
00000000
00000000
02003000
00000000
00000000
03100000
10000000
,
02000000
00000000
00100000
00100000
00000000
00100000
03100000
00000000
,
01100000
00000000
00010000
00110000
00000000
00011000
00000000
00000000
,
00001000
00100000
00010000
10000000
00010000
00000000
01000000
00010000
,
00110000
00000000
00011000
00000000
00010000
00000100
00002000
00000000
,
00000020
00000000
00000000
00000000
00003030
00000000
00000100
00000010
,
00001000
00000100
00000010
00000001
00001000
00000000
00000001
00001000
,
00000001
00000100
00001000
00000100
00000001
00000000
00000100
00000010
,
00001010
00000000
00001100
00000000
00000100
00010000
00002000
00000000
,
00020000
00000000
00000000
00033000
,
01010000
01000000
00100000
00100000
,
10000000
10000000
01000000
01000000
,
00100000
01000000
10000000
00100000
01000000
00010000
00100000
00001000
,
00010000
00000000
00000100
00000000
00001000
00000000
00000010
00000000
00000100
00000010
00000000
00000010
00000100
00000000
00000001
00000000
,
00000021
00000000
00000000
00000100
,
00000230
00000000
00000000
00010000
,
00020000
00000000
00000000
00000300
,
00030000
00000000
00000000
00000000
,
00001000
00000000
00000000
01000000
00000000
00000000
00100000
00000000
00000000
10000000
00000000
00000000
11000000
00000000
00000000
00000000
,
01000000
00000000
00000000
00100000
00000000
00000000
00010000
00000000
00000000
00100000
00000000
00000000
00101000
00000000
00000000
00000000
,
00100000
00000000
00000000
00001000
00000000
00000000
00010000
00000000
00000000
00000010
00000000
00000000
00000110
00000000
00000000
00000000
,
00000100
00000000
00000000
00000001
00000000
00000000
00000010
00000000
00000000
00000100
00000000
00000000
00001100
00000000
00000000
00000000
,
00010000
00001000
00010000
00001000
00010000
00010000
00001000
00001000
,
00100000
00001000
00100000
00001000
00100000
00100000
00001000
00001000
,
00010000
00000100
00010000
00000100
00010000
00000100
00010000
00000100
00010000
00000100
00010000
00000100
00010000
00000100
00010000
00000100
,
00001000
00000010
00000001
00000010
00001000
00000000
00000001
00001000
,
00001001
00000110
00001001
00000110
,
00000001
00000100
00001000
00010000
02000000
00000000
03000000
00000000
,
01010000
00000000
00010000
00000000
00100000
00000000
01000000
00000000
10000000
00000000
00000000
01000000
10000000
00000000
00100000
00000000
,
01000000
00000000
00010000
00000000
00100000
00000000
00001000
00000000
00010000
00000000
00000000
00000100
00000020
00000000
00000000
00000000
,
00000130
00000000
00001000
00000000
00000010
00000000
00000100
00000000
00000001
00000000
00000000
00000010
00000001
00000000
00000100
00000000
,
00000010
00000000
00001000
00000000
00000100
00000000
00010000
00000000
00001000
01000000
00000000
00010000
00100000
01000000
10000000
00000000
,
01000000
00000000
00100000
00000000
01000000
00000000
10000000
00000000
00100000
00000000
00000000
01000000
00010000
00000000
00100000
00000000
,
00001000
00000000
00010000
00000000
00000100
00000000
00001000
00000000
00000010
00000000
00000000
00010000
00002000
00000000
00000000
00000000
,
00103000
00000000
00010000
00100000
00110000
00000000
11000000
00000000
,
10000000
01000000
00100000
00010000
00100000
00001000
00010000
00000000
,
00001000
00010000
00010100
00001000
00000010
00000100
00000101
00000001
,
00000010
00000100
00001100
00000100
00010000
00001000
00201000
00000000
,
00310000
00100000
01100000
01000000
10000000
00100000
01100000
01000000
,
00010000
10000000
00010000
00000000
00100000
00000000
01000000
00000000
10000000
00000000
00100000
00000000
01000000
00000000
00001000
00000000
,
00010000
00000100
00001100
00000010
00000001
00001000
00001001
00000001
,
00001000
00000100
00010100
00000100
00010000
00001000
00021000
00000000
,
00030100
00000000
00001000
00000000
00000010
00000000
00000100
00000000
00000001
00000000
00001000
00000000
00000001
00001000
00000001
00001000
,
00000020
00020030
00002000
00033000
,
00011000
00000000
00000000
00000000
;

//---------------dance-double - ----------------
#NOTEDATA:;
#CHARTNAME:;
#STEPSTYPE:dance-double;
#DESCRIPTION:;
#CHARTSTYLE:;
#DIFFICULTY:Challenge;
#METER:16;
#RADARVALUES:0.717308,0.799074,0.814241,0.550810,0.355233,629.000000,527.000000,102.000000,69.000000,8.000000,0.000000,0.000000,0.000000,0.000000,0.717308,0.799074,0.814241,0.550810,0.355233,629.000000,527.000000,102.000000,69.000000,8.000000,0.000000,0.000000,0.000000,0.000000;
#CREDIT:Pandemonium X;
#NOTES:
00000000
00000000
00000000
00000000
,
00000000
00000000
00000000
00000000
,
00000000
00000000
00000000
00000000
,
01000000
00100000
00000000
01000000
00100000
00000000
10000000
00000000
01000000
00100000
00000000
00100000
00020000
00000000
00000000
00000000
,
01030000
00100000
00000000
01000000
00100000
00000000
10000000
00000000
00010000
00100000
00000000
00100000
00001000
00000000
00010000
00000000
,
00000100
00000001
00000100
00001000
00000010
00000001
00000010
00001000
,
00000100
00000000
00010000
00000000
00001000
00000000
01000000
00000000
00100000
01000000
00000000
00100000
01000000
00010000
01000000
00000000
,
00100000
10000000
00010000
00100000
00001000
00010000
00010200
00000000
,
00001300
00000100
00001000
00000010
00000100
00000001
00000010
00000100
,
00001000
00000000
00000100
00000000
00010000
00000000
00001000
00000000
01000000
00001000
01000000
00001000
00010000
00001000
00010000
00000100
,
00020000
00032000
00020000
00033000
,
00110000
01100000
11000000
10200000
,
01300000
00000000
01010000
00000000
00101000
00000000
00011000
00000100
,
00010100
00000000
00010000
00000100
00001000
00000000
00000100
00000010
00000001
00000000
00000001
00000100
00000010
00000000
00000010
00001000
,
00000100
00000000
00000100
00010000
00001000
00000000
01000000
00100000
10000000
01000000
00000000
01000000
00100000
00010000
10000000
00000000
,
01000000
00100000
00010000
00001000
00000100
00000001
00001000
00000001
,
00000001
00000100
00001000
00010000
01000000
10000000
01000000
00010000
,
10000000
01000000
00010000
01000000
20000000
00000000
30010000
00100000
,
00001000
00010000
00000100
00001000
00000020
00000030
0021MMMM
00000000
,
01300000
00000000
00000000
00000000
11000000
00000000
10000000
00010000
01000000
00100000
01000000
00100000
02000000
00000000
00000000
00000000
,
03010000
00000000
00000000
00000000
01001000
00000000
00001000
00010000
00000100
00001000
00000100
00001000
00000200
00000000
00000000
00000000
,
00000310
00000000
00000000
00000000
00000011
00000000
00000010
00000100
00001000
00000100
00001000
00000100
00002000
00000000
00000000
00000000
,
00003100
00000000
00000000
00101000
00000000
00000000
00011000
00000000
00000000
00010100
00000000
00000000
00011000
00000000
00000000
00000000
,
00001000
01000000
00100000
00000000
10100000
00000000
10000000
00100000
01000000
00010000
01000000
00010000
00200000
00000000
00000000
00000000
,
01300000
00100000
00010000
00000000
00100000
00000000
00001000
00010000
00000100
00001000
00000100
00001000
00000020
00000000
00000000
00000000
,
00000130
00000001
00000010
00000000
00000100
00000000
00000010
00000001
00000100
00000010
00000100
00000010
00002000
00000000
00000000
00000000
,
00003200
00000000
00020300
00000000
00002000
00000000
00000000
00033000
,
01010000
01000000
01100000
00100000
10100000
00000000
10000000
01000000
,
01100000
00100000
00110000
00100000
00101000
00000000
00011000
00010000
,
00011000
00000000
00001100
00000000
00011000
00010000
00010100
00000000
,
00000220
00000000
00000000
00000000
00000330
00000000
00000110
00000010
,
00000011
00000001
00000101
00000100
00000110
00000000
00000010
00001000
,
00001100
00000100
00010100
00010000
00011000
00000000
00001000
01000000
,
02010000
00000000
00001000
00010000
00000000
00010000
03002000
00023000
,
00030200
00000000
00001000
00010000
00000000
00010000
00001300
00000000
,
00011000
00000000
00000000
00000000
011MM000
00000000
11000000
00000000
00000000
MM000000
00110000
00000000
00000000
00000000
00000000
00000000
,
00110000
00100000
00101000
00001000
00011000
00000000
00010000
00000100
,
00001100
00000000
00000011
00000000
00000001
00000100
00001000
00000000
,
00000202
00000000
00000000
00000000
00000303
00000000
00000001
00000100
,
00000110
00000010
00001010
00001000
00001100
00000000
00000100
00010000
,
00011000
00001000
01001000
01000000
01100000
00000000
01000000
00100000
,
10010000
00000000
01100000
00000000
10000000
01000000
00100000
00000000
,
00202000
00000000
00000000
00303000
,
00011000
00100000
00001000
00010000
,
00000100
00010000
00001000
00010000
,
00001000
00100000
00001000
00010000
00000010
00010000
00001000
00100000
,
00001000
00000000
00010000
00000000
00000100
00000000
00010000
00000000
00001000
01000000
00000000
01000000
00001000
00010000
00000100
00000000
,
00020000
00001000
00000100
00032000
,
02003000
00000000
00100000
00000000
00010000
00000000
03100000
10000000
,
02000000
00000000
00000000
00100000
00000000
00000000
10000000
00000000
00000000
03100000
00100000
00100000
,
02000000
00000000
00000000
00000000
10000000
00000000
00000000
00000000
03100000
00001000
00010000
00000000
00011000
00000000
00000000
00000000
,
00021000
00000000
00000000
00031000
00000000
00000000
00012000
00000000
00000000
00013000
00000000
00000000
00011000
00000000
00000000
00000000
,
00020100
00000000
00000000
00031000
00000000
00000000
00021000
00000000
00000000
00030100
00000000
00000000
00010100
00000000
00000000
00000000
,
00012000
00000000
00000000
00013000
00000000
00000000
00021000
00000000
00000000
00031000
00000000
00000000
00011000
00000000
00000000
00000000
,
00102000
00000000
00000000
00013000
00000000
00000000
00012000
00000000
00000000
00103000
00000000
00000000
00101000
00000000
00000000
00000000
,
00001000
01000000
00100000
10000000
01000000
00010000
01000000
10000000
,
00100000
01000000
00010000
00100000
00001000
00010000
00000100
00001000
,
00000010
00000100
00000010
00001000
00000010
00001000
00000100
00001000
00000100
00010000
00000100
00010000
00001000
00010000
00001000
00100000
,
00010000
01000000
10000000
01000000
00020000
00000000
10030000
00010000
,
20000000
32000000
03020000
00032000
,
00023000
00032000
00003020
00000230
00002000
00000000
00000000
00003300
,
00000011
00000000
00000001
00000000
00000101
00000000
00000100
00000000
00000110
00000000
00000000
00000100
00000001
00000000
00000100
00000000
,
00001010
00000010
00001010
00001000
00001100
00000000
00001200
00000000
,
00010300
00000000
00000100
00000000
00011000
00000000
01000000
00000000
01100000
00000000
00000000
01000000
00010000
00000000
00100000
00000000
,
01100000
00000000
01000000
00000000
11000000
00000000
01000000
00000000
10000000
01000000
00000000
01000000
10000000
00100000
01000000
00000000
,
10010000
00000000
00100000
00000000
10010000
00000000
00010000
00000000
00011000
00000000
00000000
00010000
00000100
00000000
00010000
00000000
,
00011000
00000100
00001100
00000001
00001001
00000000
00000210
00000000
,
00000301
00000000
00000001
00000100
00001010
00000000
00011000
00000000
,
00000200
00020300
00032000
02003000
03002000
00023000
00002000
00033000
,
00001000
00000000
01000000
00100000
10000000
00000000
01000000
00000000
00110000
00000000
00100000
00001000
00010000
00000000
00000100
00000000
,
00001100
00000000
00001000
00000010
00000100
00000000
00000001
00000000
00000011
00000000
00000010
00000002
00002000
00000000
00003003
00000000
,
00000101
00000000
00000001
00000100
00000010
00000000
00001000
00000000
00001100
00000000
00000100
00010000
00001000
00000000
00001000
00000000
,
00010000
00001000
00010000
00000000
00011000
00000000
00002000
00000000
01003000
00000000
02000000
00000000
03001000
00000000
00002000
00000000
,
00013000
00000000
00000100
00000010
00000001
00000000
00000010
00000000
00001100
00000000
00000100
00010000
00001000
00000000
00001000
00000000
,
01001000
00000000
00001000
01000000
00100000
00000000
10000000
00000000
10100000
00000000
01000000
00010000
00200000
00000000
00000000
00000000
,
01300000
00000000
00100000
00010000
01000000
00000000
00010000
00000000
00110000
00000000
00100000
00001000
00010000
00000000
00000100
00000000
,
00020000
00032000
00020000
00033000
,
00100010
00000000
00000000
00000000
;
