#VERSION:0.83;
#TITLE:Real Groove (Studio 2054 Initial Talk Remix);
#SUBTITLE:;
#ARTIST:Kylie Minogue x Dua Lipa;
#TITLETRANSLIT:;
#SUBTITLETRANSLIT:;
#ARTISTTRANSLIT:;
#GENRE:;
#ORIGIN:;
#CREDIT:;
#BANNER:Real Groove (Studio 2054 Initial Talk Remix).png;
#BACKGROUND:Real Groove (Studio 2054 Initial Talk Remix)-bg.png;
#PREVIEWVID:;
#JACKET:Real Groove (Studio 2054 Initial Talk Remix)-jacket.png;
#CDIMAGE:;
#DISCIMAGE:;
#LYRICSPATH:;
#CDTITLE:;
#MUSIC:Real Groove (Studio 2054 Initial Talk Remix).ogg;
#OFFSET:-0.005000;
#SAMPLESTART:39.209999;
#SAMPLELENGTH:16.750000;
#SELECTABLE:YES;
#BPMS:0.000=120.000;
#STOPS:;
#DELAYS:;
#WARPS:;
#TIMESIGNATURES:0.000=4=4;
#TICKCOUNTS:0.000=4;
#COMBOS:0.000=1;
#SPEEDS:0.000=1.000=0.000=0;
#SCROLLS:0.000=1.000;
#FAKES:;
#LABELS:0.000=Song Start;
#BGCHANGES:;
#KEYSOUNDS:;
#ATTACKS:
;

//---------------dance-single - ----------------
#NOTEDATA:;
#CHARTNAME:;
#STEPSTYPE:dance-single;
#DESCRIPTION:;
#CHARTSTYLE:;
#DIFFICULTY:Beginner;
#METER:3;
#RADARVALUES:0.109355,0.187690,0.000000,0.000000,0.000000,104.000000,104.000000,0.000000,0.000000,0.000000,0.000000,0.000000,0.000000,0.000000,0.109355,0.187690,0.000000,0.000000,0.000000,104.000000,104.000000,0.000000,0.000000,0.000000,0.000000,0.000000,0.000000,0.000000;
#CREDIT:Pandemonium X;
#NOTES:
// measure 0
0000
0000
0000
0000
,  // measure 1
0000
0000
0000
0000
,  // measure 2
0000
0000
0000
0000
,  // measure 3
0000
0000
0000
0000
,  // measure 4
0001
0000
0000
0000
,  // measure 5
1000
0000
0001
0000
,  // measure 6
1000
0000
0000
0000
,  // measure 7
0010
0000
0000
0000
,  // measure 8
0100
0000
0000
0000
,  // measure 9
0001
0000
0010
0000
,  // measure 10
0001
0000
0000
0000
,  // measure 11
1000
0000
0000
0000
,  // measure 12
0100
0000
0000
0000
,  // measure 13
1000
0000
0000
0000
,  // measure 14
0010
0000
0100
0000
,  // measure 15
0010
0000
0000
0000
,  // measure 16
0100
0000
0000
0000
,  // measure 17
0001
0000
0000
0000
,  // measure 18
0010
0000
0100
0000
,  // measure 19
0010
0000
0000
0100
,  // measure 20
1000
0000
0001
0000
,  // measure 21
1000
0000
0000
0000
,  // measure 22
0010
0000
0100
0000
,  // measure 23
0010
0000
0000
0000
,  // measure 24
1000
0000
0100
0000
,  // measure 25
1000
0000
0000
0000
,  // measure 26
0001
0000
0100
0000
,  // measure 27
0001
0010
0100
1000
,  // measure 28
0001
0000
1000
0000
,  // measure 29
0010
0000
0000
0000
,  // measure 30
0100
0000
0010
0000
,  // measure 31
1000
0100
0010
0001
,  // measure 32
1000
1000
0000
1000
,  // measure 33
1000
0000
0000
0000
,  // measure 34
0001
0000
1000
0000
,  // measure 35
0001
0010
0100
1000
,  // measure 36
0010
0000
0000
0000
,  // measure 37
0000
0000
0000
0000
,  // measure 38
0100
0000
0000
0000
,  // measure 39
0010
0000
0000
0000
,  // measure 40
1000
0000
0001
0000
,  // measure 41
1000
0000
0000
0000
,  // measure 42
0100
0000
0000
0000
,  // measure 43
1000
0000
0000
0000
,  // measure 44
0010
0000
0100
0000
,  // measure 45
0010
0000
0000
0000
,  // measure 46
0100
0000
0001
0000
,  // measure 47
0000
0000
0010
0010
,  // measure 48
0100
0000
1000
0000
,  // measure 49
0001
0000
0000
0000
,  // measure 50
1000
0000
0001
0000
,  // measure 51
0100
0000
0000
0000
,  // measure 52
0010
0000
1000
0000
,  // measure 53
0100
0000
0000
0000
,  // measure 54
0010
0000
0001
0000
,  // measure 55
1000
0100
0010
0001
,  // measure 56
0100
0000
0010
0000
,  // measure 57
1000
0000
0000
0000
,  // measure 58
0001
0000
1000
0000
,  // measure 59
0001
0010
0100
1000
,  // measure 60
0010
0010
0000
0010
,  // measure 61
0010
0000
0000
0000
,  // measure 62
0100
0000
0010
0000
,  // measure 63
1000
0100
0010
0001
;

//---------------dance-single - ----------------
#NOTEDATA:;
#CHARTNAME:;
#STEPSTYPE:dance-single;
#DESCRIPTION:;
#CHARTSTYLE:;
#DIFFICULTY:Easy;
#METER:7;
#RADARVALUES:0.248151,0.375381,0.220812,0.125127,0.000000,236.000000,206.000000,30.000000,17.000000,0.000000,0.000000,0.000000,0.000000,0.000000,0.248151,0.375381,0.220812,0.125127,0.000000,236.000000,206.000000,30.000000,17.000000,0.000000,0.000000,0.000000,0.000000,0.000000;
#CREDIT:Pandemonium X;
#NOTES:
// measure 0
0000
0000
0000
0000
,  // measure 1
0000
0000
0000
0000
,  // measure 2
0000
0000
0000
0000
,  // measure 3
0000
0000
0000
0000
,  // measure 4
1000
0001
0010
0001
,  // measure 5
1000
0100
0010
0100
,  // measure 6
1000
0001
0100
0010
,  // measure 7
2000
0000
3000
0001
,  // measure 8
0010
0001
0100
0001
,  // measure 9
1000
0100
0010
0100
,  // measure 10
1000
0010
0100
0001
,  // measure 11
0020
0000
0030
0000
,  // measure 12
0200
0000
1300
0000
,  // measure 13
2000
0000
3010
0000
,  // measure 14
0100
0010
1000
0001
,  // measure 15
0020
0000
0000
0030
,  // measure 16
0002
0000
0103
0000
,  // measure 17
0020
0000
1030
0000
,  // measure 18
0001
1000
0010
0100
,  // measure 19
0001
0001
0001
1000
,  // measure 20
0001
0100
1000
0100
,  // measure 21
0001
0010
0100
0000
,  // measure 22
0001
0010
1000
0010
,  // measure 23
0001
1000
1000
0000
,  // measure 24
0001
1000
0010
1000
,  // measure 25
0100
0001
0100
0000
,  // measure 26
0010
0001
1000
0100
,  // measure 27
0110
1001
0110
1001
,  // measure 28
0110
1000
0001
0010
,  // measure 29
0001
0000
1000
0100
,  // measure 30
0010
0100
1000
0010
,  // measure 31
1001
0110
1001
0110
,  // measure 32
1001
0110
0000
1001
,  // measure 33
0110
0000
0000
0010
0000
0010
0000
0000
,  // measure 34
0100
0010
1000
0001
,  // measure 35
1001
0110
1001
0110
,  // measure 36
2002
0000
0000
0000
,  // measure 37
0000
0000
3000
0003
,  // measure 38
1000
0001
0010
0001
,  // measure 39
0000
0100
0000
0100
0000
0100
0010
1000
,  // measure 40
0000
0001
0010
0000
0001
0000
1000
0000
,  // measure 41
0100
0010
0200
0300
,  // measure 42
0010
0001
0100
0010
,  // measure 43
1000
0000
0001
1000
0100
0010
0001
1000
,  // measure 44
0001
1000
0010
1000
,  // measure 45
0100
0010
0200
0300
,  // measure 46
2000
0000
0002
0000
,  // measure 47
3003
0000
0000
0000
1000
0001
1000
0001
,  // measure 48
1001
0001
0010
0001
,  // measure 49
1000
0100
0010
0000
,  // measure 50
0100
1000
0010
0100
,  // measure 51
0001
0010
0100
0000
,  // measure 52
0010
0001
1000
0100
,  // measure 53
1000
0010
0100
0000
,  // measure 54
0010
1000
0001
0100
,  // measure 55
1001
0110
1001
0110
,  // measure 56
1001
1000
0001
0010
,  // measure 57
0001
0100
0010
0000
,  // measure 58
1000
0010
0100
0001
,  // measure 59
2000
3200
0320
0032
,  // measure 60
1003
1001
0000
1000
,  // measure 61
1001
0000
0000
0001
0000
0001
1000
0000
,  // measure 62
0010
1000
0100
0010
,  // measure 63
1001
0110
1001
0110
;

//---------------dance-single - ----------------
#NOTEDATA:;
#CHARTNAME:;
#STEPSTYPE:dance-single;
#DESCRIPTION:;
#CHARTSTYLE:;
#DIFFICULTY:Medium;
#METER:11;
#RADARVALUES:0.370123,0.471066,0.242894,0.228173,0.114086,352.000000,319.000000,33.000000,31.000000,0.000000,0.000000,4.000000,0.000000,0.000000,0.370123,0.471066,0.242894,0.228173,0.114086,352.000000,319.000000,33.000000,31.000000,0.000000,0.000000,4.000000,0.000000,0.000000;
#CREDIT:Pandemonium X;
#NOTES:
// measure 0
0000
0000
0000
0000
,  // measure 1
0000
0000
0000
0000
,  // measure 2
0000
0000
0000
0000
,  // measure 3
0000
0000
0000
0000
0000
0000
0000
0000
0000
0000
0000
0000
1000
0000
0000
0001
,  // measure 4
0000
0000
0010
0000
0000
0000
0000
0000
0000
0000
0000
0000
0100
0000
0000
0010
,  // measure 5
0000
0100
1000
0010
0001
0010
1000
0001
,  // measure 6
1000
0000
0001
0000
0010
0000
0100
0010
,  // measure 7
0001
4000
0040
0000
0000
0000
0000
0000
3030
0000
0000
0000
0010
0000
1000
0000
,  // measure 8
0001
0000
0000
0000
1000
0000
0000
0000
0100
0000
0000
0000
0010
0000
0000
0100
,  // measure 9
0000
1000
0100
0001
0100
1000
0100
0010
,  // measure 10
0001
0000
0010
0000
0001
0000
1000
0001
,  // measure 11
0100
0040
0400
0000
0000
0000
0000
0000
0000
0000
0330
0000
0000
0000
2000
0000
,  // measure 12
0000
0100
0200
3300
,  // measure 13
0020
0001
0002
0033
,  // measure 14
0000
0001
0010
0100
0010
0001
1000
0020
,  // measure 15
0000
0000
0030
0000
0100
0010
0000
0000
,  // measure 16
0200
0010
0020
0330
,  // measure 17
0020
0100
0200
0330
,  // measure 18
0000
0010
0100
0001
1000
0100
0010
0001
,  // measure 19
1000
0001
0000
0010
0000
0001
1000
0000
0001
0000
1000
0000
0100
0000
0010
0000
,  // measure 20
0100
0000
0100
0000
1000
0000
0010
0000
0100
0000
0000
0000
0010
0000
0000
0100
,  // measure 21
0000
0000
0010
0000
1000
0000
0000
0001
0000
0000
0000
0000
0000
0000
0000
0000
,  // measure 22
1000
0000
1000
0000
0010
0000
0100
0000
0010
0000
0000
0000
0100
0000
0000
0001
,  // measure 23
0000
0000
0100
0000
0010
0000
0000
0100
0000
0000
0000
0000
0000
0000
0000
0000
,  // measure 24
0010
0000
0010
0000
0100
0000
0010
0000
1000
0000
0000
0000
0001
0000
0000
1000
,  // measure 25
0000
0000
0100
0000
1000
0000
0000
0010
0000
0000
0000
0000
0000
0000
0000
0000
,  // measure 26
1000
0010
0001
0010
1000
0001
0010
0100
,  // measure 27
1100
0101
1100
0101
,  // measure 28
1002
0000
0000
0000
2003
0000
0000
0000
3020
0000
0000
0000
2030
0000
0000
0010
,  // measure 29
0000
0000
3000
0000
1000
0100
0010
0001
,  // measure 30
0010
1000
0010
0001
0100
0010
1000
0001
,  // measure 31
0011
1010
0011
1010
,  // measure 32
1002
0103
0000
1002
,  // measure 33
0103
0000
0000
0010
0000
0010
0100
0010
,  // measure 34
0100
0010
1000
0001
0010
0100
0010
0001
,  // measure 35
0011
1010
0011
1010
,  // measure 36
1001
0000
0000
0000
1000
0000
0000
0001
0000
1000
0001
0000
1000
0000
0001
0000
,  // measure 37
1000
0100
0010
0001
0010
0000
1001
0000
,  // measure 38
0101
0000
0000
0000
0001
0000
0000
0010
0000
0100
0010
0000
0001
0000
1000
0000
,  // measure 39
0001
0100
0010
1000
0100
0010
1001
2000
,  // measure 40
0000
0000
3010
0000
2000
0000
0000
0000
3001
0000
0000
1000
0000
0000
0200
0000
,  // measure 41
0000
1300
0020
0000
0130
0002
0000
0000
,  // measure 42
1003
0000
0001
0000
0100
0000
0010
1000
0000
1000
0010
0000
0010
0000
0100
0000
,  // measure 43
0001
0010
0100
0110
0100
0110
1001
2000
,  // measure 44
0000
3000
0001
0000
0010
0000
0000
0000
0001
0000
0000
0010
0000
0000
0002
0000
,  // measure 45
0000
0103
0010
0000
1000
0001
0000
0000
,  // measure 46
1000
0020
0000
0031
0010
0100
0002
2000
,  // measure 47
0000
3003
0000
0000
0000
0000
0000
0000
1000
0000
0010
0000
0001
0000
0010
0000
,  // measure 48
1000
0000
1000
0000
0001
0000
0010
0000
0100
0000
0000
0000
0010
0000
0000
0100
,  // measure 49
0000
0000
0010
0000
0001
0000
0000
1000
0000
0000
0000
0000
0000
0000
0000
0000
,  // measure 50
0001
0000
0001
0000
1000
0000
0010
0000
1000
0000
0000
0000
0100
0000
0000
1000
,  // measure 51
0000
0000
0010
0000
0100
0000
0000
0001
0000
0000
0000
0000
0000
0000
0000
0000
,  // measure 52
0010
0000
0010
0000
0001
0000
0010
0000
0100
0000
0000
0000
0010
0000
0000
0100
,  // measure 53
0000
0000
0010
0000
0001
0000
0000
1000
0000
0000
0000
0000
0000
0000
0000
0000
,  // measure 54
0001
0100
1000
0100
0001
0010
1000
0010
,  // measure 55
0011
1010
0011
1010
,  // measure 56
1001
1000
0010
1000
,  // measure 57
0100
0010
0100
1000
,  // measure 58
0001
0100
1000
0100
0001
0010
1000
0010
,  // measure 59
0002
0023
0230
2300
,  // measure 60
3002
0013
0000
1002
,  // measure 61
0013
0000
0000
0100
0000
0100
0010
0100
,  // measure 62
1000
0100
0001
0100
1000
0010
0001
0010
,  // measure 63
1010
0011
1100
0101
,  // measure 64
1001
0000
0000
0000
;

//---------------dance-single - ----------------
#NOTEDATA:;
#CHARTNAME:;
#STEPSTYPE:dance-single;
#DESCRIPTION:;
#CHARTSTYLE:;
#DIFFICULTY:Hard;
#METER:14;
#RADARVALUES:0.498405,0.663357,0.397462,0.463706,0.294416,474.000000,400.000000,54.000000,63.000000,8.000000,15.000000,2.000000,0.000000,0.000000,0.498405,0.663357,0.397462,0.463706,0.294416,474.000000,400.000000,54.000000,63.000000,8.000000,15.000000,2.000000,0.000000,0.000000;
#CREDIT:Pandemonium X;
#NOTES:
// measure 0
0000
0000
0000
0000
,  // measure 1
0000
0000
0000
0000
,  // measure 2
0000
0000
0000
0000
,  // measure 3
0000
0000
0000
0000
0000
0000
0000
0000
1000
0001
1000
0001
1000
0000
0000
0000
,  // measure 4
1001
0000
0001
0000
0010
0000
0100
0010
0000
0010
0001
0000
1000
0000
0001
0100
,  // measure 5
0000
0000
0010
0000
0100
0001
0010
0001
1000
0000
0100
0010
0000
0000
0100
1000
,  // measure 6
0001
0000
0000
0000
0100
0000
0000
0000
0010
0000
1000
0000
0100
0000
0010
0001
,  // measure 7
0000
0400
0010
0000
0010
0000
0010
0300
0010
0000
1000
0000
0001
0000
1000
0100
,  // measure 8
0000
0010
0001
0000
1000
0000
0010
1000
0000
1000
0100
0000
0010
0000
0100
1000
,  // measure 9
0000
0001
0100
0001
0010
0000
0100
0010
0001
0000
1000
0000
0001
0000
0010
0100
,  // measure 10
0010
0000
0000
0000
0001
0000
0000
0000
0100
0000
0010
0000
0100
0000
0001
1000
,  // measure 11
0000
0400
0010
0000
0010
0000
0010
0300
0010
0000
0001
0000
0000
0000
0000
0000
,  // measure 12
2010
0100
0020
3030
,  // measure 13
0102
0010
0200
0303
,  // measure 14
0000
0001
0100
1000
0100
0001
2000
0002
,  // measure 15
3000
0103
0010
1000
0100
0010
0001
0100
,  // measure 16
0012
0100
0020
0033
,  // measure 17
2100
0010
0200
3300
,  // measure 18
0000
1000
0010
0001
0010
1000
0002
0203
,  // measure 19
0301
1000
0000
0001
0000
1000
0001
0000
0002
0000
1003
0000
2000
0000
3001
0000
,  // measure 20
1001
0000
1000
0000
0001
0000
0010
0000
2100
0000
0000
0000
3020
0000
0000
0130
,  // measure 21
0000
0001
0010
0000
0100
0000
0010
0001
0000
0000
1000
1000
0000
1000
0000
0000
,  // measure 22
0001
0000
0010
0000
0100
0000
1000
0000
2100
0000
0000
0000
3020
0000
0000
0130
,  // measure 23
0000
0010
0100
0000
0010
0000
0100
0001
0000
0000
1000
1000
0000
1000
0000
0000
,  // measure 24
0100
0000
0010
0000
0001
0000
0100
0000
0120
0000
0000
0000
2030
0000
0000
3001
,  // measure 25
0000
0010
0001
0000
1000
0000
0010
0100
0000
0000
0001
0001
0000
0001
0000
0000
,  // measure 26
0001
0100
1000
0010
0001
1000
0010
1000
,  // measure 27
0100
1100
1110
1111
,  // measure 28
1002
0000
0000
0000
0203
0000
0000
0000
0320
0000
0000
0000
2030
0000
0000
3002
,  // measure 29
0000
0000
0000
0000
1003
0100
0010
0001
,  // measure 30
1000
0100
0001
0100
1000
0010
0100
0001
,  // measure 31
0010
0011
0111
1111
,  // measure 32
1002
0000
0000
0003
001M
0000
0000
0000
0000
0000
0000
0000
1002
0000
0000
0003
,  // measure 33
001M
0000
0000
0101
0000
0101
0001
0010
,  // measure 34
0001
0100
1000
0100
0001
1000
0010
1000
,  // measure 35
0100
0110
1110
1111
,  // measure 36
1001
0000
0000
0000
0001
0000
0000
0001
0000
0001
0001
0000
0001
0000
0001
0000
,  // measure 37
0001
0100
1000
0010
0001
0000
1021
0000
,  // measure 38
1030
0001
0100
0000
0010
0000
1000
0001
0000
0001
1000
0000
0001
0000
0010
0000
,  // measure 39
0100
1000
0010
0000
0100
0000
0010
1000
0000
0000
1001
0000
M11M
0000
1002
0000
,  // measure 40
0000
0000
1003
0000
0002
0000
0000
0000
0023
0000
0000
0230
0000
0000
0320
0000
,  // measure 41
0000
0130
2000
0000
3010
2000
0000
3000
,  // measure 42
0001
0000
0100
0000
0010
0000
1000
0010
0000
0010
1000
0000
0010
0000
0100
0000
,  // measure 43
0001
0010
0100
0000
0010
0000
0111
0000
1110
0000
1011
0000
1101
0000
1002
0000
,  // measure 44
1003
0000
0010
0000
0200
0000
0000
0000
0320
0000
0000
2030
0000
0000
3002
0000
,  // measure 45
0000
0013
0200
0000
0310
0200
0000
0000
,  // measure 46
0310
0002
0000
0103
1000
0100
0002
2000
,  // measure 47
0000
3003
0000
0000
0201
031M
1200
M310
,  // measure 48
1001
0000
1000
0000
0100
0000
1000
0000
1020
0000
0000
0000
0230
0000
0000
0310
,  // measure 49
0000
1000
0100
0000
0010
0000
0010
0100
0000
0000
0210
0010
0000
0010
0000
0000
,  // measure 50
0310
0000
0001
0000
0010
0000
0100
0000
1002
0000
0000
0000
0103
0000
0100
0010
,  // measure 51
0000
1000
0100
0000
1000
0000
0010
0100
0000
0000
2010
0010
0000
0010
0000
0000
,  // measure 52
3010
0000
0001
0000
0010
0000
0100
0000
1002
0000
0000
0000
1003
0000
0000
0010
,  // measure 53
0000
0100
0001
0000
0010
0000
0100
1000
0000
0000
0001
0001
0000
0001
0000
0000
,  // measure 54
1000
0100
0001
0100
1000
0001
0100
0001
,  // measure 55
0010
0011
0111
1111
,  // measure 56
1001
0000
1000
0000
0100
0000
0010
0000
0012
0000
0000
0000
0103
0000
0000
0010
,  // measure 57
0000
1000
0001
0000
0010
0000
0100
1000
0000
0000
0201
0001
0000
0301
0000
0000
,  // measure 58
1000
0010
0001
0010
1000
0100
0001
0100
,  // measure 59
2000
0000
0000
3002
0000
0000
0203
0000
0000
0320
0000
0030
,  // measure 60
2001
0000
0000
3000
M010
0000
0000
0000
0000
0000
0000
0000
2001
0000
0000
3000
,  // measure 61
M010
0000
0000
1010
0000
1010
1000
0010
,  // measure 62
1000
0010
0001
0010
1000
0001
0010
0100
,  // measure 63
0010
1001
1110
2112
,  // measure 64
0000
0000
0000
3003
0000
0000
0000
0000
;

//---------------dance-double - ----------------
#NOTEDATA:;
#CHARTNAME:;
#STEPSTYPE:dance-double;
#DESCRIPTION:;
#CHARTSTYLE:;
#DIFFICULTY:Easy;
#METER:7;
#RADARVALUES:0.244997,0.379061,0.294416,0.036802,0.000000,233.000000,193.000000,40.000000,5.000000,0.000000,0.000000,0.000000,0.000000,0.000000,0.244997,0.379061,0.294416,0.036802,0.000000,233.000000,193.000000,40.000000,5.000000,0.000000,0.000000,0.000000,0.000000,0.000000;
#CREDIT:Pandemonium X;
#NOTES:
00000000
00000000
00000000
00000000
,
00000000
00000000
00000000
00000000
,
00000000
00000000
00000000
00000000
,
00000000
00000000
00000000
00000000
,
10000000
00000000
01000000
00000000
,
00100000
00010000
01000000
00001000
,
00010000
00000000
00000000
00000000
00000000
00000000
00001000
00010000
,
00001000
00000000
00000000
00010000
,
00010100
00000000
00000100
00000000
,
00001000
00001000
00000001
00000001
,
00000110
00000000
00000000
00000000
00000000
00000000
00000010
00000100
,
00000010
00000000
00000100
00000000
,
00000001
00000100
00000010
00000000
,
00000100
00000010
00001000
00000000
,
00000000
00000000
00000100
00000000
00010000
00000000
00001000
01000000
,
00000000
00000000
00000000
00000000
,
00100000
10000000
01000000
00000000
,
00100000
00001000
00010000
00000000
,
00000000
00000000
00000100
00000000
00010000
00000000
00001000
01000000
,
00000000
00000000
00000000
00100000
,
10010000
10000000
00010000
00100000
,
00001000
00010000
00011000
00000000
,
00010000
00000100
00001000
00000010
,
00001000
00000100
00011000
00000000
,
00001000
00100000
01000000
00100000
,
00010000
01000000
01100000
00000000
,
01000000
00010000
00100000
00001000
,
00011000
00011000
00011000
00011000
,
00010000
00000100
00001000
00000010
,
00000100
00000000
00000010
00000100
,
00000001
00000010
00000100
00001000
,
00000100
00001000
00000100
00001000
,
00001100
00011000
00000000
00001100
,
00011000
00000000
00000000
00000000
,
00001000
01000000
00100000
10000000
,
00110000
11000000
00110000
11000000
,
10010000
00000000
00000000
00000000
,
00000000
00000000
00000000
00000000
,
00010000
00000000
00100000
00000000
,
00000000
00001000
00000000
00001000
00000000
00001000
00010000
00001000
,
00000000
00000000
00010000
00000000
00000100
00000000
00000000
00001000
,
00000000
00000010
00000100
00000000
,
00000010
00001000
00000100
00010000
,
00001000
00000000
00010000
00001000
01000000
00001000
00010000
00000000
,
00000100
00001000
00000010
00000000
,
00000100
00000001
00000010
00000000
,
00000000
00000200
00000000
00000000
00020300
00000000
00000000
00002000
,
00000000
00033000
00000000
00000000
00011000
00000000
00011000
00000000
,
00001100
00010000
00000100
00001000
,
00000010
00000000
00000100
00000001
00000010
00000000
00000000
00000000
,
00000100
00001000
00000100
00010000
,
00001000
00000000
01000000
00100000
10000000
00000000
00000000
00000000
,
01000000
10000000
00100000
01000000
,
00010000
00000000
00100000
00001000
00010000
00000000
00000000
00000000
,
00000100
00011000
01000000
00011000
,
00110000
00011000
00001100
00000110
,
00000100
00000010
00000001
00000100
,
00000010
00000000
00001000
00000010
00000100
00000000
00000000
00000000
,
00000010
00010000
00001000
01000000
,
01100000
10010000
01100000
10010000
,
10100000
10100000
00000000
01010000
,
01010000
00000000
00000000
00000000
,
01000000
00010000
00100000
00001000
,
00011000
00011000
00011000
00022000
,
00000000
00000000
00000000
00033000
00000000
00000000
00000000
00000000
;

//---------------dance-double - ----------------
#NOTEDATA:;
#CHARTNAME:;
#STEPSTYPE:dance-double;
#DESCRIPTION:;
#CHARTSTYLE:;
#DIFFICULTY:Medium;
#METER:10;
#RADARVALUES:0.363815,0.426444,0.309137,0.294416,0.069924,346.000000,304.000000,42.000000,40.000000,0.000000,0.000000,0.000000,0.000000,0.000000,0.363815,0.426444,0.309137,0.294416,0.069924,346.000000,304.000000,42.000000,40.000000,0.000000,0.000000,0.000000,0.000000,0.000000;
#CREDIT:Pandemonium X;
#NOTES:
00000000
00000000
00000000
00000000
,
00000000
00000000
00000000
00000000
,
00000000
00000000
00000000
00000000
,
00000000
00000000
00000000
00000000
10000000
01000000
00110000
00000000
,
00100000
00001000
00010000
00000100
,
00001000
00000000
00000010
00000100
00000001
00000010
00000100
00001000
,
00000100
00000000
00010000
00000000
00000100
00000000
00001000
00000100
,
00010000
00002000
00000000
00000000
01000000
01003000
00100000
00000000
,
10010000
00000000
10000000
00000000
01000000
00100000
00010000
00000000
,
00100000
00001000
00010000
00000100
00001000
00000010
00000001
00000010
,
00001000
00000000
00000001
00000000
00001000
00000000
00000001
00000100
,
00000001
00000020
00000000
00000000
00000100
00000130
00000000
00000000
,
00000002
00000203
00002000
00003300
,
00000200
00002300
00020000
00033000
,
00000000
00000100
00010000
00001000
00010000
00001000
01000000
00200000
,
00300000
01000000
00100000
00010000
00001000
00100000
00001000
00010000
,
00002000
00000000
00020000
00003000
00200000
00000000
00330000
00000000
,
00200000
02300000
20000000
33000000
,
00000000
10000000
01000000
00100000
00010000
00100000
00001000
00010000
,
00001000
00010000
00000000
00001000
00000000
00010000
00001000
00000000
00010000
00000000
00000100
00000000
00001000
00000000
00000010
00000000
,
00000100
00000001
00000020
00000130
,
00000010
00000000
00000001
00000000
00000100
00000000
00000000
00001010
00000000
00000000
00000000
00000000
00000000
00000000
00000000
00000000
,
00010000
00001000
00100000
00010000
,
00100000
00000000
01000000
00000000
10000000
00000000
00000000
00110000
00000000
00000000
00000000
00000000
00000000
00000000
00000000
00000000
,
10000000
10000000
00200000
01300000
,
00010000
00000000
00100000
00000000
00001000
00000000
00000000
00011000
00000000
00000000
00000000
00000000
00000000
00000000
00000000
00000000
,
00100000
00001000
00010000
00000010
00010000
00001000
00100000
00001000
,
00011000
00110000
00011000
00001010
,
00000101
00000000
00000000
00000000
00000100
00000000
00000000
00000000
00000010
00000000
00000000
00000000
00001000
00000000
00000000
00001001
,
00000000
00000000
00000000
00000000
00000001
00000100
00000010
00001000
,
00000100
00010000
00001000
00100000
00010000
00100000
00001000
00010000
,
00010100
00011000
01001000
00011000
,
00021000
00030100
00000000
00012000
,
01003000
00000000
00000000
00000000
00000000
00001000
00010000
00001000
,
00010000
00100000
10000000
00100000
00010000
01000000
00100000
01000000
,
01010000
00011000
00001100
00011000
,
00010100
00000000
00000000
00000000
00000100
00000000
00000000
00000100
00000000
00000100
00000010
00000000
00000001
00000000
00000100
00000000
,
00000001
00000100
00001000
00000100
00000001
00000000
00001010
00000000
,
00000010
00001000
00000100
00000010
,
00000100
00010000
00000100
00010000
00000100
00010000
00001000
02000000
,
00000000
00000000
03100000
00000000
20000000
00000000
00000000
00000000
31000000
00000000
00000000
10000000
00000000
00000000
00200000
00000000
,
00000000
01300000
00020000
00000000
01030000
00200000
00000000
00000000
,
10300000
00000000
01000000
00000000
00110000
00010000
01000000
00000000
,
00010000
00000000
00010000
00100000
00001000
00010000
00000100
00001000
,
00000000
00000000
00000100
00000000
00000020
00000000
00000000
00000000
00000130
00000000
00000000
00001000
00000000
00000000
00000020
00000000
,
00000000
00000130
00000002
00000000
00000103
00000020
00000000
00000000
,
00000000
00000230
00000000
00000310
00001000
00000100
00020000
00002000
,
00000000
00000000
00033000
00000000
00011000
00000100
00011000
01000000
,
00011000
00000000
00001000
00000000
01000000
00000000
00100000
00000000
20000000
00000000
00000000
00000000
31000000
00000000
00000000
10000000
,
00000000
00000000
01000000
00000000
00100000
00000000
00000000
11000000
00000000
00000000
00000000
00000000
00000000
00000000
00000000
00000000
,
10000000
00000000
00100000
00000000
01000000
00000000
00010000
00000000
00100000
00000000
00000000
00000000
00001000
00000000
00000000
00010000
,
00000000
00000000
00000100
00000000
00001000
00000000
00000000
00000011
00000000
00000000
00000000
00000000
00000000
00000000
00000000
00000000
,
00000100
00000000
00000010
00000000
00001000
00000000
00000100
00000000
00020000
00000000
00000000
00000000
00031000
00000000
00000000
00010000
,
00000000
00001000
00010000
00000000
00001000
00000000
00000000
01100000
00000000
00000000
00000000
00000000
00000000
00000000
00000000
00000000
,
10000000
01000000
00010000
00001000
,
00000110
00000011
00000101
00001010
,
00001001
00000001
00001000
00000010
00020000
00000000
00031000
00000000
,
00010000
00000000
00001000
00000000
01000000
00000000
00000000
10100000
00000000
00000000
00000000
00000000
00000000
00000000
00000000
00000000
,
01000000
10000000
00010000
00000000
00100000
01000000
10000000
00000000
,
02000000
03200000
00302000
00003020
,
00000031
00001010
00000000
00000001
,
00001010
00000000
00000000
00000000
,
00000010
00001000
00000100
00010000
00001000
00100000
01000000
10000000
,
00110000
00011000
00001010
00022000
,
00000000
00000000
00000000
00033000
00000000
00000000
00000000
00000000
;

//---------------dance-double - ----------------
#NOTEDATA:;
#CHARTNAME:;
#STEPSTYPE:dance-double;
#DESCRIPTION:;
#CHARTSTYLE:;
#DIFFICULTY:Hard;
#METER:13;
#RADARVALUES:0.446882,0.543842,0.206091,0.552031,0.257614,425.000000,397.000000,28.000000,75.000000,4.000000,0.000000,2.000000,0.000000,0.000000,0.446882,0.543842,0.206091,0.552031,0.257614,425.000000,397.000000,28.000000,75.000000,4.000000,0.000000,2.000000,0.000000,0.000000;
#CREDIT:Pandemonium X;
#NOTES:
00000000
00000000
00000000
00000000
,
00000000
00000000
00000000
00000000
,
00000000
00000000
00000000
00000000
,
00000000
00000000
00000000
00000000
00000000
00000000
00000000
00000000
01000000
00100000
01000000
00100000
20000000
00000000
30000000
00000000
,
01000000
00000000
00100000
00000000
01000000
00000000
10000000
01000000
00000000
01000000
10000000
00000000
00100000
00000000
01000000
00010000
,
00000000
00010000
00100000
00000000
00001000
00000000
00010000
00000000
00000100
00000000
00001000
00000000
00000010
00000000
00000100
00000001
,
00000010
00000000
00001000
00000000
00000010
00000000
00000001
00000100
,
00001000
00000000
00000100
00000040
00000100
00000000
00000100
00000030
00000100
00000000
00001001
00000000
00000001
00000000
00000100
00000010
,
00000000
00001000
00000100
00000000
00000010
00000000
00000001
00000010
00000000
00000001
00000100
00000000
00000010
00000000
00001000
00000100
,
00010000
00000000
00000100
00000000
00010000
00000000
00001000
00000000
01000000
00000000
00100000
00000000
10000000
00000000
01000000
00100000
,
00010000
00000000
00100000
00000000
10000000
00000000
00100000
00010000
,
01000000
00400000
01000000
00000000
01000000
00300000
01000000
00000000
00100000
00000000
10010000
00000000
00000000
00000000
00000000
00000000
,
20000000
30200000
02000000
03300000
,
00001000
00020000
00000200
00030300
,
00000000
00010000
00000100
00001000
00000010
00000100
00000001
00002000
,
00000000
00003010
00001000
00000100
00010000
00001000
01000000
00100000
,
20000000
32000000
00200000
03300000
,
00200000
00302000
00020000
00033000
,
00000000
00010000
00000100
00001000
00000010
00000001
00000010
00000100
,
00000001
00000100
00000000
00000010
00000000
00001000
00000100
00000000
00020100
00000000
00031M00
00000000
00012000
00000000
010M3000
00000000
,
01100000
00000000
01000000
00000000
00100000
00000000
10000000
00000000
12000000
00000000
00000000
00000000
03100000
00000000
00000000
01000000
,
00000000
01000000
00100000
00000000
00001000
00000000
00010000
00000100
00000000
00000000
00001000
00001000
00000000
00001000
00000000
00000000
,
00000001
00000000
00000100
00000000
00001000
00000000
00000100
00000000
00000002
00000000
00000000
00000000
00001003
00000000
00000100
00001000
,
00000000
00000100
00010000
00000000
00001000
00000000
00001000
01000000
00000000
00000000
00100000
00100000
00000000
00100000
00000000
00000000
,
01000000
00000000
10000000
00000000
01000000
00000000
00010000
00000000
20000000
00000000
00000000
00000000
31000000
00000000
00000000
01000000
,
00000000
00100000
00001000
00000000
00010000
00000000
00000100
00001000
00000000
00000000
00000010
00000010
00000000
00000010
00000000
00000010
,
00000010
00000100
00001000
00000100
00000001
00001000
00000010
00001000
,
00000002
00000203
00002300
00023000
,
00031000
00000000
00000000
00000000
01000000
00000000
00000000
00000000
00100000
00000000
00000000
00000000
10000000
00000000
00000000
00110000
,
00000000
00000000
00000000
00000000
00100000
00010000
00001000
00000100
,
00000001
00000100
00001000
00000100
00000001
00001000
00000010
00001000
,
00000200
00020300
02030000
23000000
,
30010000
00011000
00000000
00010000
,
00001001
00000000
00000000
00000001
00000000
00000001
00000100
00000001
,
00001000
00000100
00010000
00001000
01000000
00100000
10000000
01000000
,
00200000
00302000
00023000
00030020
,
00000130
00000000
00000000
00000000
00000100
00000000
00000000
00000100
00000000
00000100
00000100
00000000
00000100
00000000
00000100
00000000
,
00000010
00000000
00010000
00000000
00001000
00000000
01000000
00000000
00200000
00000000
00000000
00300000
20020000
00000000
00000000
30030000
,
10000000
01000000
10000000
00000000
01000000
00000000
00100000
00001000
00000000
00010000
00000100
00000000
00001000
00000000
00000010
00000000
,
00000100
00000011
00000001
00001010
00000010
00001001
0000M11M
00001020
,
00000000
00000000
00010000
00000000
00020030
00000000
00000000
00000000
00030200
00000000
00000000
00002300
00000000
00000000
00003020
00000000
,
00000000
00020030
00002000
00033000
00002000
00020000
00000000
00033000
,
00001000
00000000
01000000
00000000
10000000
00000000
01000000
00010000
00000000
00010000
00100000
00000000
00001000
00000000
00010000
00000000
,
00001000
00010000
00000100
00000000
00000010
00000000
00001100
00000000
00000011
00000000
00000101
00000000
00001010
00000000
00001002
00000000
,
00000000
00000000
00000010
00000000
00000023
00000000
00000000
00000000
00000230
00000000
00000000
00002300
00000000
00000000
00003020
00000000
,
00000000
00020030
00002000
00033000
00002000
00020000
00033000
00000000
,
00001000
00200000
00000000
10300000
00100000
00010000
00002000
00020000
,
00033000
00000000
00000000
00000000
00001200
00010300
02010000
03001000
,
00011000
00000000
00010000
00000000
00000100
00000000
00001000
00000000
00000020
00000000
00000000
00000000
00000130
00000000
00000000
00000010
,
00000000
00000100
00000001
00000000
00000010
00000000
00000100
00001000
00000000
00000000
00002100
00000100
00000000
00000100
00000000
00000000
,
00003010
00000000
00000100
00000000
00000001
00000000
00001000
00000000
00000200
00000000
00000000
00000000
00010300
00000000
00001000
01000000
,
00000000
00100000
10000000
00000000
01000000
00000000
00100000
01000000
00000000
00000000
12000000
10000000
00000000
10000000
00000000
00000000
,
03100000
00000000
01000000
00000000
10000000
00000000
00010000
00000000
02000000
00000000
00000000
00000000
03001000
00000000
00000000
00010000
,
00000000
00001000
00010000
00000000
00000100
00000000
00001000
00000010
00000000
00000000
00000100
00000100
00000000
00000100
00000000
00000100
,
00000010
00010000
00001000
01000000
00100000
10000000
01000000
10000000
,
00020000
02030000
03002000
00023000
,
00030100
00000000
00001000
00000000
00000001
00000000
00000100
00000000
00000002
00000000
00000000
00000000
00000013
00000000
00000100
00000010
,
00000000
00000001
00000100
00000000
00000010
00000000
00001000
00000100
00000000
00000000
00012000
00010000
00000000
00013000
00000000
00000000
,
00001000
01000000
00100000
10000000
01000000
10000000
00010000
10000000
,
02000000
03020000
00032000
00003020
,
00000031
00011000
00000000
00001000
,
10010000
00000000
00000000
10000000
00000000
10000000
01000000
00010000
,
01000000
00100000
00001000
00010000
00000100
00000001
00000100
00001000
,
00000020
00020030
00032000
00020000
,
00000000
00033000
00000000
00000000
;
