#TITLE:Purple Perplex;
#SUBTITLE:;
#ARTIST:Eagle;
#TITLETRANSLIT:;
#SUBTITLETRANSLIT:;
#ARTISTTRANSLIT:;
#GENRE:;
#CREDIT:;
#BANNER:Purple Perplex.png;
#BACKGROUND:Purple Perplex-bg.png;
#LYRICSPATH:;
#CDTITLE:cdtitle.png;
#MUSIC:Purple Perplex.ogg;
#OFFSET:-0.036000;
#SAMPLESTART:83.233002;
#SAMPLELENGTH:13.008000;
#SELECTABLE:YES;
#BPMS:0.000000=150.000000
,192.000000=160.000000
,193.000000=170.000000
,194.000000=180.000000
,195.000000=190.000000
,196.000000=200.000000
,197.000000=210.000000
,198.000000=220.000000
,199.000000=230.000000
,200.000000=240.000000
,201.000000=249.999985
,202.000000=260.000000
,203.000000=270.000000
,204.000000=280.000000
,205.000000=290.000000
,206.000000=300.000000
,207.000000=310.000000
,208.000000=350.000000
,210.000000=400.000000
,212.000000=499.999969
,216.000000=750.000000
,220.000000=400.000000
,222.000000=150.000000
,223.000000=75.000000
,224.000000=150.000000
,226.000000=75.000000
,227.000000=150.000000
,229.000000=75.000000
,230.000000=150.000000
,232.000000=75.000000
,233.000000=150.000000
,235.000000=75.000000
,236.000000=150.000000
,238.000000=75.000000
,239.000000=150.000000
,241.000000=75.000000
,242.000000=150.000000
,264.000000=75.000000
,265.000000=150.000000
,267.000000=75.000000
,268.000000=150.000000
,270.000000=75.000000
,271.000000=150.000000
,273.000000=75.000000
,274.000000=150.000000
,276.000000=75.000000
,277.000000=150.000000
,279.000000=75.000000
,280.000000=150.000000
,282.000000=75.000000
,283.000000=150.000000
;
#STOPS:
;
#BGCHANGES:0.000=Purple Perplex.mp4=1.000=0=0=0=StretchNoLoop====,
99999=-nosongbg-=1.000=0=0=0 // don't automatically add -songbackground-
;
#KEYSOUNDS:;
#ATTACKS:;

//---------------dance-single - ----------------
#NOTES:
     dance-single:
     :
     Beginner:
     5:
     0.183906,0.298261,0.139393,0.401781,0.008200,157.000000,140.000000,17.000000,49.000000,0.000000,0.000000,0.183906,0.298261,0.139393,0.401781,0.008200,157.000000,140.000000,17.000000,49.000000,0.000000,0.000000:
0000
0000
0000
0000
,
0000
0000
0000
0000
,
0000
0000
0000
0000
,
0000
0000
0000
0000
,
0000
0000
0000
0000
,
0000
0000
0000
0000
,
0000
0000
0000
0000
,
0000
0000
0000
0000
,
0001
0000
0000
0000
,
1000
0000
0000
0000
,
0010
0010
0100
0100
,
0001
0100
0010
1000
,
2002
0000
3003
0000
,
0000
0000
0000
0000
,
2002
0000
3003
0000
,
0000
0000
0000
0100
,
2001
0000
3001
0000
,
1000
0000
0010
0000
,
1000
0000
0100
0000
,
0010
0100
0010
0100
,
2000
0000
3001
0000
,
0200
0000
0301
0000
,
2000
0000
3002
0000
,
2000
0000
0000
3003
,
0020
0130
0001
0000
,
1000
0002
0013
0000
,
0100
0000
1000
1000
,
1000
0100
0010
0001
,
1002
0000
1003
1000
,
0001
0001
1000
1000
,
0001
0001
1000
1000
,
0002
0023
0230
2300
,
3001
0000
1000
0000
,
0010
0000
0100
0000
,
0010
0010
0100
0100
,
0001
0000
0000
0000
,
1001
0000
0000
0000
,
1000
0000
0000
0000
,
0100
0000
0000
0000
,
0010
0000
0000
0000
,
0001
0000
0000
0000
,
0100
0000
0000
0000
,
0010
0000
0000
0000
,
1000
0000
0000
0000
,
0001
0000
1000
0000
,
0010
0000
1000
0000
,
0100
0000
0010
0000
,
0100
0010
0001
1000
,
2002
0000
3003
0000
,
0000
0000
0000
0000
,
0000
0000
0000
0000
0000
0000
0000
0000
0000
0000
0000
0000
0000
0000
0000
0000
0000
0000
0000
0000
0000
0000
0000
0000
0000
0000
0000
0000
0000
0000
0000
0000
0000
0000
0000
2002
0000
0000
0000
0000
0000
0000
0000
0000
0000
0000
0000
0000
,
0000
0000
3003
0000
,
0000
0000
0000
0000
,
0000
0000
0000
0000
,
0000
0000
0000
0000
,
0000
0000
0000
0000
0000
0000
0000
0000
0000
0000
0000
0000
0000
0000
0000
0000
0000
0000
0000
0000
0000
0000
0000
0000
0000
0000
0000
0000
0000
0000
0000
0000
0000
0000
0000
0000
0000
0000
0000
0000
0000
0000
0000
0000
0000
0000
0000
0000
0000
0000
0000
0000
0000
0000
0000
0000
0000
0000
0000
0000
0000
0000
0000
0000
0000
0000
0000
0000
0000
0000
0000
0000
0000
0000
0000
0000
0000
0000
0000
0000
0000
0000
0000
0000
0000
0000
0000
0000
0000
0000
0000
0000
0000
0000
0000
0000
0000
0000
0000
0000
0000
0000
0000
0000
0000
0000
0000
0000
0000
0000
0000
0000
0000
0000
0000
0000
0000
0000
0000
0000
0000
0000
0000
0000
0000
0000
0000
0000
0000
0000
0000
0000
0000
0000
0000
0000
0000
0000
0000
0000
0000
0000
0000
0000
2000
0000
0000
0000
0000
0000
0000
0000
0000
0000
0000
0000
0000
0000
0000
0000
0000
0000
0000
0000
0000
0000
0000
0000
0000
0000
0000
0000
0000
0000
0000
0000
0000
0000
0000
0000
0000
0000
0000
0000
0000
0000
0000
0000
0000
0000
0000
3000
,
0001
0010
0200
0310
,
0001
0200
0310
1000
,
0200
0310
0001
2001
,
3001
1000
0020
1030
,
0001
0020
0031
1000
,
0010
0100
0010
1000
,
0002
0000
2000
3003
,
0120
0000
0000
0000
,
0100
0100
0100
0130
,
0010
0100
0001
1000
,
2002
3003
0001
2020
,
3030
1000
0022
0033
,
1000
0220
0330
0001
,
2200
3300
0010
2002
,
3003
0100
0202
0303
,
0001
0200
0000
0020
,
0330
2002
0000
3003
;

//---------------dance-single - ----------------
#NOTES:
     dance-single:
     :
     Easy:
     8:
     0.284644,0.536870,0.303386,0.573973,0.000000,243.000000,206.000000,37.000000,70.000000,0.000000,0.000000,0.284644,0.536870,0.303386,0.573973,0.000000,243.000000,206.000000,37.000000,70.000000,0.000000,0.000000:
0000
0000
0000
0000
,
0000
0000
0000
0000
,
0000
0000
0000
0000
,
0000
0000
0000
0000
,
1000
0001
2000
3000
,
0010
0100
0020
0030
,
0100
0001
0200
0300
,
0010
1000
0020
0030
,
1000
0100
0010
0001
,
1000
0100
0010
0001
,
1100
0011
1100
0011
,
1000
0100
0010
0001
0010
0100
1000
0000
,
2002
0000
3003
0000
,
0000
0000
0000
0000
,
0220
0000
0330
0000
,
0000
0000
0000
0110
,
0202
0000
0000
0303
0010
0000
1000
0000
,
0001
0001
0001
0000
0010
0000
0001
0000
,
1000
0010
1000
0001
,
1000
0000
1000
0000
0010
0010
0010
0000
,
2002
3003
0001
0100
,
2000
0000
3100
0010
1000
0000
1001
0000
,
0002
0000
2000
0003
,
0020
0000
0000
3030
,
2001
3001
0100
0010
,
0100
0001
0200
0320
2030
0000
3100
0000
,
0010
0000
0010
0000
0001
0001
0001
0000
,
1000
0100
0010
0001
0010
0100
1000
0000
,
0022
0033
1100
1100
,
0101
0101
0011
0011
,
1010
1010
0011
0011
,
2000
3020
0230
0302
2003
3020
0230
0302
,
0003
0000
1000
0001
,
0100
0000
0010
1000
,
1001
1001
1001
1001
,
0020
0000
0000
0030
,
2001
0000
0000
3000
,
0002
0000
0000
0003
,
0200
0000
0000
0300
,
0020
0000
0000
0030
,
1000
0010
0200
0300
,
0001
0010
0200
0300
,
0010
0001
2000
3000
,
0001
0100
0020
0030
,
1000
0010
0100
0001
,
0010
0100
0010
0001
,
1000
0010
0100
0001
,
1000
0100
0010
0001
0010
0100
1000
0000
,
2002
0000
3003
0000
,
0000
0000
0000
0000
,
0000
0000
0000
2002
,
0000
0000
0000
0000
0000
3003
0000
0000
,
0000
0000
0000
0000
,
0000
0000
0000
0000
,
0000
0000
0000
0000
,
0000
0000
0000
0002
,
0103
0010
2000
3100
,
0010
0002
0013
0001
,
0200
0310
1000
1200
,
0310
0001
2000
3001
,
0010
0200
0310
0001
,
0100
0100
0010
0010
,
2000
0000
0000
0000
0002
0000
0000
3000
,
0020
0000
0000
0000
0000
0000
0000
0003
,
0100
0100
0001
0031
,
1000
0100
0010
0001
0010
0100
1000
0000
,
2002
3003
1000
0022
,
0033
0100
2002
3003
,
1000
0220
0330
1000
,
0202
0303
0010
2200
,
3300
0010
2002
3003
,
1000
0200
0000
0320
,
0000
0200
0000
0330
;

//---------------dance-single - ----------------
#NOTES:
     dance-single:
     :
     Medium:
     13:
     0.489634,0.686000,0.426380,0.336184,0.442779,418.000000,366.000000,52.000000,41.000000,18.000000,0.000000,0.489634,0.686000,0.426380,0.336184,0.442779,418.000000,366.000000,52.000000,41.000000,18.000000,0.000000:
0000
0000
0000
0000
,
0000
0000
0000
0000
,
0000
0000
0000
0000
,
0000
0000
0000
0000
,
1000
0000
0010
0000
0000
0100
0000
0000
0010
0000
0000
1000
0000
0000
1001
0000
,
0000
0000
0001
0000
0000
0010
0000
0000
0100
0000
0000
0010
0000
0000
0011
0000
,
0000
0000
0001
0000
0000
0010
0000
0000
0001
0000
0000
1000
0000
0000
1001
0000
,
0000
0000
0001
0000
0000
0100
0000
0000
0010
0000
0000
0100
0000
0000
1010
0000
,
1000
0100
0010
0000
0011
0000
1010
0000
,
0001
0010
0100
0000
1100
0000
0101
0000
,
1001
1000
1001
0001
1001
1000
1001
0001
,
1000
0100
0010
0001
0010
0100
1000
0000
,
0004
0400
0000
0000
0000
0000
0000
0000
0303
0000
0000
0000
0000
0000
0000
0000
,
0000
0000
0000
0000
,
4000
0040
0000
0000
0000
0000
0000
0000
3030
0000
0000
0000
0000
0000
0000
0000
,
0000
0000
0000
1001
,
0040
0400
0000
0000
0000
0000
0330
0000
1001
0000
0000
0000
1100
0000
0000
0000
,
0001
0001
0001
0000
1010
0000
0011
0000
,
0101
0011
0101
1001
,
0011
0000
0011
0000
1010
1000
0200
0000
,
0320
0032
0203
0000
0310
0000
1000
0000
,
0002
0203
2300
3200
0310
0000
1000
0000
,
0002
0203
2300
3020
,
0004
0000
0000
0033
,
4000
0400
0000
0000
3300
0000
0000
0000
0011
0000
0000
0000
0101
0000
0000
0000
,
0001
0100
1000
0100
0110
0000
1010
0000
,
1001
0000
0011
0000
1100
0100
0100
0000
,
1000
0100
0010
0001
0010
0100
1000
0000
,
0201
0000
0000
0000
0310
0000
0000
1000
0100
0000
0000
0100
0010
0000
0000
0010
,
0001
0000
0000
0001
0100
0000
0000
0100
0010
0000
0000
0010
1000
0000
0000
1000
,
0001
0000
0000
0001
1000
0000
0000
1000
0010
0000
0000
0010
0100
0000
0000
0100
,
0002
0203
2300
3200
0302
0023
2030
3020
,
0031
1000
0000
0001
1000
0000
0000
0000
0110
0000
0000
0000
1001
0000
0000
0000
,
1010
0000
0000
0100
0010
0000
0000
0000
1001
0000
0000
0000
0011
0000
0000
0000
,
0101
1010
1100
0110
,
0002
0000
0000
0000
,
0003
0000
1000
0000
0000
0010
0000
0000
0001
0000
0000
0010
0000
0000
1010
0000
,
0000
0000
0001
0000
0000
0100
0000
0000
1000
0000
0000
0100
0000
0000
0101
0000
,
0000
0000
0001
0000
0000
0010
0000
0000
1000
0000
0000
0010
0000
0000
0011
0000
,
0000
0000
0001
0000
0000
0010
0000
0000
0100
0000
0000
1000
0000
0000
0101
0000
,
0000
0000
1000
0000
0001
0100
0000
0001
1000
0000
0001
0010
0000
0001
1000
0000
,
0000
0000
0001
0000
1000
0010
0000
1000
0001
0000
1000
0100
0000
1000
0001
0000
,
0000
0000
0100
0000
0010
1000
0000
0010
0100
0000
0010
0001
0000
0010
0100
0000
,
0000
0000
0001
0000
0100
1000
0000
0100
0001
0000
0100
0010
0000
0100
0001
0000
,
1000
0100
1000
0000
0001
0100
0001
0000
1000
0000
0001
0000
0110
0000
0000
0000
,
0001
0010
0001
0000
1000
0010
1000
0000
0001
0000
1000
0000
0110
0000
0000
0000
,
1000
1000
0010
0010
0100
0100
0001
0001
,
1000
0100
0010
0001
0010
0100
1000
0000
,
00M4
4000
00M0
0000
00M0
0000
00M0
0000
00M0
0000
0000
0000
0000
0000
0000
0000
,
0000
0000
0000
0000
,
0000
0000
0000
0000
0000
0000
0M00
0M00
,
0M00
0M00
0M00
0M00
0M00
0000
0000
0000
,
0000
0000
0000
0000
,
0000
0000
0000
0000
,
0000
0000
0000
0000
,
0000
0000
0000
0000
0000
0000
0000
0000
3003
0000
0000
0000
0220
0000
0000
0330
,
1000
0010
0001
0010
0100
0001
0020
0000
0000
0130
0001
0100
,
1000
0010
1000
0002
0000
0000
0103
1000
0100
0001
1000
0100
,
0020
0000
0000
0031
0010
1000
0010
0001
0100
2010
0000
0000
,
3100
0100
0010
0001
0001
0100
0020
0000
0000
0130
0100
0001
,
1000
1000
0100
0020
0000
0000
0130
0100
1000
0010
0010
0100
,
0001
1000
0100
1000
0001
0100
0001
0010
0100
0010
0001
1000
,
0004
0000
0000
0000
4003
0000
0000
3000
,
0440
0000
0000
0000
,
M000
0000
000M
0000
M000
0000
000M
0330
,
1000
0100
0010
0001
0010
0100
1000
0000
,
0102
0000
0000
0000
0013
0000
0000
0000
1000
0100
1000
0010
2000
0000
0000
0000
,
3010
0000
0000
0000
0010
0100
0001
1000
0002
0000
0000
0000
0013
0000
0010
0100
,
1000
0100
0010
0001
2000
0000
0001
0000
3010
0000
0000
0000
0100
0010
1000
0100
,
0020
0000
0000
0000
0130
0000
0000
0000
0010
0001
0100
0010
0200
0000
0000
0000
,
0301
0000
0000
1000
0010
0100
0001
0010
0200
0000
1000
0000
1300
0000
0000
0000
,
0010
0001
1000
0001
2000
0000
0000
0000
0000
0000
0000
0000
0002
0000
0000
0000
,
0000
3003
M22M
0000
0000
0000
0330
0000
;

//---------------dance-single - ----------------
#NOTES:
     dance-single:
     :
     Hard:
     15:
     0.618485,0.745652,0.459178,0.262388,0.668268,528.000000,472.000000,56.000000,32.000000,34.000000,0.000000,0.618485,0.745652,0.459178,0.262388,0.668268,528.000000,472.000000,56.000000,32.000000,34.000000,0.000000:
// measure 0
0000
0000
0000
0000
,  // measure 1
0000
0000
0000
0000
,  // measure 2
0000
0000
0000
0000
,  // measure 3
0000
0000
0000
0000
,  // measure 4
0001
0000
1000
0000
0001
0010
0000
0001
0100
0000
0001
0010
0000
0001
1000
0000
,  // measure 5
0001
0000
1000
0000
1000
0010
0000
1000
0001
0000
1000
0100
0000
1000
0001
0000
,  // measure 6
0010
0000
0001
0000
0001
0010
0000
0001
1000
0000
0001
0100
0000
0100
0010
0000
,  // measure 7
0100
0000
0001
0000
1000
0100
0000
1000
0010
0000
1000
0001
0000
0001
1000
0000
,  // measure 8
0100
0000
1000
0000
0010
0100
0000
0001
0010
0000
0100
1000
0000
1000
0001
0000
,  // measure 9
1000
0000
0001
0000
0010
0001
0000
0100
0010
0000
1000
0001
0000
0001
0010
0000
,  // measure 10
0011
1010
0101
1010
,  // measure 11
1000
0100
0010
0001
0010
0100
1000
0000
,  // measure 12
0040
0400
0000
0000
0000
0000
0000
0330
0001
0000
0000
0000
0001
0000
0000
0000
,  // measure 13
0001
0001
0001
0000
0001
0000
0001
0000
,  // measure 14
4000
0400
0000
0000
0000
0000
0000
3300
0010
0000
0000
0000
0010
0000
0000
0000
,  // measure 15
0100
0000
0100
0000
0100
0100
1001
0000
,  // measure 16
0400
0004
0000
0000
0000
0000
0000
0303
1010
0000
0000
0000
1100
0000
0000
0000
,  // measure 17
0110
0010
0110
0000
0011
0000
0011
0000
,  // measure 18
0101
0101
1010
1010
,  // measure 19
1100
0000
0110
0000
0011
0001
0101
0100
,  // measure 20
0010
0000
4000
0000
0004
0000
0000
3000
0013
0000
0000
0000
1100
0000
0000
0000
,  // measure 21
4010
3040
0034
0043
1030
0000
0101
0000
,  // measure 22
4000
0400
0000
0000
0000
0000
0000
3300
0040
0004
0000
0000
0000
0000
0000
0033
,  // measure 23
0400
4000
0000
0000
0000
0000
0000
0000
0000
0000
0000
0000
3300
0000
0000
0000
,  // measure 24
0440
0000
0000
0330
1001
0000
0000
0000
1020
0000
0100
0000
0130
0000
0000
0000
,  // measure 25
0100
0001
0020
2030
3010
0000
0011
0000
,  // measure 26
1001
0000
0110
0000
1001
0110
1001
0000
,  // measure 27
1000
0100
0010
0001
0010
0100
1000
0000
,  // measure 28
0001
0000
0100
0040
0400
0000
0000
0330
0001
1000
0001
0000
1000
0001
1000
0000
,  // measure 29
0001
0100
0001
0000
0100
0010
0100
0000
0010
1000
0010
0000
1000
0100
1000
0000
,  // measure 30
0100
0010
0100
0000
0010
0001
0010
0000
0100
0010
0100
0000
1000
0100
1000
0000
,  // measure 31
0002
0003
0002
0000
0200
0303
0200
0000
0320
0000
2030
0000
3100
0010
0001
1000
,  // measure 32
0002
0020
0033
0002
0020
0033
0000
0000
1100
0000
0000
0000
1010
0000
0010
0000
,  // measure 33
0200
0000
0000
0010
0310
0000
0000
0000
1001
0000
0000
0000
0110
0000
0000
0000
,  // measure 34
1010
0000
1100
0000
0110
0001
0011
0000
,  // measure 35
1000
0100
0010
0000
0010
0001
0000
0001
0010
0000
0010
0100
0000
0100
0010
0000
,  // measure 36
0001
0000
0100
0000
0001
0100
0000
0100
0010
0000
0010
1000
0000
0001
0100
0000
,  // measure 37
0001
0000
1000
0000
0100
1000
0000
1000
0010
0000
0010
0100
0000
0010
1000
0000
,  // measure 38
0010
0000
0100
0000
0100
0001
0000
0001
0010
0000
0010
0001
0000
0010
0100
0000
,  // measure 39
0010
0000
0001
0000
0001
0100
0000
0100
0010
0000
0010
1000
0000
0100
0010
0000
,  // measure 40
0001
1000
0001
0000
1000
0100
0000
0010
0001
0000
0010
0100
0000
1000
0010
0000
,  // measure 41
0100
0010
1000
0000
0001
0100
0000
0010
1000
0000
0001
0010
0000
0100
0010
0000
,  // measure 42
0100
1000
0010
0000
1000
0010
0000
0100
0001
0000
0100
0010
0000
1000
0100
0000
,  // measure 43
0010
0100
1000
0000
0100
0010
0000
0100
1000
0000
0010
0100
0000
0001
0010
0000
,  // measure 44
0100
0010
0100
0000
0100
0010
0100
0000
0110
0000
0010
0000
1001
0000
0000
0000
,  // measure 45
1000
0001
1000
0000
1000
0001
1000
0000
1001
0000
0010
0000
0110
0000
0000
0000
,  // measure 46
1000
1000
0100
0100
0010
0010
0001
0001
,  // measure 47
1000
0100
0010
0001
0010
0100
1001
0000
,  // measure 48
M040
0400
0000
0000
000M
0000
0000
0000
M330
0000
0000
0000
000M
0000
0000
0000
,  // measure 49
M000
000M
M000
000M
,  // measure 50
M000
0000
0000
0000
0000
0000
0000
0000
000M
0000
0000
0000
0000
0000
0000
0000
M000
0000
0000
0000
0000
0000
0000
0000
0M04
0000
0000
4000
0000
0000
0000
0000
,  // measure 51
00M0
0M00
00M0
3M03
,  // measure 52
00M0
0M00
00M0
0M00
,  // measure 53
00M0
0M00
00M0
0M00
,  // measure 54
00M0
0M00
00M0
0M00
,  // measure 55
00M0
0M00
MMMM
0201
,  // measure 56
0310
1000
0010
0100
0001
0010
0210
0000
0000
0310
0001
0100
,  // measure 57
0001
1000
0100
0210
0000
0000
1300
0100
0010
0100
1000
0010
,  // measure 58
0210
0000
0000
0000
0000
0000
0000
0000
0000
0000
0000
0000
0301
0000
0000
0000
0100
0000
0000
0000
0001
0000
0000
0000
0010
0000
0000
0000
0100
0000
0000
0000
1000
0000
0000
0000
0001
0000
0000
0100
0000
0000
0020
0000
0000
0000
0000
0000
,  // measure 59
0130
0100
0001
1000
1000
0100
0120
0000
0000
0031
0001
0010
,  // measure 60
1000
1000
0010
0021
0000
0000
0130
0100
0010
0001
0001
1000
,  // measure 61
0001
0100
1000
0100
0001
0010
1000
0010
0001
0100
0010
1000
,  // measure 62
0004
4000
0000
0000
0000
0000
3003
0000
0400
0040
0000
0000
0000
0000
0000
0330
,  // measure 63
4000
0004
0000
0000
0000
0000
0000
0000
0000
0000
0000
0000
0000
0000
0000
3003
,  // measure 64
0110
1001
0110
1001
,  // measure 65
1000
0100
0010
0001
0010
0100
1000
0000
,  // measure 66
0201
0000
0000
0000
0310
0000
0000
0000
0100
0001
0010
0100
2000
0000
0000
0000
,  // measure 67
3010
0000
0000
0000
0100
0001
0010
0001
2000
0000
0000
0000
3001
0010
1000
0010
,  // measure 68
0001
0100
0001
0010
0200
0000
1000
0000
1300
0000
0000
0000
0100
0010
0100
1000
,  // measure 69
0020
0000
0000
0000
0130
0000
0000
0000
0010
0100
0001
0010
0200
0000
0000
0000
,  // measure 70
1300
0000
0000
0100
0010
0100
1000
0001
2000
0000
0001
0000
3001
0000
0000
0000
,  // measure 71
0100
0010
1000
0001
0020
0000
0000
0000
0000
0000
0000
0000
0200
0000
0000
0000
,  // measure 72
0000
0330
2002
0000
0000
0000
3003
0000
;

//---------------dance-single - ----------------
#NOTES:
     dance-single:
     :
     Challenge:
     17:
     0.689939,0.954435,0.573973,0.811761,0.696967,589.000000,509.000000,70.000000,99.000000,52.000000,20.000000,0.689939,0.954435,0.573973,0.811761,0.696967,589.000000,509.000000,70.000000,99.000000,52.000000,20.000000:
0000
0000
0000
0000
,
0000
0000
0000
0000
,
0000
0000
0000
0000
,
0000
0000
0000
0000
,
1000
0000
0001
0000
0010
0001
0000
1000
0100
0000
0010
0001
0000
1000
0100
0000
,
0010
0000
0100
0000
1000
0010
0000
0100
0001
0000
1000
0010
0000
0100
0001
0000
,
0010
0000
0100
0000
1000
0100
0000
0100
0010
0000
0010
0001
0000
0001
1000
0000
,
0001
0000
1000
0000
0001
0100
0000
0100
0010
0000
0010
1000
0000
1000
0100
0000
,
0110
0100
0110
0000
0011
0000
1100
0000
,
0110
0100
0110
0000
1001
0000
0101
0000
,
1001
0001
0110
1000
1001
0100
0110
0001
,
1000
0100
0010
0001
0010
0100
1000
0000
,
0112
0000
1003
1000
,
1000
1000
1000
0000
1000
0000
1000
0000
,
2110
0000
3001
0001
,
0010
0000
0010
0000
0010
0010
0010
0000
,
1201
0000
1301
1100
,
1010
0010
0010
0000
0110
0000
0101
0000
,
1001
1100
1001
0101
,
1001
0010
1001
0100
0101
0001
1100
0100
,
2000
3200
0302
0203
1300
0000
1010
0000
,
0201
0302
0203
2300
3200
0300
1001
0000
,
4000
0100
0000
0010
3004
0010
0000
4003
,
0004
0000
0000
0000
0000
0000
0000
3003
,
1210
0000
0000
0000
0301
0000
0000
0000
1000
0010
0100
0000
0001
0010
0100
0000
,
0010
0001
1000
0000
0200
1000
0320
0000
0130
0010
1000
0000
0001
0010
0100
0000
,
1000
0010
0100
0000
0010
1000
0001
0000
0010
0100
1000
0000
0100
0010
0001
0000
,
1000
0100
0010
0001
0010
0100
1000
0000
,
0020
0400
0000
0000
0000
0000
0330
0000
1000
0200
0001
0000
0301
0200
1000
0000
,
1300
0020
0001
0000
0031
0020
1000
0000
1030
0200
0001
0000
0301
0200
1000
0000
,
0301
0020
1000
0000
1030
0020
0001
0000
0031
0020
1000
0000
1030
0020
0001
0000
,
0130
0000
0000
1000
0000
0000
0100
0000
0000
0010
0000
0000
1000
0000
0000
0001
0000
0000
0010
0100
0010
0001
0100
0010
,
1000
1000
0000
0001
0001
0000
0000
0000
0100
0010
1000
0000
0001
0010
0100
0000
,
2200
0000
3000
M310
0M01
0000
0000
0000
1000
0001
0100
0000
1010
0000
0000
0000
,
1010
0010
1000
0000
0101
0100
0001
0000
0011
0010
0001
0000
1100
0100
1000
0000
,
0001
0100
0010
0000
1000
0010
0000
0100
0001
0000
0010
0100
0000
1000
0100
0000
,
1000
0010
0100
0000
0001
0010
0000
0100
1000
0000
0001
0010
0000
0100
1000
0000
,
0001
0100
0010
0000
1000
0010
0000
0100
0001
0000
1000
0010
0000
0100
0001
0000
,
1000
0001
0010
0000
0100
0010
0000
1000
0001
0000
0010
0100
0000
1000
0001
0000
,
0100
0001
0010
0000
0001
1000
0000
0010
0100
0000
0001
1000
0000
0010
0100
0000
,
0001
1000
0200
0000
0310
0200
0000
1300
0200
0000
0310
0200
0000
1300
0200
0000
,
0310
0001
2000
0000
3001
2000
0000
3010
2000
0000
3100
2000
0000
3010
2000
0000
,
3100
0010
0002
0000
1003
0002
0000
0013
0002
0000
0103
0002
0000
1003
0002
0000
,
0013
0001
0020
0000
0031
0020
0000
1030
0020
0000
0031
0020
0000
1030
0020
0000
,
0031
0000
0100
0010
0110
0000
0010
0100
0110
0000
1000
0000
1001
0000
0000
0000
,
1000
0000
0010
0100
0110
0000
0100
0010
0110
0000
0001
0000
1001
0000
0000
0000
,
1000
1000
0001
0001
0100
0100
0010
0010
,
1000
0100
0010
0001
0010
0100
1000
0000
,
2222
0000
0000
0000
3333
0000
M000
0M00
,
00M0
000M
00M0
0M00
M000
0M00
00M0
000M
,
00M0
0000
0000
0000
0M00
0000
0000
0000
M000
0000
0000
0000
0M00
0000
0000
0000
00M0
0000
0000
0000
0000
0000
0000
2222
0000
0000
0000
0000
0000
0000
0000
0000
,
0000
0000
0000
0000
0000
0000
3333
M000
,
0M00
00M0
000M
00M0
0M00
M000
0M00
00M0
,
000M
00M0
0M00
M000
0M00
00M0
000M
00M0
,
0M00
M000
0M00
00M0
000M
00M0
0M00
M000
,
0M00
0000
00M0
0000
000M
0000
00M0
0000
MMMM
0000
0000
0000
0202
0000
0000
0300
,
1003
0000
0000
0000
1000
0000
0000
0000
0010
0000
0000
0000
0100
0000
0000
0000
0100
0000
0000
0000
0001
0000
0000
0000
0202
0000
0000
0000
0000
0000
0000
0000
0000
0003
0000
0000
0310
0000
0000
0000
0010
0000
0000
0000
1000
0000
0000
0000
,
0100
0000
0000
0000
0100
0000
0000
0000
1000
0000
0000
0000
2002
0000
0000
0000
0000
0000
0000
0000
0000
3000
0000
0000
0103
0000
0000
0000
0100
0000
0000
0000
0010
0000
0000
0000
1000
0000
0000
0000
1000
0000
0000
0000
0001
0000
0000
0000
,
0021
0000
0000
0000
0000
0000
0000
0000
0000
0000
0000
0000
0130
0000
0000
0000
0100
0000
0000
0000
0010
0000
0000
0000
0001
0000
0000
0000
0001
0000
0000
0000
0010
0000
0000
0000
0100
0000
0000
2000
0000
0000
0002
0000
0000
3003
0000
0000
,
1200
1000
1300
0012
0010
0013
2002
0000
3003
1020
1000
1030
,
0201
0001
0301
2002
0000
3003
0021
0001
0031
2100
0100
3100
,
2000
3200
0302
0203
2300
3020
0032
2003
3020
0230
0302
0023
,
0034
0403
4000
3000
0304
0043
4000
3000
,
0032
0010
0100
1000
,
1010
1100
1010
1100
,
1003
0100
0010
0001
0010
0100
1000
0000
,
1102
0000
0000
0000
1003
0000
0000
0000
1000
0100
0010
0100
2000
0000
0000
0000
,
0011
0000
0000
0000
0000
0000
3001
0100
0010
1000
0100
0010
0002
0000
0000
0000
0000
0000
1010
0000
0000
1003
0001
1000
,
0001
0010
0001
0010
0100
1000
0200
0000
0000
0310
0000
0000
1011
0000
0000
0000
0000
0000
0001
1000
0001
0100
0001
1000
,
0002
0000
0000
0000
1010
0000
0003
0000
0010
0001
0100
0001
2000
0000
0000
0000
,
0101
0000
3000
0001
0100
1000
0100
0001
2000
0000
0100
0000
0011
0000
3000
0000
,
0001
0100
0001
0100
0001
0100
0020
0000
0000
0000
0000
0000
0000
0000
0000
0000
0000
0000
0200
0000
0000
0000
0000
0000
,
0000
0000
0000
0330
2MM2
0000
0000
0000
0000
0000
0000
0000
3003
0000
0000
0000
;

//---------------dance-double - ----------------
#NOTES:
     dance-double:
     :
     Hard:
     13:
     0.414666,0.686000,0.393581,0.360783,0.221390,354.000000,306.000000,48.000000,44.000000,0.000000,0.000000,0.414666,0.686000,0.393581,0.360783,0.221390,354.000000,306.000000,48.000000,44.000000,0.000000,0.000000:
00000000
00000000
00000000
00000000
,
00000000
00000000
00000000
00000000
,
00000000
00000000
00000000
00000000
,
00000000
00000000
00000000
00000000
,
10000000
00010000
00100000
00110000
,
00100000
00001000
00010000
00011000
,
00010000
00000100
00001000
00001100
,
00001000
00000010
00000100
00000101
,
00000001
00001000
00000001
00000000
00001000
00000000
00001010
00000000
,
00000010
00010000
00000010
00000000
00010000
00000000
00010010
00000000
,
00000100
00010000
00001000
00100000
00010000
10000000
01000000
00100000
,
00001000
00010000
00001000
00010000
00001000
00010000
00011000
00000000
,
00040000
00400000
00000000
00000000
00000000
00000000
00000000
00000000
00330000
00000000
00000000
00000000
00000000
00000000
00000000
00000000
,
00000000
00000000
00000000
00000000
,
40000000
00040000
00000000
00000000
00000000
00000000
00000000
00000000
30030000
00000000
00000000
00000000
00000000
00000000
00000000
00000000
,
00000000
00000000
00000000
01100000
,
04000000
00004000
00000000
00000000
00000000
00000000
03003000
00000000
00100000
00000000
00000000
00000000
00001000
00000000
00000000
00000000
,
00010000
00010000
00010000
00000000
00000100
00000000
00001000
00000000
,
00000010
00000100
00000001
00001000
,
00001001
00000000
00001001
00000000
00001001
00001001
00001001
00000000
,
00000002
00000203
00002300
00000000
00003100
00000000
00000010
00000000
,
00002000
00003200
00020300
00032000
02003000
00000000
03100000
00000000
,
20000000
32000000
03020000
00032000
,
00000020
00000000
00000000
00003030
,
00001002
00000103
00000010
00001000
,
00000100
00000000
00010000
00001000
01000000
00000000
00100000
00000000
,
10010000
00000000
10010000
00000000
10010000
10010000
10010000
00000000
,
10000000
00010000
00100000
00010000
00100000
00001000
00010000
00000000
,
00040000
00000400
00000000
00000000
00000000
00000000
00030300
00000000
00001001
00000000
00000000
00000000
00001001
00000000
00000000
00000000
,
00001010
00001010
00001100
00001100
,
00010100
00010100
00011000
00011000
,
00000100
00000000
00010000
00000000
00001000
00000000
01000000
00000000
00001000
00000000
00000000
00000000
00010000
00001000
00010000
00001000
,
00020000
00000000
00030020
00000000
00000130
00001000
00000100
00000001
,
00000020
00000130
00000011
00000011
,
00000110
00000000
00001100
00000000
00010100
00010100
00010100
00000000
,
00002000
00000000
00000000
00000000
,
01003000
00100000
10000000
01000000
,
00010000
01000000
10000000
00010000
,
00100000
00001000
00010000
00000100
,
00001000
00000010
00000001
00000010
,
00001000
00000100
00010000
00001000
,
01000000
00100000
10000000
01000000
,
00010000
01000000
00100000
00010000
,
00100000
00001000
00010000
00000100
,
00001000
00000000
00000010
00000000
00000000
00000100
00000000
00000000
00000001
00000000
00000000
00000010
00000000
00000000
00000110
00000000
,
00000000
00000000
00000100
00000000
00000000
00001000
00000000
00000000
00000100
00000000
00000000
00010000
00000000
00000000
00001000
00000000
,
00010000
00000000
00001000
00000000
00000000
01000000
00000000
00000000
00100000
00000000
00000000
10000000
00000000
00000000
00010000
00000000
,
00100000
00001000
00010000
00000010
00010000
00001000
00011000
00000000
,
00000400
00040000
00000000
00000000
00000000
00000000
00000000
00000000
00000000
00000000
00030300
00000000
00000000
00000000
00000000
00000000
,
00000000
00000000
00000000
00000000
,
00000000
00000000
00000000
00000000
00000000
00000000
00000000
00000000
00000000
00000000
00000000
00000000
00000000
00000000
00000000
00000000
00000000
00000000
00000000
00000000
00000000
00000000
00000000
00004000
00000000
00000000
00040000
00000000
00000000
00000000
00000000
00000000
,
00000000
00000000
00000000
00000000
00000000
00033000
00000000
00000000
,
00000000
00000000
00000000
00000000
,
00000000
00000000
00000000
00000000
,
00000000
00000000
00000000
00000000
,
00000000
00000000
00000000
00020100
,
00031000
01000000
00001000
00010000
00001000
00010000
00000200
00000000
00000000
00001300
00000010
00000100
,
00000010
00001000
00000100
00000020
00000000
00000000
00000031
00000100
00000010
00000100
00000001
00001000
,
00000200
00000000
00000000
00000000
00000000
00000000
00000000
00000000
00000000
00000000
00000000
00000000
00010300
00000000
00000000
00000000
00001000
00000000
00000000
00000000
00100000
00000000
00000000
00000000
00001000
00000000
00000000
00000000
00010000
00000000
00000000
00000000
00001000
00000000
00000000
00000000
00200000
00000000
00000000
02300000
00000000
00000000
20000000
00000000
00000000
03000000
00000000
00000000
,
31000000
00100000
00010000
00100000
01000000
10000000
00020000
00000000
00000000
00130000
00001000
00010000
,
00000100
00001000
00000010
00000200
00000000
00000000
00000310
00001000
00000100
00001000
00000010
00001000
,
00000100
00010000
00001000
00010000
00001000
01000000
00001000
01000000
00100000
10000000
00010000
00100000
,
01000000
00000000
00000000
00000000
00000000
00000000
10000000
00100000
01000000
00000000
00000000
00000000
01010000
00000000
00000000
00000000
,
00210000
00000000
00000000
00000000
,
00001000
00001000
00001000
00301000
,
00010000
00001000
00010000
00001000
00010000
00001000
00011000
00000000
,
00020200
00000000
00030300
00000000
00010000
00001000
02002000
00000000
,
03003000
00000000
00100000
10000000
22000000
00000000
33000000
01000000
,
00100000
00001000
00020000
00001000
00031000
00000000
00010000
00000010
,
00000220
00000000
00000330
00000000
00000001
00000100
00002020
00000000
,
00003030
00000010
00010000
00001000
00022000
00000000
00033000
00000000
,
00001000
00100000
00002000
00000000
00000000
00000000
00023000
00000000
,
00000000
00002000
00000000
00033000
;

//---------------dance-double - ----------------
#NOTES:
     dance-double:
     :
     Challenge:
     17:
     0.654798,0.954435,0.598572,0.696967,0.746165,559.000000,486.000000,73.000000,85.000000,121.000000,0.000000,0.654798,0.954435,0.598572,0.696967,0.746165,559.000000,486.000000,73.000000,85.000000,121.000000,0.000000:
00000000
00000000
00000000
00000000
,
00000000
00000000
00000000
00000000
,
00000000
00000000
00000000
00000000
,
00000000
00000000
00000000
00000000
,
10000000
00000000
00100000
00000000
01000000
00010000
00000000
00010000
00100000
00000000
00100000
00001000
00000000
00001000
00010000
00000000
,
00000100
00000000
00001000
00000000
00000010
00000100
00000000
00000100
00000001
00000000
00000001
00000010
00000000
00000010
00000001
00000000
,
00000010
00000000
00000100
00000000
00001000
00000100
00000000
00000100
00010000
00000000
00010000
00001000
00000000
00001000
01000000
00000000
,
00100000
00000000
10000000
00000000
01000000
00100000
00000000
01000000
10000000
00000000
10000000
00100000
00000000
01000000
00010000
00000000
,
00100000
00000000
01000000
00000000
10000000
00000000
00100000
00000000
01000000
00010000
00100000
00000000
01000000
10000000
00100000
00000000
,
01000000
00000000
00010000
00000000
00100000
00000000
00001000
00000000
00010000
00000100
00001000
00000000
00000100
00010000
00001000
00000000
,
00011000
00001000
01001000
01000000
01100000
00100000
10100000
10000000
,
10000000
01000000
00100000
00010000
00001000
00000100
00000011
00000000
,
00004400
00000000
00000000
00003300
00000001
00000000
00000001
00000000
,
00000001
00000001
00000001
00000000
00000001
00000000
00000001
00000000
,
00040040
00000000
00000000
00000000
00000000
00000000
00000000
00030030
00001000
00000000
00000000
00000000
00001000
00000000
00000000
00000000
,
00011000
00011000
00011000
00100010
,
00404000
00000000
00000000
00303000
00001010
00000000
00110000
00000000
,
00001010
00000010
00001010
00000000
00110000
00000000
00001010
00000000
,
00001100
01010000
00001100
01010000
,
00011000
00000000
00011000
00000000
00011000
00000100
00011000
01000000
,
00020000
00032000
02003000
23000000
30010000
00000000
01010000
00000000
,
01000000
00002000
00023000
00030200
00020300
00030000
00011000
00000000
,
00020000
00000000
00030020
00000000
,
00200000
00000000
00000000
00300030
,
00044000
00033000
00000110
00000000
00000011
00000001
00000101
00000000
,
00000001
00000100
00002000
00023000
01030000
00000000
10010000
00000000
,
11000000
00000000
00110000
00000000
11000000
00110000
11000000
00000000
,
10000000
01000000
00100000
00010000
00001000
00000100
00000011
00000000
,
00000100
00000000
00010000
00004000
04000000
00000000
00000000
03003000
10000000
00100000
01000000
00000000
00010000
00100000
00001000
00000000
,
00010000
00000100
00001000
00000000
00000010
00000100
00000001
00000000
00000010
00000100
00001000
00000000
00000100
00010000
00001000
00000000
,
01000000
00100000
10000000
00000000
00010000
00100000
01000000
00000000
00100000
00010000
01000000
00000000
00100000
10000000
01000000
00000000
,
20000000
00000000
32000000
00000000
03200000
00000000
00320000
00000000
00032000
00000000
00003200
00000000
00000310
00000001
00000010
00000100
,
00001000
00010000
0000M000
00010000
00001000
00000000
00000000
00000000
00011000
00000000
00001000
01000000
00100000
00000000
10000000
00000000
,
01000000
MMM11MMM
00010100
00010100
,
00110000
00000000
01010000
00000000
01100000
01000000
01010000
00010000
,
00102000
00000000
00000000
00000000
,
00013000
00000000
00000100
00000000
00001000
00000010
00000000
00000100
00000001
00000000
00000010
00000100
00000000
00000010
00000001
00000000
,
00000100
00000000
00000010
00000000
00001000
00000100
00000000
00010000
00001000
00000000
00010000
00001000
00000000
00100000
00010000
00000000
,
10000000
00000000
00010000
00000000
01000000
00100000
00000000
10000000
01000000
00000000
00100000
00010000
00000000
01000000
00010000
00000000
,
00100000
00000000
00001000
00000000
00010000
00000100
00000000
00001000
00000010
00000000
00000100
00000001
00000000
00000010
00000100
00000000
,
00001000
00000000
00000200
00000000
00010300
00002000
00000000
01003000
00200000
00000000
10300000
02000000
00000000
03010000
02000000
00000000
,
13000000
00000000
00200000
00000000
01300000
00020000
00000000
00130000
00002000
00000000
00013000
00000200
00000000
00001300
00000020
00000000
,
00000130
00000000
00000002
00000000
00000013
00000200
00000000
00000310
00000002
00000000
00000103
00002000
00000000
00003100
00000020
00000000
,
00001030
00000000
00000200
00000000
00010300
00002000
00000000
01003000
00200000
00000000
10300000
02000000
00000000
03100000
00010000
00000000
,
10000000
01000000
10000000
01000000
00100000
01000000
00100000
01000000
00100000
00001000
00100000
00001000
00010000
00000000
00000000
00000000
,
00010000
00000100
00010000
00000100
00001000
00000100
00001000
00000100
00001000
00000010
00001000
00000010
00000100
00000000
00000000
00000000
,
00000001
00000100
00000010
00001000
00000100
00010000
00001000
01000000
,
00100000
01000000
00001000
00100000
00001000
00010000
00011000
00000000
,
MMM01000
00000000
00000000
00000000
00000000
00000000
MMM00000
00000000
00000000
00000000
00000000
00000000
MMM00000
00000000
00000000
00000000
00000000
00000000
MMM00000
00000000
00000000
00000000
00000000
00000000
MMM10000
00000000
00000000
00000000
00000000
00000000
MMM00000
00000000
00000000
00000000
00000000
00000000
MMM00000
00000000
00000000
00000000
00000000
00000000
MMM00000
00000000
00000000
00000000
00000000
00000000
MMM00000
00000000
00000000
00001000
00000000
00000000
00000000
00000000
00000000
00000000
00000000
00000000
00000000
00000000
00000000
00000000
00000000
00000000
00000000
00000000
00000000
00000000
00000000
00000000
00000000
00000000
00000000
00000000
00010000
00000000
00000000
00000000
00000000
00000000
00000000
00000000
00000000
00000000
00000000
00000000
00000000
00000000
00000000
00000000
00000000
00000000
00000000
00000000
,
00000000
00000000
00000000
00000000
00000000
00000000
00001000
00000000
00000000
00000000
00000000
00000000
00000000
00000000
00000000
00000000
00000000
00000000
00000000
00000000
00000000
00000000
00000000
00000000
00000000
00000000
00000000
00000000
00000000
00000000
00000000
00000000
00010000
00000000
00000000
00000000
00000000
00000000
00000000
00000000
00000000
00000000
00000000
00000000
00000000
00000000
00000000
00000000
00000000
00000000
00000000
00000000
00000000
00000000
00000000
00000000
00000000
00000000
00000000
00000000
00001000
00000000
00000000
00000000
00000000
00000000
00000000
00000000
00000000
00000000
00000000
00000000
00000000
00000000
00000000
00000000
00000000
00000000
00000000
00000000
00000000
00000000
00000000
00000000
00000000
00000000
00000000
00010000
00000000
00000000
00000000
00000000
00000000
00000000
00000000
00000000
,
00000000
00000000
00000000
00000000
00000000
00000000
00001000
00000000
00000000
00000000
00000000
00000000
00000000
00000000
00000000
00010000
00000000
00000000
00000000
00000000
00000000
00000000
00000000
00000000
00001MMM
00000000
00000MMM
00000000
00000MMM
00000000
00000MMM
00000000
,
00010MMM
00000MMM
00000MMM
00000MMM
00001MMM
00000MMM
00000MMM
00000MMM
00010MMM
00000MMM
00000MMM
00000MMM
00001MMM
00000000
00000000
00000000
,
00010000
00000000
00000000
00000000
00000000
00000000
00000000
00000000
00000000
00000000
00000000
00000000
00000000
00000000
00000000
00000000
00000000
00000000
00000000
00000000
00000000
00000000
00000000
00000000
00000000
00000000
00000000
00000000
00000000
00000000
00000000
00000000
00000000
00000000
00000000
00000000
00000000
00000000
00000000
00001000
00000000
00000000
00000000
00000000
00000000
00000000
00000000
00000000
00000000
00000000
00000000
00000000
00000000
00000000
00000000
00000000
00000000
00000000
00000000
00000000
00000000
00000000
00000000
00000000
00000000
00000000
00000000
00000000
00000000
00000000
00000000
00000000
00000000
00000000
00000000
00000000
00000000
00000000
00000000
00000000
00010000
00000000
00000000
00000000
00000000
00000000
00000000
00000000
00000000
00000000
00000000
00000000
00000000
00000000
00000000
00000000
00000000
00000000
00000000
00000000
00000000
00000000
00000000
00000000
00000000
00000000
00000000
00000000
00000000
00000000
00000000
00000000
00000000
00000000
00000000
00000000
00000000
00000000
00000000
00000000
00000000
00000000
00000000
00000000
00000000
00000000
00000000
00000000
00000000
00000000
00000000
00000000
00000000
00000000
00000000
00000000
00000000
00000000
00000000
00000000
00000000
00000000
00000000
00000000
00000000
00000000
00000000
00000000
00000000
00000000
00000000
00000000
00000000
00000000
00000000
00000000
00000000
00000000
00000000
00000000
00004000
00000000
00000000
00000000
00000000
00000000
00000000
00000000
00000000
00000000
00000000
00000000
00000000
00000000
00000000
00000000
00000000
00000000
00000000
00000000
00000000
00000000
00000000
00000000
00000000
00000000
00000000
00000000
00000000
00000000
00000000
00000000
,
00040000
00000000
00000000
00000000
,
00000000
00000000
00000000
00000000
,
00000000
00000000
00000000
00000000
00000000
00000000
00000000
00000000
MMM33MMM
00000000
00000000
00000000
00210000
000M0000
00000000
00000000
,
00301000
00000000
00000000
00000000
00010000
00000000
00000000
00000000
00000100
00000000
00000000
00000000
00001000
00000000
00000000
00000000
00000010
00000000
00000000
00000000
00001000
00000000
00000000
00000000
00000102
00000000
00000000
00000M00
00000000
00000000
00000000
00000000
00000000
00000000
00000000
00000000
00000013
00000000
00000000
00000000
00000001
00000000
00000000
00000000
00001000
00000000
00000000
00000000
,
00000100
00000000
00000000
00000000
00010000
00000000
00000000
00000000
00001000
00000000
00000000
00000000
02001000
00000000
00000000
0000M000
00000000
00000000
00000000
00000000
00000000
00000000
00000000
00000000
03100000
00000000
00000000
00000000
10000000
00000000
00000000
00000000
01000000
00000000
00000000
00000000
00010000
00000000
00000000
00000000
01000000
00000000
00000000
00000000
10000000
00000000
00000000
00000000
,
02010000
00000000
00000000
000M0000
00000000
00000000
00000000
00000000
00000000
00000000
00000000
00000000
03001000
00000000
00000000
00000000
00100000
00000000
00000000
00000000
00001000
00000000
00000000
00000000
00010000
00000000
00000000
00000000
00000100
00000000
00000000
00000000
00001000
00000000
00000000
00000000
00000020
00000000
00000000
00000230
00000000
00000000
00000002
00000000
00000000
00000303
00000000
00000000
,
00001020
00010000
00010030
00012000
00100000
00103000
02100000
00000000
03000000
10020000
10000000
10030000
,
10200000
01000000
01300000
02010000
00000000
03000000
00021000
00000100
00030100
00002100
00000010
00003010
,
00000200
00000320
00002030
00003200
00020300
00032000
02003000
23000000
32000000
03002000
00023000
00030200
,
00010300
00000000
00000000
00000000
00000000
00000000
00000000
00000000
00000000
00000000
00001000
00010000
00001000
00000000
00000000
00000000
00000000
00000000
02000000
00000000
00000000
00000000
00000000
00000000
,
00000200
00000000
00000000
00000000
,
00MMM000
00MMM000
00MMM000
03MMM300
,
00011000
00100000
00011000
00000010
00011000
00001000
00011000
00000000
,
00202000
00000000
00000000
00000000
00000000
00000000
00000000
00303000
00M1M100
00000000
00000000
00000000
00000000
00000000
00000000
00000000
00010000
00000000
00001000
00000000
00100000
00000000
00002000
00000000
02000000
00000000
00000000
00000000
00000000
00000000
00000000
03003000
,
0M11M000
00000000
00000000
00000000
00000000
00000000
00000000
00000000
00000000
00000000
00000000
00000000
00000000
00000000
00000000
00000000
00000000
00000000
00000000
00000000
00000000
00000000
00000000
00000000
01000000
00000000
00000000
00000000
10000000
00000000
00000000
00000000
00100000
00000000
00000000
00000000
01000000
00000000
00000000
00000000
00010000
00000000
00000000
00000000
00200000
00000000
00000000
00000000
00002000
00000000
00000000
00000000
00000000
00000000
00000000
00000000
00000000
00000000
00000000
00000000
00000000
00000000
00000000
00000000
00000000
00000000
00000000
00000000
00000000
00303000
00000000
00000000
00M1M100
00000000
00000000
00000000
00000000
00000000
00000000
00000000
00000100
00000000
00000000
00000000
00001000
00000000
00000000
00000000
00000010
00000000
00000000
00000000
00010000
00000000
00000000
00000000
,
00001000
00100000
00001000
00010000
00001000
01000000
00200000
00000000
00000000
10300000
00000000
00000000
M2M10000
00000000
00000000
00000000
00000000
00000000
03001000
00010000
00000100
00001000
00000100
00020000
,
00000200
00000000
00000000
00000000
00000000
00000000
00000000
00000000
00000000
00000000
00030300
00000000
000M1M01
00000000
00000000
00000000
00000000
00000000
00000000
00000000
00000000
00000000
00000000
00000000
00000001
00000000
00000000
00000100
00000000
00000000
00001000
00000000
00000000
00000200
00000000
00000000
00000002
00000000
00000000
00000000
00000000
00000000
00000000
00000000
00000000
00000303
00000000
00000000
,
000011MM
00000000
00000000
00000001
00001000
00000100
00010000
00002000
02000000
00000000
00000000
03003000
1M10M000
00000000
00000000
00000000
,
01000000
00001000
00010000
00000010
00010000
00000100
00020000
00000000
00000000
00000000
00000000
00000000
00000000
00000000
00000000
00000000
00000000
00000000
00030020
00000000
00000000
00000000
00000000
00000000
,
00000000
00200000
00000000
00300030
;
