#VERSION:0.83;
#TITLE:Prysm;
#SUBTITLE:;
#ARTIST:ロードスRhodes;
#TITLETRANSLIT:;
#SUBTITLETRANSLIT:;
#ARTISTTRANSLIT:Rhodes Rodosu;
#GENRE:;
#ORIGIN:;
#CREDIT:;
#BANNER:Prysm.png;
#BACKGROUND:Prysm-bg.png;
#PREVIEWVID:;
#JACKET:Prysm-jacket.png.png;
#CDIMAGE:;
#DISCIMAGE:;
#LYRICSPATH:;
#CDTITLE:;
#MUSIC:Prysm.ogg;
#OFFSET:-0.008000;
#SAMPLESTART:8.141000;
#SAMPLELENGTH:16.271000;
#SELECTABLE:YES;
#BPMS:0.000=118.013;
#STOPS:143.750=1.525;
#DELAYS:;
#WARPS:;
#TIMESIGNATURES:0.000=4=4;
#TICKCOUNTS:0.000=4;
#COMBOS:0.000=1;
#SPEEDS:0.000=1.000=0.000=0;
#SCROLLS:0.000=1.000;
#FAKES:;
#LABELS:0.000=Song Start;
#BGCHANGES:;
#KEYSOUNDS:;
#ATTACKS:
;

//---------------dance-single - THE WAVE RAVER----------------
#NOTEDATA:;
#CHARTNAME:THE WAVE RAVER;
#STEPSTYPE:dance-single;
#DESCRIPTION:THE WAVE RAVER;
#CHARTSTYLE:;
#DIFFICULTY:Beginner;
#METER:3;
#RADARVALUES:0.120380,0.192609,0.064203,0.000000,0.000000,105.000000,97.000000,8.000000,0.000000,0.000000,0.000000,0.000000,0.000000,0.000000,0.120380,0.192609,0.064203,0.000000,0.000000,105.000000,97.000000,8.000000,0.000000,0.000000,0.000000,0.000000,0.000000,0.000000;
#CREDIT:THE WAVE RAVER;
#NOTES:
// measure 0
0000
0000
0000
0000
,  // measure 1
0000
0000
0000
0000
,  // measure 2
0000
0000
0000
0000
,  // measure 3
0000
0000
0000
0000
,  // measure 4
0001
0000
0000
0000
,  // measure 5
1000
0000
0000
0000
,  // measure 6
0010
0000
0000
0000
,  // measure 7
0100
0000
0000
0000
,  // measure 8
0010
0000
0000
0000
,  // measure 9
1000
0000
0000
0000
,  // measure 10
0001
0000
0000
0000
,  // measure 11
0010
0000
0000
0000
,  // measure 12
0100
0000
0000
0000
,  // measure 13
0100
0000
0000
0000
,  // measure 14
0100
0000
0000
0000
,  // measure 15
0010
0000
0010
0000
,  // measure 16
0010
0000
0000
0000
,  // measure 17
1000
0000
0000
0000
,  // measure 18
0001
0000
0000
0000
,  // measure 19
0010
0000
0100
0000
,  // measure 20
1000
1000
1000
0000
,  // measure 21
0001
0001
0001
0000
,  // measure 22
0100
0100
0100
0000
,  // measure 23
0010
0000
0100
0000
,  // measure 24
0010
0010
0010
0000
,  // measure 25
1000
1000
1000
0000
,  // measure 26
0001
0001
0001
0000
,  // measure 27
0010
0000
0001
0000
,  // measure 28
0100
0000
0010
0000
,  // measure 29
0100
0000
0001
0000
,  // measure 30
0100
0000
0010
0000
,  // measure 31
0100
0000
0001
0000
,  // measure 32
1001
0000
1000
0000
,  // measure 33
0100
0000
1000
0000
,  // measure 34
0010
0000
1000
0000
,  // measure 35
0001
0000
0100
0000
,  // measure 36
0000
0010
0000
0000
,  // measure 37
0000
0100
0000
0000
,  // measure 38
0000
0001
0000
0000
,  // measure 39
0000
1000
0000
0000
,  // measure 40
0000
0001
0000
0000
,  // measure 41
0000
0100
0000
0000
,  // measure 42
0000
0010
0000
0000
,  // measure 43
0000
1000
0000
0000
,  // measure 44
0000
1001
0000
0001
,  // measure 45
0000
1000
0000
0000
,  // measure 46
0000
0110
0000
0100
,  // measure 47
0000
0010
0000
0000
,  // measure 48
0000
1001
0000
0100
,  // measure 49
0000
1001
0000
0010
,  // measure 50
0000
0110
0000
0001
,  // measure 51
0000
0110
0000
1000
,  // measure 52
0000
0001
0001
0001
,  // measure 53
0000
1000
0000
0001
,  // measure 54
0000
0100
0100
0100
,  // measure 55
0000
0010
0000
1000
,  // measure 56
0000
0001
0001
0001
,  // measure 57
0000
1000
0000
0001
,  // measure 58
0000
0110
0000
0000
,  // measure 59
0000
1000
0000
0001
,  // measure 60
0100
0000
0000
0000
;

//---------------dance-single - THE WAVE RAVER----------------
#NOTEDATA:;
#CHARTNAME:THE WAVE RAVER;
#STEPSTYPE:dance-single;
#DESCRIPTION:THE WAVE RAVER;
#CHARTSTYLE:;
#DIFFICULTY:Easy;
#METER:6;
#RADARVALUES:0.249933,0.312989,0.256812,0.088279,0.004013,218.000000,186.000000,32.000000,11.000000,0.000000,0.000000,0.000000,0.000000,0.000000,0.249933,0.312989,0.256812,0.088279,0.004013,218.000000,186.000000,32.000000,11.000000,0.000000,0.000000,0.000000,0.000000,0.000000;
#CREDIT:THE WAVE RAVER;
#NOTES:
0000
0000
0000
0000
,
0000
0000
0000
0000
,
0000
0000
0000
0000
,
0000
0000
0000
0000
,
0001
0101
1100
0000
,
0100
1000
0010
0100
,
0001
0001
0010
0001
,
0100
0010
1000
0001
,
1000
1010
0011
0000
,
1000
0001
0010
0001
,
1001
0001
1000
0010
,
1000
0100
0010
0001
,
0200
0000
0000
0300
,
0020
0000
0000
0030
,
2000
0000
0000
3000
,
0002
0003
2000
3000
,
0020
0000
0000
0130
,
0002
0000
0000
0013
,
0200
0000
0000
1300
,
0020
0000
0200
0330
,
1001
0001
1000
1010
,
1000
0010
0100
0101
,
0001
0010
0100
1100
,
0100
1000
1001
0010
,
1001
0001
0100
1010
,
0010
0100
0001
0011
,
0001
1000
0100
0011
,
0001
0100
0010
0000
,
1000
0000
0000
0001
1000
0000
0000
0000
,
0110
0000
0000
1000
0001
0000
0000
0000
,
0110
0000
0000
0001
1000
0000
0000
0000
,
0110
0000
0000
0001
1000
0000
0000
0000
,
0101
0000
0000
0010
1000
0000
0000
0000
,
1100
0000
0000
0010
0001
0000
0000
0000
,
1001
0000
0000
0010
0100
0000
0000
0000
,
1001
0000
0000
0000
0000
0000
0100
0000
0010
0000
0000
0000
0000
0000
0000
1001
,
0000
0001
0000
0100
,
0001
0010
0000
0100
,
1000
0010
0000
0100
,
0001
1000
0000
0100
,
1000
0001
0100
0001
,
0100
0010
1000
0010
,
1000
0001
1000
0001
,
1000
0001
0010
0200
,
0300
1100
0100
0010
,
0001
0101
0001
1000
,
0010
1010
1000
0001
,
0010
0110
0100
1000
,
0010
0110
0100
0001
,
0010
0011
0001
1000
,
0100
0110
0010
0001
,
0100
0101
0001
1000
,
0010
1000
1000
1000
,
0000
0001
1000
0010
,
0100
0001
0001
0010
,
0001
0000
0010
0001
,
1000
0010
0100
0100
,
0000
0100
0010
1000
,
0001
1100
0000
0000
,
0100
0000
1000
0001
0001
0000
0100
0000
,
0110
0000
0000
0000
;

//---------------dance-single - THE WAVE RAVER----------------
#NOTEDATA:;
#CHARTNAME:THE WAVE RAVER;
#STEPSTYPE:dance-single;
#DESCRIPTION:THE WAVE RAVER;
#CHARTSTYLE:;
#DIFFICULTY:Medium;
#METER:10;
#RADARVALUES:0.376045,0.386020,0.272862,0.120380,0.152482,328.000000,294.000000,34.000000,15.000000,0.000000,0.000000,0.000000,0.000000,0.000000,0.376045,0.386020,0.272862,0.120380,0.152482,328.000000,294.000000,34.000000,15.000000,0.000000,0.000000,0.000000,0.000000,0.000000;
#CREDIT:THE WAVE RAVER;
#NOTES:
0000
0000
0000
0000
,
0000
0000
0000
0000
,
0000
0000
0000
0000
,
0000
0000
0000
0000
,
0001
1000
0001
0000
0110
0000
0000
0100
,
1001
0000
0110
0000
1000
0001
0010
0000
,
1100
0100
0100
0000
1000
0000
0011
0000
,
0001
0000
0100
0001
0010
0000
0100
0000
,
0010
0001
0100
0000
1010
0000
0000
0100
,
0101
0000
0011
0000
0001
0001
1000
0000
,
0001
0100
0010
1000
0100
0000
0010
0000
,
0001
0000
0010
0100
1000
0100
0010
0000
,
0012
0100
0013
1100
,
1020
0000
0100
0000
1030
0000
1000
0001
,
0020
0000
0001
0000
0130
0000
0010
0100
,
1000
0000
0001
0100
1000
0100
0001
0000
,
2000
0001
3010
0011
,
0002
0000
0100
0000
0013
0000
0100
0010
,
2000
0000
0100
0000
3010
0000
0100
0001
,
1000
0000
0000
0000
0001
0000
1000
0000
0100
0010
0000
0010
0000
0010
0100
0000
,
1000
0000
0000
0000
0100
0000
0000
0010
0000
0000
0000
0000
0011
0000
0000
0000
,
0001
0000
0000
0000
0100
0000
0000
0010
0000
0000
0000
0000
1000
0000
0001
0000
,
0010
0000
0000
0000
0100
0000
0000
1000
0000
0000
0000
0000
0011
0000
0000
0000
,
0001
0000
0100
0010
1000
0000
1001
0000
,
0001
0000
0000
0000
0010
0000
0000
0100
0000
0000
0000
0000
1100
0000
0000
0000
,
0100
0000
0000
0000
1000
0000
0000
0010
0000
0000
0000
0000
0100
0000
0010
0000
,
1000
0000
0000
0000
0001
0000
0000
0010
0000
0000
0000
0000
0110
0000
0000
0000
,
0100
0000
0000
0000
0100
0000
0010
0000
0001
1000
0000
1000
0000
1000
0001
0000
,
1001
0000
0000
0000
0000
0000
0001
0000
0100
0000
0000
0010
0000
0000
1000
0000
,
0100
0000
0000
0000
0000
0000
0010
0000
0100
0000
0000
1000
0000
0000
0001
0000
,
0010
0000
0000
0000
0000
0000
0010
0000
0001
0000
0000
0100
0000
0000
0010
0000
,
1000
0000
0000
0000
0000
0000
0001
0000
0100
0000
0000
1000
0000
0000
0100
0000
,
0001
0000
0000
0000
0000
0000
1000
0000
0010
0000
0000
1000
0000
0000
0001
0000
,
0010
0000
0000
0000
0000
0000
0100
0000
0010
0000
0000
0001
0000
0000
0100
0000
,
0010
0000
0000
0000
0000
0000
0100
0000
0010
0000
0000
1000
0000
0000
0100
0000
,
0010
0000
0000
0000
0000
0000
0100
0000
0010
0000
0000
0001
0000
0000
0000
1001
,
0000
0000
0202
0000
0303
0001
0000
0100
,
0010
0000
2020
0000
3030
0010
0000
0100
,
0001
1000
2200
0000
3300
1000
0000
0001
,
1000
0010
1020
0000
0000
0130
0000
0010
,
1000
0001
0010
0100
1000
0000
0100
0000
,
1000
0000
0010
0001
0100
0000
0010
0000
,
1000
0000
0001
0010
0100
0000
0010
0000
,
0100
0000
0010
0100
1000
0000
0100
1000
,
0010
0000
0000
0000
1001
0000
0000
0000
1000
0000
0000
0100
0000
0000
0010
0000
,
0001
0000
0000
0000
0101
0000
0000
0000
0001
0000
0000
0100
0000
0000
0001
0000
,
0100
0000
0010
0000
1010
0000
0000
0000
0001
0000
0000
1000
0000
0000
0100
0000
,
0010
0000
0001
0000
0101
0000
0000
0000
1000
0000
0000
0010
0000
0000
0100
0000
,
0001
0000
0010
0000
0110
0000
0000
0000
1000
0000
0000
0100
0000
0000
1000
0000
,
0010
0000
0100
0000
1001
0000
0000
0000
0001
0000
0000
0100
0000
0000
0010
0000
,
1000
0000
0100
0000
1100
0000
0000
0000
0100
0000
0000
0010
0000
0000
0100
0000
,
0010
0001
1001
0000
1000
0000
0100
0000
,
0010
0000
0000
0001
0010
0000
0011
0000
,
0000
0000
0001
0000
0100
0000
0000
0010
0000
0010
0000
0000
0100
0000
0010
0000
,
1000
0000
0000
0000
0001
0000
1000
0000
0001
0000
1000
0000
0001
0000
0000
0100
,
0000
0100
0000
0000
0000
0000
0010
0000
1000
0000
0010
0000
0100
0000
0000
0000
,
0001
0000
0010
0100
0100
0000
1100
0000
,
0000
0000
0100
0000
1000
0000
0000
0001
0000
0001
0000
0000
1000
0000
0001
0000
,
0100
0000
0000
0000
0220
0000
0330
0000
0000
0000
0000
0000
0000
0000
0000
0100
,
0000
0010
0100
0000
0001
0000
1000
0000
1000
0000
0001
1000
0000
1000
0010
0000
,
0100
0001
0000
0000
0000
0000
0000
0000
;

//---------------dance-single - THE WAVE RAVER----------------
#NOTEDATA:;
#CHARTNAME:THE WAVE RAVER;
#STEPSTYPE:dance-single;
#DESCRIPTION:THE WAVE RAVER;
#CHARTSTYLE:;
#DIFFICULTY:Hard;
#METER:12;
#RADARVALUES:0.498719,0.530777,0.465471,0.192609,0.304964,435.000000,377.000000,58.000000,24.000000,0.000000,0.000000,0.000000,0.000000,0.000000,0.498719,0.530777,0.465471,0.192609,0.304964,435.000000,377.000000,58.000000,24.000000,0.000000,0.000000,0.000000,0.000000,0.000000;
#CREDIT:THE WAVE RAVER;
#NOTES:
0000
0000
0000
0000
,
0000
0000
0000
0000
,
0000
0000
0000
0000
,
0000
0000
0000
0000
,
0001
0100
0101
0000
1100
0000
0000
0100
,
1000
0000
0010
0100
0000
0100
0000
0010
0100
0000
0010
0000
1000
0000
0000
0000
,
0001
0000
1000
0000
0010
0000
1000
0000
0001
0000
1000
0001
0000
0001
0000
0000
,
0100
0001
1000
0010
0100
0001
0010
0000
,
0100
1000
1100
0000
0101
0000
0000
0001
,
0010
0000
0010
0001
0000
0001
0000
1000
0001
0000
0100
0000
0010
0000
0000
0000
,
1010
0000
0010
0100
0001
0000
1000
0100
,
0010
0000
0000
0000
0100
0000
1000
0001
0000
0001
0100
0000
0001
0000
1000
0000
,
0002
0100
0013
1001
,
2000
0000
0100
0000
3010
0100
0010
0100
,
1002
0010
0103
1001
,
2000
0000
3010
0100
0110
0000
1001
0000
,
0002
0000
2003
0000
3020
0000
0130
0001
,
2000
0000
3002
0000
0023
0000
0130
0010
,
0002
0000
0023
0000
0230
0000
0310
0001
,
0200
0000
0000
0000
1300
0000
0100
0000
0001
1000
0000
1000
0000
1000
0001
0000
,
0010
0000
0100
0000
1000
0000
0000
1001
0000
0000
0000
0000
0101
0000
0000
0000
,
0001
0000
0010
0000
0001
0000
0000
0101
0000
0000
0000
0000
0001
0000
0100
0000
,
0010
0000
1000
0000
0010
0000
0000
1010
0000
0000
0000
0000
1100
0000
0000
0000
,
1000
0100
0001
0100
1000
0010
1010
0000
,
0100
0000
0001
0000
0010
0000
0000
0011
0000
0000
0000
0000
1100
0000
0000
0000
,
1000
0000
0010
0000
0100
0000
0000
0101
0000
0000
0000
0000
1000
0000
0001
0000
,
0010
0000
0100
0000
1000
0000
0000
1100
0000
0000
0000
0000
1000
0000
0100
0000
,
0010
0100
1000
0001
0100
1000
0100
0001
,
1001
0000
0000
0000
0000
0000
0001
0000
0010
0000
0000
0011
0000
0000
0010
0000
,
1001
0000
0000
0000
0000
0000
0001
0000
1000
0000
0010
0100
0000
0001
1000
0000
,
1001
0000
0000
0000
0000
0000
1000
0000
0001
0000
0000
1100
0000
0000
1000
0000
,
1010
0000
0000
0000
0100
0000
0010
0000
1000
0000
0001
1000
0000
1000
0100
0000
,
1100
0000
0000
0000
1000
0000
0001
0000
0101
0000
0000
0110
0000
0000
0010
0000
,
1010
0000
0000
0000
0001
0000
0010
0000
0110
0000
0000
1100
0000
0000
1000
0000
,
1001
0000
0000
0000
0001
0000
0010
0000
0110
0000
0000
1100
0000
0000
1000
0000
,
1010
0000
0000
0000
0001
0000
0100
0000
0101
0000
0000
0011
0000
0000
0000
2002
,
3003
0000
0000
0000
1001
0000
0000
0000
0000
0000
0001
0100
0000
0100
0001
0000
,
0020
0000
0000
0000
0031
0000
0000
0000
0000
0000
0001
1000
0000
1000
0100
0000
,
0100
0000
0010
0000
0002
0000
0000
0000
0003
0000
0010
0001
0000
0001
0100
0000
,
0010
0000
1000
0000
0002
0000
0000
0000
0003
0000
1000
0001
0000
0001
1000
0000
,
0020
0000
0000
0000
0130
0000
0001
0000
0010
0000
0100
1000
0000
1000
0001
0000
,
0100
0000
0101
0000
0001
0000
0010
0000
0100
0000
1000
0100
0000
0100
0010
0000
,
0001
0000
1001
0000
1000
0000
0001
0000
0100
0000
0010
1000
0000
1000
0001
0000
,
0010
0110
0010
0001
0100
0010
1000
0001
,
0020
0000
0230
0000
1300
0000
0000
0000
0011
0000
0001
0010
0000
0001
0000
0100
,
0010
0000
1000
0000
1001
0000
0000
0000
0101
0000
0001
0100
0000
0010
1000
0000
,
0100
0000
0010
0000
0011
0000
0000
0000
1100
0000
0100
1000
0000
1000
0000
0010
,
0100
0000
0001
0000
1001
0000
0000
0000
1100
0000
1000
0100
0000
1000
0000
0010
,
0100
0000
0001
0000
1001
0000
0001
0000
0100
0000
0010
1000
0000
0010
0100
0000
,
0010
0000
1000
0000
0100
0000
0010
0000
0001
0000
0010
0001
0000
0010
0100
0000
,
1000
0000
0001
0000
0100
0000
0010
0000
1000
0000
0001
0010
0000
0100
0010
0000
,
0001
0000
1001
0000
1000
0000
0010
0000
0100
0000
0001
0010
0000
0100
1000
0000
,
0100
0010
0001
1000
0001
0000
1001
0000
,
0000
0000
1000
0000
0001
0000
0000
0100
0000
0100
0000
0100
0010
0000
1000
0000
,
0001
0000
0010
0000
0100
0000
0100
0000
0100
0000
1000
0000
0100
0000
0000
1000
,
0000
1000
0000
0000
0100
0000
0000
0000
1000
0000
0010
0000
0100
0000
0001
0000
,
0010
0000
0100
0010
0011
0000
1010
0000
,
0000
0000
1000
0000
0001
0000
0010
0100
0000
0010
0000
0001
0100
0000
0010
0000
,
1000
0000
0001
0000
0022
0000
0000
0000
0033
0000
0000
0000
0000
0000
0000
0100
,
0000
1000
0100
0000
0010
0000
0011
0000
1100
0000
1000
0100
0000
0010
0001
0000
,
1000
0001
1000
0000
0000
0000
0000
0000
0000
0000
0000
0000
0000
0000
0000
0000
;

//---------------dance-single - THE WAVE RAVER----------------
#NOTEDATA:;
#CHARTNAME:THE WAVE RAVER;
#STEPSTYPE:dance-single;
#DESCRIPTION:THE WAVE RAVER;
#CHARTSTYLE:;
#DIFFICULTY:Challenge;
#METER:14;
#RADARVALUES:0.569801,0.627282,0.377192,0.280888,0.529674,497.000000,450.000000,47.000000,35.000000,6.000000,0.000000,0.000000,0.000000,0.000000,0.569801,0.627282,0.377192,0.280888,0.529674,497.000000,450.000000,47.000000,35.000000,6.000000,0.000000,0.000000,0.000000,0.000000;
#CREDIT:THE WAVE RAVER;
#NOTES:
0000
0000
0000
0000
,
0000
0000
0000
0000
,
0000
0000
0000
0000
,
0000
0000
0000
0000
,
0001
0100
0101
0000
2200
0000
3300
1000
,
1001
0000
1000
0010
0000
0010
0000
0010
0100
0001
0010
0100
1000
0001
0100
0000
,
0010
1000
0010
0100
0010
1000
0001
0000
0001
0000
1000
0100
0000
0100
0000
1000
,
0010
0000
0100
0000
0001
0000
0010
0001
0000
1000
0100
0000
1000
0000
0001
0000
,
1001
0001
0011
0000
2020
0000
3030
1000
,
1010
0000
0010
0100
0000
0100
0000
0100
0010
1000
0010
0100
0001
0010
0100
0000
,
1100
0000
1000
0000
0100
0010
0100
1000
0001
0000
1000
0010
0000
0100
0001
0000
,
1000
0000
0100
0000
0010
0000
0001
0010
0000
0010
0100
0000
1000
0000
0001
0000
,
2001
0010
0001
3010
,
1002
0010
1000
0013
,
2001
0100
0001
3100
,
1002
0000
0100
0100
0100
0000
1003
0000
,
0001
0000
0000
0000
0100
0000
0010
2000
0000
0000
0000
0000
3100
0000
0000
0000
,
0010
0000
0000
0000
0001
0000
1000
0020
0000
0000
0000
0000
0130
0000
0001
0000
,
1000
0000
0000
0000
0100
0000
0010
0002
0000
0000
0000
0000
1003
0000
0000
0000
,
0001
0000
0000
0000
0100
0000
0010
0000
1000
0001
0000
0001
0000
0001
0001
0000
,
1100
0000
1000
0000
0010
0000
1000
0010
0000
M010
0001
0000
1001
0000
0000
0000
,
0001
0000
0100
0000
0001
0000
1000
0010
0000
M010
0001
0000
0010
0000
0100
0000
,
1000
0000
0001
0000
0010
0000
0001
0100
0000
010M
1000
0000
1001
0000
0000
0000
,
1000
0001
0100
0001
0010
1000
0010
0001
,
0100
0000
0010
0000
1000
0000
0001
0010
0000
001M
1000
0000
1001
0000
0000
0000
,
1000
0000
0001
0000
0100
0000
0001
0100
0000
010M
1000
0000
1000
0000
0100
0000
,
0010
0000
0001
0000
1000
0000
1000
0100
0000
M100
0001
0000
1001
0000
0000
0000
,
1000
0000
0010
0000
0100
0000
0001
0000
0010
1000
0000
0010
0000
0001
1000
0000
,
1010
0000
0000
1000
0010
0000
0100
0000
0102
0000
0000
0000
1003
0000
0000
0000
,
0011
0000
0000
0010
0100
0000
0100
0000
2100
0000
0000
0000
3001
0000
0000
0000
,
1001
0000
0000
0001
0010
0000
0100
0000
2100
0000
0000
0000
3010
0000
0000
0000
,
1010
0000
0000
0010
1000
0000
0001
0000
0021
0000
0000
0100
0000
0000
0031
0000
,
1100
0000
0000
1000
0100
0000
0010
0000
2001
0000
0000
0000
3100
0000
0000
0000
,
0011
0000
0000
0001
0100
0000
0010
0000
1020
0000
0000
0000
0230
0000
0000
0000
,
0301
0000
0000
0001
0010
0000
0100
0000
2100
0000
0000
0000
3010
0000
0000
0000
,
0101
0000
0000
0100
0001
0000
1000
0000
1001
0000
0000
1100
0000
0000
0000
2002
,
3003
0000
0000
0000
1001
0000
0000
0000
0000
0000
0001
0100
0000
0010
1000
0000
,
0200
0000
0000
0000
0320
0000
0000
0000
0030
0000
0100
0010
0000
0010
0001
0000
,
0100
0000
0100
0000
0201
0000
0000
0000
0300
0000
0001
0010
0000
0100
1000
0001
,
1000
0000
0020
0000
0230
0000
0000
0000
0300
0000
0010
1000
0000
1000
0100
0000
,
0020
0000
0032
0000
1003
0000
0001
0000
0010
0000
0001
0100
0000
0001
0010
0000
,
0100
0000
1000
0000
0001
0000
1000
0000
0010
0000
1000
0100
0000
0010
0100
1000
,
0010
0100
0001
0000
1000
0000
0010
0000
0100
0000
0001
0010
0000
0010
0100
0000
,
1000
0000
0100
0000
0010
0000
0001
0000
0100
0000
0001
0100
0000
0010
1000
0001
,
0020
0000
0000
0000
0130
0000
1000
0000
1100
0000
1000
0100
0000
0100
0010
0001
,
2000
0000
0000
0000
3010
0000
0100
0000
0101
0000
0001
0010
0000
0010
0001
0100
,
0001
1000
0100
0010
0001
0000
1000
0000
1010
0000
0010
1000
0000
0010
0100
0001
,
2000
0000
0001
0000
3100
0000
0010
0000
0001
0000
0100
0001
0000
0001
0010
0100
,
1000
0001
1000
0000
0101
0000
0001
0000
0011
0000
0010
0100
0000
0010
0001
1000
,
0020
0000
1000
0000
0130
0000
0001
0000
1000
0000
0100
0010
0000
0010
0100
1000
,
0001
0100
0002
0000
1003
0000
0100
0000
0110
0000
0100
1000
0000
1000
0100
0010
,
0001
0100
0010
0000
0100
0000
0000
0000
0002
0000
1000
1003
0000
0000
0100
0000
,
0010
0100
1000
0100
0100
0000
1100
0000
,
0000
0000
1000
0000
0010
0000
0100
0010
0000
0010
0000
0010
0100
0001
0010
0100
,
1000
0001
1000
0000
0001
0100
0001
0100
0001
0100
0001
0000
0001
0000
0001
1000
,
0000
1000
0000
0000
0100
0000
0010
0000
0011
0000
0001
0010
0000
0010
0001
0000
,
0001
0010
0100
0000
1000
0000
0001
0000
0001
0000
0000
0000
1001
0000
0000
0000
,
0000
0000
0001
0000
0100
0000
0010
1000
0000
0010
0000
0100
0010
1000
0010
0100
,
0010
1000
0010
0000
0200
0000
0000
0300
0000
0000
0000
0000
0000
0000
0000
0001
,
0000
1000
0100
0000
0010
0000
0011
0000
1100
0000
1000
0100
0000
0001
0100
1000
,
0010
0100
0001
0000
0000
0000
0000
0000
0000
0000
0000
0000
0000
0000
0000
0000
;
