#VERSION:0.83;
#TITLE:PENDUAL TALISMAN;
#SUBTITLE:;
#ARTIST:猫叉L.E.D.Master;
#TITLETRANSLIT:;
#SUBTITLETRANSLIT:;
#ARTISTTRANSLIT:Nekomata L.E.D.Master;
#GENRE:;
#ORIGIN:;
#CREDIT:;
#BANNER:PENDUAL TALISMAN.png;
#BACKGROUND:PENDUAL_TALISMAN-bg.png;
#PREVIEWVID:;
#JACKET:PENDUAL TALISMAN-jacket.png;
#CDIMAGE:;
#DISCIMAGE:;
#LYRICSPATH:;
#CDTITLE:cdtitle.png;
#MUSIC:PENDUAL TALISMAN.ogg;
#OFFSET:0.000000;
#SAMPLESTART:3.000000;
#SAMPLELENGTH:15.000000;
#SELECTABLE:YES;
#BPMS:0.000=160.000,
200.000=150.000;
#STOPS:;
#DELAYS:;
#WARPS:;
#TIMESIGNATURES:0.000=4=4;
#TICKCOUNTS:0.000=4;
#COMBOS:0.000=1;
#SPEEDS:0.000=1.000=0.000=0;
#SCROLLS:0.000=1.000;
#FAKES:;
#LABELS:0.000=Song Start;
#BGCHANGES:0.000=PENDUAL TALISMAN.avi=1.000=0=0=0=StretchNoLoop====,
99999=-nosongbg-=1.000=0=0=0 // don't automatically add -songbackground-
;
#KEYSOUNDS:;
#ATTACKS:
;

//---------------dance-single - t7rPandynature----------------
#NOTEDATA:;
#CHARTNAME:t7rPandynature;
#STEPSTYPE:dance-single;
#DESCRIPTION:t7rPandynature;
#CHARTSTYLE:;
#DIFFICULTY:Beginner;
#METER:4;
#RADARVALUES:0.127237,0.286282,0.047714,0.023857,0.000000,112.000000,106.000000,6.000000,3.000000,0.000000,0.000000,0.000000,0.000000,0.000000,0.127237,0.286282,0.047714,0.023857,0.000000,112.000000,106.000000,6.000000,3.000000,0.000000,0.000000,0.000000,0.000000,0.000000;
#CREDIT:t7rPandynature;
#NOTES:
0000
0000
0000
0000
,
0000
0000
0000
0000
,
0000
0000
0000
0000
,
0000
0000
0000
0000
,
0000
0000
0000
0000
,
0000
0000
0000
0000
,
0000
0000
0000
0000
,
0000
0000
0000
0000
,
0010
0000
0000
0000
,
0000
0000
0100
0000
,
0000
0000
0000
0000
,
0001
0000
0000
0000
,
0000
0000
1000
0000
,
0000
0000
0000
0000
,
0001
0000
0000
0001
,
0000
0000
0001
0000
,
0000
0000
0000
0000
,
1000
0000
0000
1000
,
0000
0000
1000
0000
,
0000
0000
0000
0000
,
0010
0000
0000
0000
,
0000
0000
0010
0000
,
0000
0000
0000
0000
,
1001
0000
0000
1000
,
0000
0000
0010
0000
,
0000
1000
0000
0000
,
0100
0000
0000
0010
,
0000
0000
0001
0000
,
0000
0100
0100
0100
,
0010
0000
0000
0100
,
0000
0000
0001
0000
,
0000
1000
0000
0000
,
0100
0000
0000
1000
,
0000
0000
0010
0000
,
0000
0100
0000
0010
,
0010
0000
0000
0100
,
0000
0000
0001
0000
,
0000
0010
0000
0000
,
0100
0000
0000
0010
,
0000
0000
0001
0000
,
0000
1000
0000
0001
,
1000
0000
0000
0010
,
0000
0000
0000
0100
,
0000
0000
0010
0010
,
1001
0000
0000
0001
,
0000
0000
1000
0000
,
0000
0010
0000
0000
,
0100
0000
0000
0001
,
0000
0000
0010
0000
,
0000
0100
0000
0000
,
0110
0000
0000
0000
,
0010
0000
0000
0000
,
0001
0000
0000
0000
,
1000
0000
0001
0000
,
1001
0000
0001
0000
,
1000
0000
0000
0000
,
0100
0000
0010
0000
,
0001
0000
0000
0000
,
0100
0100
0100
0000
,
0010
0010
0010
0000
,
1000
1000
1000
0000
,
0001
0001
0001
0000
,
1001
0000
0001
0000
,
1000
0000
0000
0000
,
0010
0000
0100
0000
,
0001
0000
0000
0000
,
0100
0100
0100
0000
,
0010
0010
0010
0000
,
1000
1000
1000
0000
,
0002
0000
0000
0000
,
2003
0000
0000
0000
,
0000
0000
0000
0000
,
0000
0000
0000
0000
,
0000
0000
3000
0000
,
1001
0000
0001
0000
,
0100
0000
0010
0000
,
1000
1000
0100
0100
,
0010
0001
0010
0001
,
0200
0000
0000
0000
,
0000
0000
0000
0000
,
0300
0000
0000
0000
;

//---------------dance-single - t7rPandynature----------------
#NOTEDATA:;
#CHARTNAME:t7rPandynature;
#STEPSTYPE:dance-single;
#DESCRIPTION:t7rPandynature;
#CHARTSTYLE:;
#DIFFICULTY:Easy;
#METER:8;
#RADARVALUES:0.273786,0.540755,0.087475,0.071571,0.000000,241.000000,230.000000,11.000000,9.000000,0.000000,0.000000,0.000000,0.000000,0.000000,0.273786,0.540755,0.087475,0.071571,0.000000,241.000000,230.000000,11.000000,9.000000,0.000000,0.000000,0.000000,0.000000,0.000000;
#CREDIT:t7rPandynature;
#NOTES:
0000
0000
0000
0000
,
0000
0000
0000
0000
,
0000
0000
0000
0000
,
0000
0000
0000
0000
,
0000
0000
0000
0000
,
0000
0000
0000
0000
,
0000
0000
0000
0000
,
0000
0000
0000
0000
,
1000
0000
0000
0100
,
0000
0000
0010
0000
,
0000
0001
0000
0000
,
0100
0000
0000
0010
,
0000
0000
1000
0000
,
0000
0001
0000
0000
,
0010
0000
0000
0010
0000
0000
0001
0000
,
0000
0001
0000
0000
0100
0000
0000
0100
,
0000
0010
0000
1000
,
0001
0000
0000
0001
0000
0000
0010
0000
,
0000
0010
0000
0000
0100
0000
0000
0100
,
0000
1000
0000
0001
,
0100
0000
0000
1001
,
0000
0000
0110
0000
,
0000
1001
0000
1000
,
1000
0000
0000
1000
0000
0000
1000
0000
,
0000
0001
0000
0000
1000
0000
0000
1000
,
0000
0001
0000
1000
,
0001
0000
0000
0001
0000
0000
0001
0000
,
0000
1000
0000
0000
0001
0000
0000
0001
,
0000
1000
0001
0100
,
0010
0000
0000
0010
0000
0000
0100
0000
,
0000
0010
0000
0000
0100
0000
0000
0100
,
0000
0010
0000
0100
,
0001
0000
0000
0001
0000
0000
1000
0000
,
0000
0001
0000
0000
1000
0000
0000
1000
,
0000
0001
1000
0100
,
0010
0000
0000
0100
0000
0000
1000
0000
,
0000
0010
0000
0000
0100
0000
0000
0001
,
0000
0010
0000
0100
,
0010
0000
0000
0001
0000
0000
1000
0000
,
0000
0010
0000
0000
1000
0000
0000
0001
,
0000
0010
0100
0010
,
0001
0000
0000
0010
0000
0000
0100
0000
,
0000
1100
0000
0000
0000
0000
1000
0000
,
0000
0100
1000
0010
,
1001
0000
0000
1000
0000
0000
1000
0000
,
0000
1000
0000
0000
0001
0000
0010
0000
,
0100
1000
0001
0100
,
0001
0000
0000
0001
0000
0000
0001
0000
,
0000
0001
0000
0000
1000
0000
0010
0000
,
0100
0001
0010
0100
,
0220
0000
0000
0330
,
1000
1000
0001
0001
,
0100
0100
0010
0010
,
1000
0001
1000
0010
,
1001
0001
0100
0010
,
1000
0100
0010
0100
,
1000
0001
0100
0010
,
1000
0001
0010
0100
,
1000
0000
0001
0100
0001
0100
0001
0000
,
0010
0000
0100
1000
0100
1000
0100
0000
,
0010
0000
0001
1000
0001
1000
0001
0000
,
0200
0010
0010
0300
,
1001
0000
0001
0000
0100
0000
0010
1000
,
0100
0000
1000
0000
0001
0000
0010
0001
,
0100
0000
0010
0000
1000
0000
0001
0010
,
0100
0000
1000
0000
0001
0000
0100
0010
,
1000
0000
0100
0010
0100
0010
0001
0000
,
0100
0000
0010
1000
0010
1000
0001
0000
,
0010
0000
0100
1000
0100
1000
0010
0000
,
0200
0000
0000
0300
,
1002
0000
0000
0000
,
0023
0000
0000
0000
,
0230
0000
0000
0000
,
2300
0000
0000
3000
,
1001
0000
0001
0100
0010
1000
0001
0000
,
1001
0000
1000
0100
0010
0001
1000
0000
,
0100
1000
0100
1000
0001
0100
0001
0100
,
0010
1000
0001
0010
0100
1000
0001
0100
,
0020
0000
0000
0000
,
0000
0000
0000
0000
,
0030
0000
0000
0000
;

//---------------dance-single - t7rPandynature----------------
#NOTEDATA:;
#CHARTNAME:t7rPandynature;
#STEPSTYPE:dance-single;
#DESCRIPTION:t7rPandynature;
#CHARTSTYLE:;
#DIFFICULTY:Medium;
#METER:12;
#RADARVALUES:0.424879,0.667992,0.198807,0.278330,0.039761,374.000000,349.000000,25.000000,35.000000,0.000000,0.000000,0.000000,0.000000,0.000000,0.424879,0.667992,0.198807,0.278330,0.039761,374.000000,349.000000,25.000000,35.000000,0.000000,0.000000,0.000000,0.000000,0.000000;
#CREDIT:t7rPandynature;
#NOTES:
0000
0000
0000
0000
,
0000
0000
0000
0000
,
0000
0000
0000
0000
,
0000
0000
0000
0000
,
0000
0000
0000
0000
,
0000
0000
0000
0000
,
0000
0000
0000
0000
,
0000
0000
0000
0000
,
0002
0000
0000
0103
0000
0000
0110
0000
,
0000
1000
0000
0000
0002
0000
0000
0013
,
0000
0000
0110
0000
0000
1000
0100
0000
,
2000
0000
0000
3010
0000
0000
0110
0000
,
0000
0001
0000
0000
2000
0000
0000
3100
,
0000
0000
0110
0000
0000
0001
1000
0000
,
0002
0000
0000
0103
0000
0000
1010
0000
,
0000
0001
0000
0000
2000
0000
0000
3100
,
0000
0000
0011
0000
0000
1000
0001
0000
,
0200
0000
0000
0310
0000
0000
1001
0000
,
0000
0010
0000
0000
0200
0000
0000
0310
,
0000
0000
1001
0000
0000
0010
0100
0000
,
0110
0000
0000
0001
0000
0000
0110
0000
,
0000
1000
0000
0000
1100
0000
0000
0010
,
0000
0000
0101
0000
0000
0001
1000
0000
,
1001
0000
0001
0100
0000
0001
1000
0000
,
0001
0010
0000
0001
1000
0000
0001
0100
,
0000
0001
1000
0000
0001
1000
0001
0000
,
1001
0000
1000
0100
0000
1000
0001
0000
,
1000
0010
0000
1000
0001
0000
1000
0100
,
0000
1000
0001
0000
1000
0100
0001
0100
,
1000
0000
0001
0100
0000
0010
1000
0000
,
0001
1000
0000
0001
0100
0000
0010
1000
,
0000
0001
0100
0000
0010
1000
0001
1000
,
0100
0000
0010
0001
0000
1000
0100
0000
,
0010
0100
0000
0010
0001
0000
1000
0100
,
0000
0010
0001
0000
0010
0100
1000
0010
,
1001
0201
0001
0010
,
0010
0000
0001
0000
0301
0000
1000
0200
,
0010
0320
0130
2000
,
3020
0100
0100
1000
,
1000
0130
0002
1000
,
1003
0000
0001
0000
0010
0100
1000
0001
,
0100
0000
0000
0101
0000
0000
0110
0000
,
0000
1010
0000
0000
0000
1000
0100
0010
,
0000
0100
1000
0010
0100
0001
0010
0100
,
1000
0000
0100
0001
0000
0100
0010
0000
,
0100
0001
0000
0100
1000
0000
0010
0000
,
0100
0001
0100
0000
0010
1000
0010
1000
,
0001
0000
0100
1000
0000
0100
0010
0000
,
0100
1000
0000
0100
0001
0010
0001
0010
,
0001
1000
0001
1000
0010
0100
0010
0000
,
2000
3200
0320
0032
,
0023
0032
2003
3200
,
0320
0032
0203
2300
,
3200
0320
0130
0001
,
0101
0000
1000
0000
0010
1000
0001
0010
,
0100
0000
0110
0000
0010
0001
1000
0010
,
0100
0000
0110
0000
0001
1000
0100
0001
,
0100
0000
0011
0000
1000
0001
0100
0010
,
1000
0000
0010
0001
0010
0100
0001
1000
,
0100
0000
0010
1000
0010
0001
1000
0001
,
0100
0000
0010
0100
1000
0100
0001
0010
,
0100
0000
0001
0100
1000
0001
0100
0000
,
0110
0000
0000
0100
0001
0000
0000
0000
1000
0000
0100
0000
0010
0000
0001
0000
,
0100
0000
0000
0100
0010
0000
0000
0000
1000
0000
0001
0000
0010
0000
0010
0000
,
0001
0000
0000
0001
1000
0000
0000
0000
0010
0000
0100
0000
0001
0000
1000
0000
,
0100
0000
0000
0100
0010
0000
0000
0000
0001
0000
1000
0000
0010
0000
0010
0000
,
0100
1000
0100
0001
0010
0100
1000
0000
,
0010
0100
0001
0010
1000
0010
0100
0000
,
1000
0001
0100
0010
1000
0001
0010
0000
,
0200
0000
0000
0300
,
2002
0000
0003
0000
,
0200
0000
3000
0000
,
0020
0000
0300
0000
,
0002
0000
0030
0000
,
0103
0000
0001
0000
0100
0000
1000
0000
0100
0000
0010
0000
1000
0001
1000
0000
,
0100
0000
0001
0000
0100
0000
1000
0000
0010
0000
0100
0000
0001
1000
0001
0000
,
1000
1000
0010
0010
0100
0100
0001
0001
,
0010
0001
0010
0000
0100
1000
0100
0000
1000
0010
1000
0000
0001
0100
0001
0000
,
0020
0000
0000
0000
,
0000
0000
0000
0000
,
0030
0000
0000
0000
;

//---------------dance-single - t7rPandynature----------------
#NOTEDATA:;
#CHARTNAME:t7rPandynature;
#STEPSTYPE:dance-single;
#DESCRIPTION:t7rPandynature;
#CHARTSTYLE:;
#DIFFICULTY:Hard;
#METER:15;
#RADARVALUES:0.574837,0.795229,0.222664,0.135189,0.242545,506.000000,478.000000,28.000000,17.000000,0.000000,0.000000,0.000000,0.000000,0.000000,0.574837,0.795229,0.222664,0.135189,0.242545,506.000000,478.000000,28.000000,17.000000,0.000000,0.000000,0.000000,0.000000,0.000000;
#CREDIT:t7rPandynature;
#NOTES:
0000
0000
0000
0000
,
0000
0000
0000
0000
,
0000
0000
0000
0000
,
0000
0000
0000
0000
,
0000
0000
0000
0000
,
0000
0000
0000
0000
,
0000
0000
0000
0000
,
0000
0000
0000
0000
,
1100
0000
1000
0010
0000
0010
0100
0000
,
0100
0001
0000
0001
0010
0000
0010
0100
,
0000
0100
1000
0000
1000
0010
0100
0001
,
0010
0000
0010
0001
0000
0001
0100
0000
,
0100
0010
0000
0010
1000
0000
1000
0001
,
0000
0001
0010
0000
0010
0100
1000
0001
,
0100
0000
1000
0100
0000
0100
0001
0000
,
0001
0010
0000
0010
0100
0000
0100
0001
,
0000
0001
0100
0000
0100
1000
0010
0100
,
0001
0000
0010
1000
0000
1000
0001
0000
,
0001
0100
0000
0100
1000
0000
1000
0010
,
0000
0010
0100
0000
0100
0001
0010
0100
,
1000
0000
0001
0100
0001
0000
1000
0000
,
0001
0010
0001
0000
1000
0010
0000
0100
,
0001
1000
0100
0010
0001
0100
0001
1000
,
1001
0000
1000
0001
0100
0000
1001
0000
,
1000
0001
0010
0000
1001
0000
0001
1000
,
0010
0000
1001
0000
1000
0100
0001
0100
,
1100
0000
0001
0010
0100
0000
1100
0000
,
0100
0010
0001
0000
0101
0000
0001
0100
,
0010
0000
0000
0000
0110
0000
0010
0000
1000
0000
0001
0000
1000
0001
1000
0000
,
1001
0000
1000
0100
0001
0000
0101
0000
,
0001
0100
1000
0000
1010
0000
1000
0010
,
0001
0000
0011
0000
0001
0010
1000
0010
,
1001
0000
0001
0100
1000
0000
1100
0000
,
1000
0100
0001
0000
0101
0000
0001
0010
,
1000
0000
1000
0010
0001
1000
0001
0010
,
0001
0000
0010
0100
0000
0010
0001
0000
,
0100
0010
0000
1000
0001
0000
0010
0100
,
0000
0010
0001
0000
0100
0010
0100
0001
,
1000
0000
0100
1000
0000
0100
0001
0000
,
0100
1000
0000
0010
0001
0000
0010
1000
,
0000
0001
0010
0100
0010
0001
1000
0001
,
0100
1000
0100
0001
0010
0001
1000
0100
,
0001
0100
1000
0001
0100
1000
0100
0001
,
0010
1000
0010
0100
1000
0001
0100
0001
,
1000
0100
0010
0100
0001
0100
0010
0100
,
2000
0000
0010
0000
0001
0000
3100
1000
,
0001
0010
0100
1000
0010
0100
0001
1000
,
0001
0100
0010
0100
1000
0100
0010
0100
,
0002
0000
0010
0000
1003
0100
0100
0100
,
0010
0010
0010
0010
0001
0100
0110
0000
,
0002
0203
2300
3200
,
0302
0023
2030
3020
,
0031
0000
0000
0100
0010
0000
0100
0000
0001
0000
0000
1000
0100
0000
0010
0000
,
0001
0100
0000
0000
1000
0100
0000
0000
0001
1000
0001
1000
0000
0000
0000
0000
,
0101
0000
0000
0000
1100
0000
0000
0000
0001
0000
0010
0000
0100
1000
0100
0000
,
0010
0000
0010
0000
1001
0000
0000
0000
0001
0000
0100
0000
0010
1000
0010
0000
,
1001
0000
0000
0000
0110
0000
0000
0000
0001
0000
1000
0000
0100
0010
0100
0000
,
1000
0000
1000
0000
0101
0000
0000
0000
1000
0000
0001
0000
0100
0010
0100
0000
,
0001
0000
0100
0000
0010
0000
1000
0000
0100
1000
0100
1000
0001
0010
0001
0000
,
1000
0000
0100
0000
0010
0000
0001
0000
0100
0001
0100
0001
1000
0010
1000
0000
,
0001
0000
0010
0000
1000
0000
0010
0000
0100
1000
0100
1000
0001
0100
0001
0000
,
1000
0000
0010
0000
0001
0000
0010
0000
0100
0001
0100
0001
0020
0000
0000
0000
,
0130
0000
0000
0100
1000
0000
0000
1000
0001
0000
0100
0001
1000
0010
1000
0000
,
0001
0000
0000
0001
0010
0000
0000
0010
0100
0000
1000
0001
0100
0010
1000
0000
,
0100
0000
0000
0100
0001
0000
0000
0001
0100
0000
0010
0001
1000
0001
0100
0000
,
0010
0000
0000
0010
0001
0000
0000
0001
0010
0000
1000
0001
1000
0100
0010
0000
,
0100
0000
0001
0000
0100
0000
1000
0000
0001
0100
0010
1000
0001
0100
0010
0000
,
1000
0000
0010
0000
0001
0000
0010
0000
1000
0100
0010
0001
1000
0100
0010
0000
,
0001
0000
0100
0000
0010
0000
1000
0000
0100
0010
0100
0010
0001
1000
0001
0000
,
0200
0000
0000
0300
,
1002
0000
0000
0000
,
0203
0000
0000
0000
,
0320
0000
0000
0000
,
2030
0000
0000
3000
,
1001
0000
0001
0000
0011
0000
0000
0000
1000
0010
0100
0010
1000
0001
0010
0000
,
0110
0000
0100
0000
1100
0000
0000
0000
0001
0100
0010
1000
0001
0010
0100
0000
,
0010
0010
0001
0001
1000
1000
0010
0010
,
0100
0001
0100
0001
1000
0100
1000
0100
1000
0001
1000
0001
0010
0100
1000
0001
,
0200
0000
0000
0000
,
0000
0000
0000
0000
,
0300
0000
0000
0000
;

//---------------dance-single - t7rPandynature----------------
#NOTEDATA:;
#CHARTNAME:t7rPandynature;
#STEPSTYPE:dance-single;
#DESCRIPTION:t7rPandynature;
#CHARTSTYLE:;
#DIFFICULTY:Challenge;
#METER:16;
#RADARVALUES:0.710026,1.017893,0.143141,0.326044,0.508946,625.000000,607.000000,18.000000,41.000000,0.000000,0.000000,0.000000,0.000000,0.000000,0.710026,1.017893,0.143141,0.326044,0.508946,625.000000,607.000000,18.000000,41.000000,0.000000,0.000000,0.000000,0.000000,0.000000;
#CREDIT:t7rPandynature;
#NOTES:
// measure 0
0000
0000
0000
0000
,  // measure 1
0000
0000
0000
0000
,  // measure 2
0000
0000
0000
0000
,  // measure 3
0000
0000
0000
0000
,  // measure 4
0000
0000
0000
0000
,  // measure 5
0000
0000
0000
0000
,  // measure 6
0000
0000
0000
0000
,  // measure 7
0000
0000
0000
0000
,  // measure 8
1000
0100
0010
0002
0000
0103
0020
0000
,  // measure 9
0130
0002
0000
0103
1000
0100
0001
0020
,  // measure 10
0000
0000
0031
0000
2000
0000
0000
0000
3001
0000
0010
0100
0010
0000
0001
0000
,  // measure 11
1000
0010
0100
0002
0000
0013
0200
0000
,  // measure 12
0310
0002
0000
0103
1000
0100
0001
2000
,  // measure 13
0000
0000
3001
0000
0020
0000
0000
0000
0031
0000
1000
0100
1000
0100
1000
0100
,  // measure 14
1000
0001
0100
0020
0000
1030
0200
0000
,  // measure 15
0301
0200
0000
1300
0010
0100
0001
0020
,  // measure 16
0000
0000
0031
0000
2000
0000
0000
0000
3001
0000
0100
0001
1000
0100
0010
0001
,  // measure 17
1000
0001
0010
0200
0000
1300
0020
0000
,  // measure 18
0031
0020
0000
1030
0100
0010
0001
0200
,  // measure 19
0000
0000
0301
0000
2000
0000
0000
0000
3001
0000
0010
0001
1000
0010
0100
0001
,  // measure 20
1000
0100
1000
0010
0100
0001
0010
0001
,  // measure 21
1000
0000
0001
0000
0010
0000
0100
0000
1000
0010
0000
1000
0000
0000
0001
0000
,  // measure 22
0000
0001
0000
0000
0001
0000
0001
0000
0001
0000
0001
0000
1000
0000
1001
0000
,  // measure 23
0001
0100
1000
0100
0001
0010
1000
0010
,  // measure 24
0001
0100
0010
1000
0001
0010
1000
0010
,  // measure 25
0001
0100
1000
0100
0001
0010
0100
1000
,  // measure 26
0001
0010
1000
0010
0001
0100
0010
1000
,  // measure 27
0001
0100
1000
0100
0001
1000
0010
0001
,  // measure 28
0010
0000
0000
1000
0000
0000
0001
0000
0000
0010
0000
0000
0100
0000
0000
1000
0000
0000
0001
1000
0001
1000
0000
0000
,  // measure 29
0010
0010
1000
0001
0010
0100
0100
0010
,  // measure 30
0001
1000
0100
0010
0010
0001
0100
0010
,  // measure 31
0100
0001
0001
1000
0100
0001
0100
1000
,  // measure 32
0001
0001
0100
0010
1000
0001
0001
0010
,  // measure 33
0100
0010
0100
1000
1000
0010
0100
0010
,  // measure 34
0100
0000
0001
0000
0001
0000
0010
0000
1000
0000
0010
0000
0001
1000
0001
1000
,  // measure 35
0002
0000
0103
2000
0000
3100
0002
0000
,  // measure 36
0013
2000
0000
3010
0200
0000
1300
0020
,  // measure 37
0000
0130
0002
0000
0013
0100
1000
0001
,  // measure 38
2001
0000
3100
0002
0000
0103
2000
0000
,  // measure 39
3100
0020
0000
0031
0200
0000
0310
2000
,  // measure 40
0000
0000
3001
0000
0020
0000
0000
0000
0130
0000
0010
0000
0100
1000
0100
1000
,  // measure 41
0001
0001
1000
0100
0100
1000
0010
0010
,  // measure 42
0100
1001
0000
0000
0000
0011
0100
1000
,  // measure 43
0010
0110
0010
0100
0001
1000
0001
0100
,  // measure 44
1001
1000
0100
0010
1000
0010
0100
1000
,  // measure 45
0010
0100
1000
0100
0001
0010
0100
0001
,  // measure 46
0100
0000
0010
0000
0001
0000
0100
0000
0010
0000
0001
0000
0010
1000
0001
1000
,  // measure 47
0001
0010
0100
0001
0100
0010
0001
0100
,  // measure 48
0010
1000
0100
0010
0001
0001
1000
1000
,  // measure 49
1000
1000
0010
0010
0100
0100
0001
0100
,  // measure 50
0101
0000
0000
0010
1000
0000
0001
0000
1001
0000
0000
1000
0100
0000
0010
0000
,  // measure 51
1001
0000
0000
1000
0010
0000
0100
0000
1001
0000
0000
0001
0010
0000
0100
0000
,  // measure 52
1001
0000
0000
1000
0100
0000
0001
0000
0100
0000
0000
0010
0100
0000
0010
0000
,  // measure 53
0001
0100
0010
1000
0000
0100
0010
0001
1000
0010
0100
0001
0000
0000
0000
0000
,  // measure 54
1001
0000
0000
0001
0100
0000
0000
0100
0010
0000
1000
0100
0010
0000
0001
1000
,  // measure 55
0010
0000
0000
0010
0100
0000
0000
0100
0001
0000
1000
0100
0010
0000
0001
1000
,  // measure 56
0010
0000
0000
0010
0100
0000
0000
0100
0001
0000
0010
0100
1000
0000
0010
0100
,  // measure 57
0001
0000
0000
0001
0010
0000
0000
0010
0100
0000
1000
0001
0100
0000
0010
1000
,  // measure 58
0001
0000
1000
0000
0100
0010
0100
1000
0010
0100
0001
0010
0001
0100
0010
0000
,  // measure 59
1000
0000
0001
0000
0010
0100
0010
0001
1000
0001
0100
0010
1000
0100
0010
0000
,  // measure 60
0100
0000
1000
0000
0001
0100
0010
1000
0001
0010
0001
1000
0010
0100
0001
0000
,  // measure 61
1000
0000
0100
0000
0010
0001
0100
0010
1000
0001
0010
0100
2000
0000
0000
0000
,  // measure 62
3010
0000
0100
0001
0010
0000
0100
1000
0001
0100
0010
1000
0001
0000
1000
0100
,  // measure 63
0010
0000
0100
1000
0010
0000
0100
0001
0010
0001
0100
0010
1000
0000
0001
0010
,  // measure 64
0100
0000
0010
0001
1000
0000
0010
0100
0001
1000
0010
1000
0100
0000
0010
0100
,  // measure 65
1000
0000
0001
0100
0010
0000
1000
0001
0010
0001
0100
0010
1000
0000
0100
0010
,  // measure 66
0001
0000
0100
0000
0010
1000
0001
0010
0100
1000
0100
0010
0001
1000
0001
0100
,  // measure 67
0010
0000
1000
0000
0001
0010
0100
1000
0001
1000
0010
0100
0001
0010
0001
0100
,  // measure 68
0010
0000
1000
0000
0100
0010
0100
1000
0001
0100
0001
1000
0010
0100
0001
1000
,  // measure 69
0002
0000
0000
0003
,  // measure 70
1200
0001
0010
0001
,  // measure 71
0320
0100
0001
0100
,  // measure 72
0032
0100
1000
0010
,  // measure 73
2003
0010
0001
3100
,  // measure 74
0110
0000
0001
1000
0010
0100
0001
1000
0100
0010
0100
1000
0001
0100
0010
1000
,  // measure 75
0001
0000
0010
0100
1000
0100
0010
0001
1000
0001
0100
0010
1000
0100
0010
0001
,  // measure 76
1000
1100
0001
0101
1000
1010
0001
0011
,  // measure 77
1000
0100
1000
0001
0100
0001
1000
0010
1000
0001
0010
0001
1000
0100
0010
0001
,  // measure 78
0200
0000
0000
0000
,  // measure 79
0000
0000
0000
0000
,  // measure 80
0300
0000
0000
0000
;

//---------------dance-double - t7rPandynature----------------
#NOTEDATA:;
#CHARTNAME:t7rPandynature;
#STEPSTYPE:dance-double;
#DESCRIPTION:t7rPandynature;
#CHARTSTYLE:;
#DIFFICULTY:Easy;
#METER:9;
#RADARVALUES:0.266970,0.540755,0.079523,0.063618,0.000000,235.000000,225.000000,10.000000,8.000000,0.000000,0.000000,0.000000,0.000000,0.000000,0.266970,0.540755,0.079523,0.063618,0.000000,235.000000,225.000000,10.000000,8.000000,0.000000,0.000000,0.000000,0.000000,0.000000;
#CREDIT:t7rPandynature;
#NOTES:
00000000
00000000
00000000
00000000
,
00000000
00000000
00000000
00000000
,
00000000
00000000
00000000
00000000
,
00000000
00000000
00000000
00000000
,
00000000
00000000
00000000
00000000
,
00000000
00000000
00000000
00000000
,
00000000
00000000
00000000
00000000
,
00000000
00000000
00000000
00000000
,
10000000
00000000
00000000
01000000
,
00000000
00000000
00100000
00000000
,
00000000
00010000
00000000
00000000
,
01000000
00000000
00000000
00010000
,
00000000
00000000
00100000
00000000
,
00000000
00001000
00000000
00000000
,
00010000
00000000
00000000
00000010
,
00000000
00000000
00000100
00000000
,
00000000
00000001
00000000
00000010
,
00000010
00000000
00000000
00000100
,
00000000
00000000
00010000
00000000
,
00000000
00001000
00000000
01000000
,
01000000
00000000
00000000
01000000
,
00000000
00000000
00100000
00000000
,
00000000
00100000
00100000
00100000
,
10000000
00000000
00000000
01000000
00000000
00000000
10000000
00000000
,
00000000
00100000
00000000
00000000
01000000
00000000
00000000
00010000
,
00000000
00100000
00000000
00001000
,
00011000
00000000
00000000
00010000
00000000
00000000
00000100
00000000
,
00000000
00001000
00000000
00000000
00000010
00000000
00000000
00000100
,
00000000
00000001
00000010
00001000
,
00000010
00000000
00000000
00000001
00000000
00000000
00000100
00000000
,
00000000
00000010
00000000
00000000
00001000
00000000
00000000
00000100
,
00000000
00010000
00000000
00001000
,
00011000
00000000
00000000
00001000
00000000
00000000
01000000
00000000
,
00000000
00100000
00000000
00000000
10000000
00000000
00000000
01000000
,
00000000
00100000
00000000
01000000
,
10000000
00000000
00000000
01000000
00000000
00000000
00010000
00000000
,
00000000
01000000
00000000
00000000
10000000
00000000
00000000
00100000
,
00000000
01000000
00000000
00001000
,
00011000
00000000
00000000
00010000
00000000
00000000
00000100
00000000
,
00000000
00001000
00000000
00000000
00000010
00000000
00000000
00000001
,
00000000
00000010
00000000
00000100
,
00001001
00000000
00000000
00000001
00000000
00000000
00000010
00000000
,
00000000
00000100
00000000
00000000
00000000
00000000
00000010
00000000
,
00000000
00000001
00000100
00000010
,
00001000
00001000
00000100
00000100
,
00000010
00000001
00000100
00001000
,
00010000
01000000
10000000
01000000
,
10000000
10000000
00100000
00100000
,
01000000
01000000
00010000
00100000
,
00001000
00000000
00010000
00000000
00001000
00010000
00001000
00000000
,
00022000
00000000
00000000
00000000
,
00000000
00000000
00000000
00033000
,
00000100
00000000
00010000
00000000
,
00001000
00100000
00001000
00010000
,
00011000
01000000
00010000
10000000
,
00100000
00010000
00001000
00000010
,
00000100
00001000
00000001
00000100
,
00000010
00010000
00001000
00100000
,
01000000
00000000
10000000
00010000
01000000
00100000
10000000
00000000
,
01000000
00000000
00010000
00001000
00010000
00000100
00001000
00000000
,
00000001
00000000
00000100
00000010
00001000
00000001
00000010
00000000
,
00000100
00000000
00010000
00001000
00010000
00100000
01000000
00000000
,
10010000
00000000
10000000
00000000
01000000
00010000
00001000
00000000
,
00000010
00000000
00000001
00000000
00001000
00000001
00000100
00000000
,
00000010
00000000
00001000
00000000
00010000
01000000
00100000
00000000
,
10000000
00000000
00010000
00000000
10000000
01000000
00010000
00000000
,
00001000
00000000
00010000
00000100
00001000
00000100
00000010
00000000
,
00000001
00000000
00001000
00000001
00000100
00000010
00001000
00000000
,
00000100
00000000
00010000
00001000
00100000
00001000
00010000
00000000
,
00200000
00000000
00000000
00300000
,
20010000
00000000
00000000
00000000
,
32000000
00000000
00000000
00000000
,
03020000
00000000
00000000
00000000
,
00032000
00000000
00000000
00003000
,
00011000
00000000
00000100
00001000
00000010
00001000
00000100
00000000
,
00000110
00000000
00000010
00000001
00000100
00000001
00000010
00000000
,
00000100
00010000
00001000
00100000
00010000
01000000
00001000
00010000
,
00000010
00001000
00000001
00000010
00000100
00010000
00001000
01000000
,
00200000
00000000
00000000
00000000
,
00000000
00000000
00000000
00000000
,
00300000
00000000
00000000
00000000
;

//---------------dance-double - t7rPandynature----------------
#NOTEDATA:;
#CHARTNAME:t7rPandynature;
#STEPSTYPE:dance-double;
#DESCRIPTION:t7rPandynature;
#CHARTSTYLE:;
#DIFFICULTY:Medium;
#METER:13;
#RADARVALUES:0.416927,0.667992,0.222664,0.182903,0.023857,367.000000,339.000000,28.000000,23.000000,0.000000,0.000000,0.000000,0.000000,0.000000,0.416927,0.667992,0.222664,0.182903,0.023857,367.000000,339.000000,28.000000,23.000000,0.000000,0.000000,0.000000,0.000000,0.000000;
#CREDIT:t7rPandynature;
#NOTES:
00000000
00000000
00000000
00000000
,
00000000
00000000
00000000
00000000
,
00000000
00000000
00000000
00000000
,
00000000
00000000
00000000
00000000
,
00000000
00000000
00000000
00000000
,
00000000
00000000
00000000
00000000
,
00000000
00000000
00000000
00000000
,
00000000
00000000
00000000
00000000
,
00000020
00000000
00000000
00000130
00000000
00000000
00000101
00000000
,
00000000
00000001
00000000
00000000
00000020
00000000
00000000
00000130
,
00000000
00000000
00000110
00000000
00000000
00000100
00010000
00000000
,
00002000
00000000
00000000
00013000
00000000
00000000
00011000
00000000
,
00000000
00001000
00000000
00000000
00020000
00000000
00000000
00130000
,
00000000
00000000
01100000
00000000
00000000
00010000
10000000
00000000
,
02000000
00000000
00000000
03010000
00000000
00000000
00011000
00000000
,
00000000
00001000
00000000
00000000
00000200
00000000
00000000
00000301
,
00000000
00000000
00000101
00000000
00000000
00000001
00000010
00000000
,
00000002
00000000
00000000
00000013
00000000
00000000
00000011
00000000
,
00000000
00000010
00000000
00000000
00002000
00000000
00000000
00013000
,
00000000
00000000
00011000
00000000
00000000
00001000
00010000
00000000
,
00100000
00000000
00000000
01000000
00000000
00000000
00010000
00000000
,
00000000
00001000
00000000
00000000
00000100
00010000
00000000
00001000
,
00000000
00100000
00000000
00000000
00000000
00010000
10000000
00000000
,
10010000
00000000
10000000
00100000
00000000
10000000
00010000
00000000
,
10000000
01000000
00000000
10000000
00010000
00000000
10000000
00100000
,
00000000
10000000
00010000
00000000
10000000
00000000
10010000
00000000
,
00010000
00000000
00100000
00001000
00000000
00100000
00010000
00000000
,
00100000
00001000
00000000
00100000
00010000
00000000
00100000
00001000
,
00000000
00100000
00010000
00100000
00001000
00010000
00000100
00001000
,
00000001
00000000
00001000
00000100
00000000
00001000
00000001
00000000
,
00001000
00000010
00000000
00001000
00000001
00000000
00001000
00000100
,
00000000
00001000
00000010
00000000
00001000
00000000
00001001
00000000
,
00000110
00000000
00000010
00001000
00000000
00000010
00000001
00000000
,
00000010
00001000
00000000
00000010
00000100
00000000
00000010
00001000
,
00000000
00000010
00000001
00000000
00000010
00000100
00000001
00001000
,
00001200
00000000
00000000
00010000
00000000
00000000
00001300
00000000
,
00000000
00011000
00000000
00000000
00102000
00000000
00000000
00010000
,
00000000
00000000
00103000
00000000
00000000
00001000
00010000
00000000
,
00021000
00000000
00000000
00000100
00000000
00000000
00001000
00000000
,
00000000
00030100
00000000
00000000
00012000
00000000
00000000
00010000
,
00000000
00000000
00103000
00000000
00001000
00010000
00001000
01000000
,
01100000
00000000
00000000
10100000
00000000
00000000
01100000
00000000
,
00000000
10010000
00000000
00000000
00000000
10000000
01000000
00000000
,
00000000
00010000
01000000
10000000
00100000
01000000
00010000
00100000
,
00001000
00000000
00010000
01000000
00000000
01000000
10000000
00000000
,
10000000
00100000
00000000
00000000
10000000
00000000
01000000
00000000
,
00100000
00010000
00100000
00000000
00010000
00100000
01000000
00000000
,
00010000
00000000
00001000
00000100
00000000
00000100
00000001
00000000
,
00000001
00000010
00000000
00000000
00000001
00000000
00000100
00000000
,
00001000
00010000
01000000
10000000
00010000
00000000
01100000
00000000
,
20000000
31000000
00020000
01030000
,
20000000
30100000
02000000
03010000
,
00100000
00001000
00100000
00000000
00001000
00010000
00001000
00000000
,
00000100
00000010
00001000
00000100
00010000
00000000
00001000
00000000
,
00011000
00000000
00100000
00010000
01000000
00010000
00100000
00000000
,
11000000
00000000
00010000
01000000
00001000
00010000
00000100
00000000
,
00000110
00000000
00000001
00000100
00001000
00010000
01000000
00000000
,
01100000
00000000
00010000
10000000
00100000
00010000
00001000
00000000
,
00000010
00000100
00001000
00000001
00000100
00001000
00010000
00000000
,
00100000
10000000
00010000
10000000
01000000
00010000
00001000
00000000
,
00100000
00010000
01000000
00001000
00010000
00000010
00001000
00000000
,
00000100
00000010
00000001
00000100
00000010
00001000
00000100
00000000
,
00000110
00000000
00000010
00000001
00000100
00001000
00010000
00100000
,
10000000
00000000
00010000
00100000
01000000
00010000
00001000
00010000
,
00100000
00000000
01000000
00001000
00010000
00000100
00001000
00000010
,
00000100
00000000
00001000
00010000
00000100
00001000
00000100
00010000
,
00001000
00000000
00000100
00000001
00000010
00000001
00000100
00001000
,
00010000
00000000
01000000
10000000
00100000
10000000
00010000
10000000
,
01000000
00000000
00010000
00001000
00000010
00000001
00000100
00000010
,
00002000
00000000
00000000
00003000
,
00002002
00000000
00003000
00000000
,
00000200
00000000
00000003
00000000
,
00002000
00000000
00000300
00000000
,
00020000
00000000
00003000
00000000
,
00130000
00000000
10000000
00000000
00010000
00000000
10000000
00000000
01000000
00000000
00100000
00000000
00001000
00010000
00001000
00000000
,
00000010
00000000
00000001
00000000
00001000
00000000
00000001
00000000
00000100
00000000
00000010
00000000
00010000
00001000
00010000
00000000
,
00100000
10000000
01000000
00010000
00001000
00000010
00000001
00001000
,
00000001
00000100
00000001
00000000
00001000
00000010
00001000
00000000
00000100
00001000
00000100
00000000
00010000
00001000
00010000
00000000
,
02000000
00000000
00000000
00000000
,
00000000
00000000
00000000
00000000
,
03000000
00000000
00000000
00000000
;

//---------------dance-double - t7rPandynature----------------
#NOTEDATA:;
#CHARTNAME:t7rPandynature;
#STEPSTYPE:dance-double;
#DESCRIPTION:t7rPandynature;
#CHARTSTYLE:;
#DIFFICULTY:Hard;
#METER:15;
#RADARVALUES:0.543028,0.858847,0.111332,0.159046,0.230616,478.000000,464.000000,14.000000,20.000000,0.000000,0.000000,0.000000,0.000000,0.000000,0.543028,0.858847,0.111332,0.159046,0.230616,478.000000,464.000000,14.000000,20.000000,0.000000,0.000000,0.000000,0.000000,0.000000;
#CREDIT:t7rPandynature;
#NOTES:
00000000
00000000
00000000
00000000
,
00000000
00000000
00000000
00000000
,
00000000
00000000
00000000
00000000
,
00000000
00000000
00000000
00000000
,
00000000
00000000
00000000
00000000
,
00000000
00000000
00000000
00000000
,
00000000
00000000
00000000
00000000
,
00000000
00000000
00000000
00000000
,
10100000
00000000
00100000
01000000
00000000
01000000
00010000
00000000
,
00010000
00100000
00000000
00100000
00001000
00000000
00001000
00010000
,
00000000
00010000
00001000
00000000
00001000
00000010
00000001
00000000
,
00000100
00000000
00000100
00000010
00000000
00000010
00001000
00000000
,
00001000
00000100
00000000
00000100
00010000
00000000
00010000
00001000
,
00000000
00001000
00010000
00000000
00010000
01000000
10000000
00000000
,
00100000
02000000
00010000
03100000
,
10000000
01000000
00100000
00000000
01000000
00000000
00010000
00001000
,
00000000
00001000
00000100
00000000
00000010
00000100
00000001
00000010
,
00000001
00000020
00000001
00000130
,
00000010
00000001
00000000
00000001
00000100
00000000
00000100
00001000
,
00000000
00001000
00010000
00000000
00100000
10000000
00010000
00000000
,
11000000
00000000
01000000
00010000
00000000
00000000
00011000
00000000
,
00001000
00000100
00000010
00000000
00001010
00000000
00001000
00010000
,
00000000
00010000
00100000
00000000
00010000
10000000
01000000
00000000
,
10010000
00000000
10000000
00010000
00000000
00100000
00001000
00000000
,
00010000
00000100
00000000
00001000
00000010
00000000
00000100
00000001
,
00000000
00000010
00000100
00000000
00000010
00000001
00000100
00000010
,
00001010
00000000
00000100
00010000
00000000
00001000
01000000
00000000
,
00100000
10000000
00000000
00010000
00100000
00000000
10000000
00100000
,
00000000
00000000
01000000
00000000
00100000
00000000
00010000
00000000
00100000
00000000
00001000
00000000
00100000
00001000
00010000
00000000
,
00011000
00000000
00000100
00001000
00000000
00000010
00000100
00000000
,
00000010
00001000
00000000
00000001
00000010
00000000
00000100
00001000
,
00000000
00000100
00010000
00000000
00001000
00100000
00001000
00010000
,
00000010
00000000
00000100
00000010
00000000
00001000
00000100
00000000
,
00010000
00001000
00000000
00001000
01000000
00000000
00100000
10000000
,
00000000
01000000
00100000
00000000
00010000
00100000
01000000
10000000
,
10010000
00000000
10000000
01000000
00000000
01000000
00100000
00000000
,
00100000
00010000
00000000
00010000
00001000
00000000
00001000
00000100
,
00000000
00000100
00000010
00000000
00000010
00000001
00000010
00000100
,
00001100
00000000
00000100
00010000
00000000
00010000
00001000
00000000
,
00001000
01000000
00000000
01000000
00100000
00000000
00100000
10000000
,
00000000
10000000
00010000
00000000
00010000
00100000
00001000
00010000
,
00012000
00000000
00000000
00103000
00000000
00000000
00021000
00000000
,
00000000
00030010
00000000
00000000
00000000
00010000
00011000
00000000
,
00000000
00001000
01000000
00001000
00010000
00000100
00001000
00000010
,
00000101
00000001
00000100
00000001
00000010
00000100
00001000
00000001
,
00002000
00000000
00000010
00000000
00003001
00000010
00000001
00000000
,
00000100
00000001
00000100
00001000
00010000
00100000
01000000
00010000
,
10000000
01000000
00100000
01000000
00010000
00001000
00000100
00000010
,
00000100
00000000
00000001
00000000
00000010
00001000
00010000
00010000
,
00100000
10000000
00010000
00010000
10000000
00100000
01000000
00010000
,
20000000
32000000
03200000
00320000
,
00032000
00003200
00000320
00000032
,
00001003
00000000
00000000
00000001
00000100
00000000
00000001
00000000
00001000
00000000
00000000
00000100
00010000
00000000
00001000
00000000
,
00010000
00001000
00000100
00000000
00001000
00010000
01000000
00000000
00010000
00000000
00001000
00010000
00000000
00000000
00000000
00000000
,
00001000
00010000
01000000
00100000
00001000
00010000
00100000
00000000
,
10000000
01000000
00010000
00001000
00000010
00000001
00000100
00000000
,
00000010
00001000
00010000
01000000
00100000
10000000
00010000
00000000
,
00100000
01000000
00010000
00001000
00000010
00000100
00001000
00000000
,
00000001
00000000
00000100
00000000
00000010
00000000
00001000
00000000
00000100
00010000
00000100
00010000
00001000
00100000
00001000
00000000
,
00010000
00000000
00100000
00000000
10000000
00000000
00010000
00000000
01000000
00001000
01000000
00001000
00010000
00000010
00010000
00000000
,
00001000
00000000
00000010
00000000
00000001
00000000
00001000
00000000
00000100
00010000
00000100
00010000
00001000
00100000
00001000
00000000
,
01000000
00000000
00010000
00000000
00100000
00000000
00010000
00000000
01000000
00001000
01000000
00001000
00020000
00000000
00000000
00000000
,
01030000
00000000
00000000
01000000
10000000
00000000
00010000
00000000
01000000
00000000
00001000
00010000
00001000
00000000
00000010
00000000
,
00000001
00000000
00000000
00000100
00000010
00000000
00010000
00000000
00001000
00000000
00100000
00010000
00100000
00000000
01000000
00000000
,
10000000
00000000
00000000
10000000
00100000
00000000
00010000
00000000
00001000
00000000
00000010
00000100
00000010
00000000
00000001
00000000
,
00000100
00000000
00000000
00000100
00000001
00000000
00000010
00000000
00000100
00000000
00010000
00001000
00010000
00000000
00100000
00000000
,
10000000
00000000
01000000
00000000
00010000
00001000
00010000
00001000
00000100
00000001
00000100
00000001
00000010
00000100
00000010
00000000
,
00001000
00000000
00010000
00000000
00100000
10000000
00100000
10000000
01000000
00100000
01000000
00100000
00010000
01000000
00010000
00000000
,
00100000
00000000
00001000
00000000
00010000
00000010
00010000
00000010
00001000
00000001
00001000
00000001
00000010
00000100
00000010
00000000
,
00000002
00000000
00000000
00000003
,
00000201
00000000
00000000
00000000
,
00002300
00000000
00000000
00000000
,
00023000
00000000
00000000
00000000
,
02030000
00000000
00000000
03000000
,
10000000
00000000
00100000
00000000
01000000
00010000
01000000
00001000
00010000
00000010
00001000
00000010
00000100
00000001
00000100
00000000
,
00000001
00000000
00000010
00000000
00000100
00001000
00000100
00010000
00001000
00100000
00010000
00100000
01000000
10000000
01000000
00000000
,
00010000
00010000
00001000
00001000
00000100
00000100
00000001
00000001
,
00000010
00000100
00000010
00000100
00001000
00000100
00001000
00000100
00010000
00001000
00010000
00001000
01000000
00010000
10000000
00010000
,
00200000
00000000
00000000
00000000
,
00000000
00000000
00000000
00000000
,
00300000
00000000
00000000
00000000
;

//---------------dance-double - t7rPandynature----------------
#NOTEDATA:;
#CHARTNAME:t7rPandynature;
#STEPSTYPE:dance-double;
#DESCRIPTION:t7rPandynature;
#CHARTSTYLE:;
#DIFFICULTY:Challenge;
#METER:16;
#RADARVALUES:0.656632,0.922465,0.127237,0.453280,0.413519,578.000000,562.000000,16.000000,57.000000,0.000000,0.000000,0.000000,0.000000,0.000000,0.656632,0.922465,0.127237,0.453280,0.413519,578.000000,562.000000,16.000000,57.000000,0.000000,0.000000,0.000000,0.000000,0.000000;
#CREDIT:t7rPandynature;
#NOTES:
00000000
00000000
00000000
00000000
,
00000000
00000000
00000000
00000000
,
00000000
00000000
00000000
00000000
,
00000000
00000000
00000000
00000000
,
00000000
00000000
00000000
00000000
,
00000000
00000000
00000000
00000000
,
00000000
00000000
00000000
00000000
,
00000000
00000000
00000000
00000000
,
00100000
00010000
10000000
00200000
00000000
01300000
00010000
00100000
,
00001000
00020000
00000000
00031000
00000100
00000010
00000100
00000002
,
00000000
00000013
00000200
00000000
00000310
00000001
00000100
00001000
,
00010000
00100000
01000000
00200000
00000000
10300000
01000000
00100000
,
01000000
20000000
00000000
30010000
01000000
00100000
01000000
00020000
,
00000000
00000000
00130000
00000000
00002000
00000000
00000000
00000000
00013000
00000000
00001000
00000000
00000010
00000001
00000010
00000001
,
00001000
00000010
00000100
00000002
00000000
00000013
00000100
00000010
,
00000001
00000200
00000000
00001300
00000100
00000010
00001000
00000200
,
00000000
00000000
00010300
00000000
00002000
00000000
00000000
00000000
00013000
00000000
01000000
10000000
01000000
00000000
10000000
00000000
,
00100000
01000000
00010000
02000000
00000000
03100000
10000000
01000000
,
00100000
00002000
00000000
00013000
00000010
00001000
00000010
00000200
,
00000000
00000000
00000301
00000000
00002000
00000000
00000000
00000000
00003001
00000000
00000010
00001000
00000010
00001000
00000010
00000000
,
00000001
00000100
00001000
00001200
00000000
00000310
00001000
00000100
,
00010000
00000000
00021000
00000000
00000000
00000000
00031000
00000000
00010000
01000000
00000000
10000000
00000000
00000000
10000000
00000000
,
00000000
10000000
00000000
00000000
10000000
00000000
10000000
00000000
10000000
00000000
10000000
00000000
00010000
00000000
10000000
00000000
,
10020000
00000000
10030000
00200000
00000000
01300000
00020000
00000000
,
00130000
00002000
00000000
00013000
00000200
00000000
00001300
00000020
,
00000000
00000130
00000001
00000010
00001000
00000010
00000001
00000100
,
00000120
00000000
00000130
00000002
00000000
00000103
00000020
00000000
,
00001030
00000200
00000000
00010300
00002000
00000000
01003000
00200000
,
00000000
00000000
00000000
10300000
00000000
00000000
01000000
00000000
00000000
00100000
00000000
00000000
00010000
00000000
00000000
00100000
00000000
00000000
00001000
00010000
00001000
00010000
00000000
00000000
,
00020100
00000000
00030010
00000200
00000000
00000301
00000020
00000000
,
00000130
00000020
00000000
00000031
00000200
00000000
00000310
00002000
,
00000000
00003100
00002000
00000000
00003100
00010000
00001000
01000000
,
01020000
00000000
01030000
00200000
00000000
01300000
00020000
00000000
,
00130000
02000000
00000000
03100000
00020000
00000000
10030000
00020000
,
00000000
00000000
00130000
00000000
00002000
00000000
00000000
00000000
00103000
00000000
00001000
00000000
00010000
00000010
00010000
00000010
,
00001000
00000100
00000001
00000100
00001000
00000010
00000100
00000001
,
00000010
00001000
00000010
00000001
00000100
00000010
00001000
00000100
,
00010000
00001000
01000000
00100000
10000000
01000000
00010000
01000000
,
10000000
01000000
00010000
01000000
10000000
00010000
01000000
00010000
,
00100000
00001000
00010000
00000100
00001000
00000010
00000001
00000010
,
00001000
00000000
00000001
00000000
00001000
00000000
00000100
00000000
00000010
00000000
00000001
00000000
00001000
00000001
00001000
00000001
,
00001000
00000000
00000000
00000110
00000000
00000000
00011000
00000000
,
00000000
01100000
00000000
00000000
00000000
01000000
10010000
00000000
,
00000000
10000000
01000000
00010000
01000000
10000000
00010000
01000000
,
00001000
00010000
00001000
00000100
00001000
00010000
01000000
10000000
,
00100000
01000000
00100000
00010000
00100000
01000000
00100000
10000000
,
01000000
00000000
00100000
00000000
01000000
00000000
10000000
00000000
01000000
00000000
00010000
00000000
00001000
00010000
00001000
00010000
,
00001000
00000100
00000010
00000100
00000001
00000100
00000010
00000100
,
00000001
00000010
00000100
00000010
00001000
00001000
00010000
00010000
,
00100000
00100000
10000000
10000000
00010000
01000000
01100000
00000000
,
10100000
00000000
01000000
00010000
00200000
00000000
00301000
00010000
00000200
00000000
00001300
00000001
00000020
00000000
00000130
00000000
,
00001001
00000000
00000001
00000100
00000020
00000000
00001030
00000100
00020000
00000000
00031000
01000000
00200000
00000000
01300000
00000000
,
10010000
00000000
10000000
01000000
00100000
00000000
01000000
00000000
00010000
00000000
00001000
00010000
00000100
00000000
00001000
00000000
,
00000010
00000100
00000010
00000100
00000000
00001000
00010000
00001000
01000000
00001000
00010000
00001000
00000000
00000000
00000000
00000000
,
00011000
00000000
00000000
00010000
01000000
00000000
10000000
00000000
00100000
00000000
10000000
00010000
00100000
00000000
01000000
00000000
,
00010000
00000000
00000000
00010000
00001000
00000000
00000010
00000000
00000001
00000000
00001000
00000010
00000100
00000000
00001000
00000000
,
00010000
00000000
00000000
00010000
01000000
00000000
00100000
00000000
00010000
00000000
10000000
00100000
01000000
00000000
00010000
00000000
,
00100000
00000000
00000000
00100000
01000000
00000000
00010000
00000000
00001000
00000000
00000010
00000001
00001000
00000000
00000010
00000000
,
00000100
00000000
00001000
00000000
00010000
00000000
01000000
10000000
00010000
00100000
00010000
00100000
01000000
10000000
01000000
00000000
,
00010000
00000000
00001000
00000000
00000010
00000000
00000001
00000100
00000010
00001000
00000010
00001000
00000001
00000010
00000001
00000000
,
00000100
00000000
00001000
00000000
00010000
00000000
01000000
10000000
00010000
01000000
00010000
01000000
00100000
10000000
00100000
00000000
,
10000000
00000000
01000000
00000000
00010000
00000000
00001000
00010000
00000100
00001000
00000100
00000010
00000002
00000000
00000000
00000000
,
00000103
00000000
00000010
00010000
00001000
00000000
00100000
00010000
00100000
01000000
10000000
00010000
01000000
00000000
00100000
00000000
,
10000000
00000000
00010000
00100000
00001000
00000000
00010000
00000010
00001000
00000010
00000100
00000001
00001000
00000000
00000100
00000000
,
00000010
00000000
00000001
00001000
00000010
00000000
00010000
00001000
00100000
00010000
00100000
01000000
10000000
00000000
00010000
00000000
,
01000000
00000000
00001000
00010000
00000100
00000000
00001000
00000001
00000100
00000010
00001000
00000001
00000010
00000000
00000100
00000000
,
00010000
00000000
00001000
00000000
01000000
00010000
10000000
00100000
10000000
01000000
00100000
00010000
01000000
00001000
00010000
00000000
,
00000100
00000000
00001000
00000000
00000001
00000100
00000010
00010000
00001000
00100000
00010000
00100000
01000000
10000000
00010000
00000000
,
01000000
00000000
00001000
00000000
00010000
00000100
00000010
00000001
00001000
00000001
00000100
00000001
00000010
00000100
00001000
00000000
,
00000020
00000000
00000000
00000030
,
00021000
00000000
00000000
00000000
,
00230000
00000000
00000000
00000000
,
20300000
00000000
00000000
00000000
,
32000000
00000000
00000000
00000000
,
03010000
00000000
00001000
00000000
00010000
00000100
00001000
00000001
00000100
00000010
00000100
00000001
00001000
00000100
00000010
00000100
,
00010000
00000000
00001000
00000000
01000000
00010000
10000000
00100000
10000000
00010000
10000000
01000000
00100000
00010000
01000000
00001000
,
00010000
01000000
00010000
00000100
00001000
00000001
00000100
00001000
,
01000000
00010000
10000000
00100000
10000000
01000000
00100000
00010000
00100000
00001000
00010000
00000010
00001000
00000001
00000100
00001000
,
00020000
00000000
00000000
00000000
,
00000000
00000000
00000000
00000000
,
00030000
00000000
00000000
00000000
;
