#TITLE:PARANOiA Rebirth;
#SUBTITLE:;
#ARTIST:190';
#TITLETRANSLIT:;
#SUBTITLETRANSLIT:;
#ARTISTTRANSLIT:;
#GENRE:;
#CREDIT:;
#BANNER:PARANOiA Rebirth.png;
#BACKGROUND:PARANOiA Rebirth-bg.png;
#LYRICSPATH:;
#CDTITLE:;
#MUSIC:PARANOiA Rebirth.ogg;
#OFFSET:-0.006000;
#SAMPLESTART:1.269000;
#SAMPLELENGTH:15.000000;
#SELECTABLE:YES;
#DISPLAYBPM:190.000000;
#BPMS:0.000000=190.074005
,20.000000=190.011002
;
#STOPS:
;
#BGCHANGES:;
#KEYSOUNDS:;
#ATTACKS:;

//---------------dance-single - Pandemonium X----------------
#NOTES:
     dance-single:
     :
     Beginner:
     5:
     0.162566,0.345099,0.108848,0.000000,0.000000,115.000000,104.000000,11.000000,0.000000,0.000000,0.000000,0.162566,0.345099,0.108848,0.000000,0.000000,115.000000,104.000000,11.000000,0.000000,0.000000,0.000000:
// measure 0
0000
0000
0000
0000
,  // measure 1
0000
0000
0000
0000
,  // measure 2
0000
0000
0000
0000
,  // measure 3
0000
0000
0000
0000
,  // measure 4
0000
0000
0000
0000
,  // measure 5
0001
0000
0000
0000
,  // measure 6
0000
0000
0000
0000
,  // measure 7
1000
0000
0000
0000
,  // measure 8
0000
0000
0000
0000
,  // measure 9
0010
0000
0000
0000
,  // measure 10
0100
0000
0000
0000
,  // measure 11
0001
0001
0001
0000
,  // measure 12
1000
0000
0000
0000
,  // measure 13
0010
0000
0000
0000
,  // measure 14
0100
0000
0000
0000
,  // measure 15
0010
0010
0010
0000
,  // measure 16
1000
0000
0001
0000
,  // measure 17
0110
0000
0000
0000
,  // measure 18
0100
0000
0000
0000
,  // measure 19
0001
0001
0001
0000
,  // measure 20
1000
0000
0000
0000
,  // measure 21
0110
0000
0000
0000
,  // measure 22
0010
0000
0000
0000
,  // measure 23
0100
0100
0100
0000
,  // measure 24
0000
0000
0000
0000
,  // measure 25
0010
0000
0000
0000
,  // measure 26
1000
0000
0000
0000
,  // measure 27
0001
0000
1000
0000
,  // measure 28
0010
0000
0000
0000
,  // measure 29
0110
0000
0000
0000
,  // measure 30
0000
0010
0010
0010
,  // measure 31
0000
1001
0000
0000
,  // measure 32
1000
0000
0001
0000
,  // measure 33
0110
0000
0000
0000
,  // measure 34
0000
0010
0000
0010
0000
0000
0000
0000
,  // measure 35
1001
0000
0000
0000
,  // measure 36
0000
0100
0000
0100
0000
0000
0000
0000
,  // measure 37
1001
0000
0000
0000
,  // measure 38
0000
0010
0000
0010
0000
0000
0000
0000
,  // measure 39
1001
0000
0000
0000
,  // measure 40
0100
0000
0010
0000
,  // measure 41
1000
0000
0001
0001
,  // measure 42
0000
1000
1000
1000
,  // measure 43
0000
0000
0001
0000
,  // measure 44
0000
1000
0001
1000
,  // measure 45
0010
0000
0000
0000
,  // measure 46
0000
0000
0000
0100
0000
0100
0000
0100
,  // measure 47
0000
0000
0000
0000
,  // measure 48
0000
0000
0000
0000
0000
0110
0000
0000
,  // measure 49
0000
0010
0000
0000
0000
0000
0000
0000
,  // measure 50
0000
0000
0000
1000
0000
1000
0000
1000
,  // measure 51
0000
0000
0000
0000
,  // measure 52
0000
0000
0000
0000
,  // measure 53
0001
0000
0000
0000
,  // measure 54
0100
0000
0000
0000
,  // measure 55
0000
0000
0010
1000
,  // measure 56
0001
0000
0000
0000
,  // measure 57
0010
0100
0100
0010
,  // measure 58
0001
0000
0000
0000
,  // measure 59
1000
0000
0000
0000
,  // measure 60
0010
0000
0000
0000
,  // measure 61
0100
0000
0000
0000
,  // measure 62
0010
0000
0000
0000
,  // measure 63
0000
0000
0000
1000
0000
0000
0000
0000
,  // measure 64
0001
0000
0000
0000
,  // measure 65
0000
0000
0000
0000
,  // measure 66
0010
0000
0000
0000
,  // measure 67
0000
0000
0000
0100
0000
0000
0000
0000
,  // measure 68
1000
0000
0000
0000
,  // measure 69
0000
0000
0000
0000
,  // measure 70
1001
0000
0000
0000
,  // measure 71
0001
0000
0000
0000
,  // measure 72
0100
0000
0000
0000
,  // measure 73
0010
0000
0010
0000
,  // measure 74
0100
0000
0100
0000
,  // measure 75
0001
0000
0001
0000
,  // measure 76
1000
1000
1000
1000
,  // measure 77
0001
1000
0110
0000
;

//---------------dance-single - Pandemonium X----------------
#NOTES:
     dance-single:
     :
     Easy:
     10:
     0.401467,0.690198,0.494765,0.019791,0.000000,284.000000,234.000000,50.000000,2.000000,0.000000,0.000000,0.401467,0.690198,0.494765,0.019791,0.000000,284.000000,234.000000,50.000000,2.000000,0.000000,0.000000:
// measure 0
0000
0000
0000
0000
,  // measure 1
0000
0000
0000
0000
,  // measure 2
0000
0000
0000
0000
,  // measure 3
0000
0000
0000
0000
,  // measure 4
0000
0000
0000
0000
,  // measure 5
0001
1000
0001
1000
0000
0000
0000
0000
,  // measure 6
0000
0000
0000
0000
,  // measure 7
0010
0100
0010
0100
0000
0000
0000
0000
,  // measure 8
0000
0000
0000
0000
,  // measure 9
0010
1000
0100
1000
,  // measure 10
0001
0100
0001
1000
,  // measure 11
0001
0010
0100
1000
0100
0000
1000
0000
,  // measure 12
0010
0000
0100
0000
0001
0000
0000
1001
,  // measure 13
0000
1001
0000
0000
0001
0000
1000
0000
,  // measure 14
0010
1000
0010
0100
,  // measure 15
0010
0100
0001
1000
0100
0000
0000
0000
,  // measure 16
0010
0010
0010
0010
,  // measure 17
0000
1001
0001
0100
,  // measure 18
0001
0010
0001
0100
,  // measure 19
0010
0100
0001
0100
0001
0000
1000
0000
,  // measure 20
0010
0000
0000
0000
1000
0000
0000
0110
,  // measure 21
0000
1001
0002
0000
0000
0000
0003
0000
,  // measure 22
0100
0010
1000
0000
,  // measure 23
0001
0010
0100
1000
0001
0000
0100
0000
,  // measure 24
0010
0100
0001
1000
0001
0000
0000
0000
,  // measure 25
0000
1100
0000
0000
0100
0000
0000
0000
,  // measure 26
1000
0000
0010
0000
0100
0000
0000
0010
,  // measure 27
0000
0010
0000
0010
0100
0000
0100
0010
,  // measure 28
2000
0000
0000
3000
,  // measure 29
0000
0011
0000
0000
0000
0000
0000
0000
,  // measure 30
0000
0000
0010
0001
0100
0000
0100
0000
,  // measure 31
0010
0100
0001
1000
,  // measure 32
0001
0100
0010
1000
0001
0000
0000
0000
,  // measure 33
1000
0100
0010
0001
0000
0000
0000
0000
,  // measure 34
0000
0000
0000
0000
,  // measure 35
1000
0100
0010
0100
0000
0000
0000
0000
,  // measure 36
0000
0000
0000
0000
,  // measure 37
0010
0100
0010
0001
0000
0000
0000
0000
,  // measure 38
0000
0000
0000
0000
,  // measure 39
0001
0010
0100
1000
0000
0000
0000
0000
,  // measure 40
0001
0100
0010
1000
,  // measure 41
1001
0000
0110
1001
,  // measure 42
0000
0110
1001
0110
,  // measure 43
0000
0000
1001
0000
,  // measure 44
0000
0110
1001
0110
,  // measure 45
1001
1000
0001
0010
,  // measure 46
0100
0000
1000
0010
0000
0010
0000
0010
,  // measure 47
0000
0100
0010
1000
,  // measure 48
0001
0000
0000
0010
0000
1100
0000
0000
,  // measure 49
0000
1000
0010
0000
0100
0000
0001
0000
,  // measure 50
1000
0000
0000
1001
0000
1001
0000
1001
,  // measure 51
0000
0001
0010
0100
,  // measure 52
0010
0001
0100
0010
,  // measure 53
0000
0000
0000
0000
,  // measure 54
1001
0001
0010
0001
,  // measure 55
0100
0010
1000
0001
,  // measure 56
0011
0010
0100
1000
,  // measure 57
0100
1000
0010
0100
,  // measure 58
0101
0001
0100
0010
,  // measure 59
0110
0010
1000
0001
,  // measure 60
1001
1000
0100
0010
,  // measure 61
0011
0001
0100
0000
,  // measure 62
0010
0100
0000
0000
0000
0000
0000
0000
,  // measure 63
0000
0000
0000
0010
0000
0000
1000
0000
,  // measure 64
0001
0001
0000
0000
0000
0000
0000
0000
,  // measure 65
0000
0000
0000
0000
,  // measure 66
1000
0010
0000
0000
0000
0000
0000
0000
,  // measure 67
0000
0000
0000
0100
0000
0000
0010
0000
,  // measure 68
1000
1000
0000
0000
0000
0000
0000
0000
,  // measure 69
0000
0000
0000
0000
,  // measure 70
1001
0001
0100
0010
,  // measure 71
1001
1000
0100
0010
,  // measure 72
1001
0001
0100
0010
,  // measure 73
1001
0110
1001
0110
,  // measure 74
0101
0101
1100
1100
,  // measure 75
1010
1010
0011
0011
,  // measure 76
0011
1100
0011
1100
,  // measure 77
0011
1100
1001
0000
;

//---------------dance-single - Pandemonium X----------------
#NOTES:
     dance-single:
     :
     Medium:
     12:
     0.500420,0.578875,0.524451,0.128639,0.000000,354.000000,301.000000,53.000000,13.000000,0.000000,0.000000,0.500420,0.578875,0.524451,0.128639,0.000000,354.000000,301.000000,53.000000,13.000000,0.000000,0.000000:
// measure 0
0000
0000
0000
0000
,  // measure 1
0000
0000
0000
0000
,  // measure 2
0000
0000
0000
0000
,  // measure 3
0000
0000
0000
0000
,  // measure 4
0000
0000
0000
0000
,  // measure 5
0001
0001
1000
0010
0000
0000
0000
0000
,  // measure 6
0000
0000
0000
0000
,  // measure 7
1000
1000
0001
0100
0000
0000
0000
0000
,  // measure 8
0010
0100
0001
1000
,  // measure 9
0001
0000
0100
0000
0010
0100
0010
0000
,  // measure 10
0100
0000
0001
0000
1000
0100
1000
0000
,  // measure 11
1000
0100
0010
0001
1000
0000
0001
0000
,  // measure 12
0100
0000
0010
0000
1000
0000
0000
1001
,  // measure 13
0000
1001
0000
0000
0001
0000
1000
0000
,  // measure 14
0010
1000
0100
0010
,  // measure 15
0100
1000
0010
0100
0001
0000
0010
0000
,  // measure 16
0110
1100
0110
1100
,  // measure 17
0000
1001
0000
0000
0001
0000
0000
0000
,  // measure 18
1000
0100
1000
0010
,  // measure 19
0100
0001
0010
0001
0100
0000
0010
0000
,  // measure 20
1000
0000
0001
0000
0010
0000
0000
1100
,  // measure 21
0000
0101
0000
0000
0001
0000
0100
0000
,  // measure 22
0010
0100
0001
1000
,  // measure 23
0001
0100
0010
0100
0001
0000
1000
0000
,  // measure 24
0100
0010
0100
1000
0001
0000
0000
0000
,  // measure 25
1000
0010
0100
0000
0010
0000
1000
0000
,  // measure 26
0001
0000
0010
0000
0100
0000
0000
0010
,  // measure 27
0000
0001
0000
0100
0010
0000
0100
0010
,  // measure 28
1000
0001
2000
0000
,  // measure 29
3100
0010
0001
0000
0010
0000
0001
0000
,  // measure 30
0100
0000
0010
0100
0001
0000
0101
0000
,  // measure 31
0001
0100
0010
1000
,  // measure 32
0001
1000
0010
1000
0001
0000
0000
0000
,  // measure 33
1000
0001
1000
0100
0000
0000
0000
0000
,  // measure 34
0000
0110
0000
1100
0000
0000
0000
0000
,  // measure 35
0100
0010
0001
0100
0000
0000
0000
0000
,  // measure 36
0000
0110
0000
0101
0000
0000
0000
0000
,  // measure 37
0001
0100
0010
0100
0000
0000
0000
0000
,  // measure 38
0000
1010
0000
1100
0000
0000
0000
0000
,  // measure 39
1000
0100
0010
0100
0000
0000
0000
0000
,  // measure 40
1000
0100
0010
0001
,  // measure 41
1000
1000
0000
0000
0001
0001
1000
1000
,  // measure 42
0000
0000
1001
0000
0110
0000
0001
0001
,  // measure 43
0000
0000
0001
1000
1000
0000
0000
0000
,  // measure 44
0000
0001
1001
0000
1010
0000
1001
0000
,  // measure 45
1100
0100
0010
0001
,  // measure 46
0100
0000
0010
1000
0000
1000
0000
1000
,  // measure 47
0000
0001
0010
0000
0100
0000
0010
0000
,  // measure 48
0001
0000
0000
1100
0000
0101
0000
0000
,  // measure 49
0000
0101
0100
0000
0100
0000
0010
0000
,  // measure 50
1000
0000
0000
1001
0000
1100
0000
1001
,  // measure 51
0000
0001
1000
0000
0100
0000
0010
0000
,  // measure 52
0100
1000
0001
0100
,  // measure 53
0000
0010
0010
0010
0010
0000
0010
0000
,  // measure 54
1001
1000
0100
1000
,  // measure 55
0010
0000
0100
0001
0000
0001
0010
0000
,  // measure 56
0110
0100
1000
0010
,  // measure 57
0100
0001
0001
0001
0001
0000
0001
0000
,  // measure 58
1001
0001
0100
0010
,  // measure 59
1001
0100
0010
0001
,  // measure 60
1001
0001
0100
0010
,  // measure 61
1001
0100
0010
0000
,  // measure 62
0110
0110
0000
0000
0000
0000
0000
0000
,  // measure 63
0000
0000
0000
1001
0000
0000
1100
0000
,  // measure 64
1010
1010
0010
0000
0100
0000
0001
0000
,  // measure 65
0010
0100
1000
0001
,  // measure 66
1001
1001
1000
0000
0001
0000
0100
0000
,  // measure 67
0010
0000
0000
0110
0000
0000
0101
0000
,  // measure 68
0011
0011
0001
0000
0010
0000
0100
0000
,  // measure 69
1000
0100
1000
0000
,  // measure 70
0001
0100
0010
0000
0100
0010
1000
0000
,  // measure 71
0001
0010
0100
0000
0010
0001
0100
0000
,  // measure 72
0010
1000
0100
0000
0010
0100
1000
0000
,  // measure 73
2100
3010
0102
0013
,  // measure 74
0201
0310
1020
0130
,  // measure 75
1002
0013
2001
3100
,  // measure 76
0002
0203
2300
3020
,  // measure 77
0031
0100
0010
1000
2002
0000
0000
0000
,  // measure 78
3003
0000
0000
0000
;

//---------------dance-single - Pandemonium X----------------
#NOTES:
     dance-single:
     :
     Hard:
     15:
     0.730839,0.843575,0.484870,0.098953,0.148430,517.000000,468.000000,49.000000,10.000000,0.000000,0.000000,0.730839,0.843575,0.484870,0.098953,0.148430,517.000000,468.000000,49.000000,10.000000,0.000000,0.000000:
// measure 0
0000
0000
0000
0000
,  // measure 1
0000
0000
0000
0000
,  // measure 2
0000
0000
0000
0000
,  // measure 3
0000
0000
0000
0000
,  // measure 4
0000
0000
0000
0000
,  // measure 5
0001
0001
1000
0020
0100
0000
1000
0000
,  // measure 6
0100
0100
1000
1030
,  // measure 7
0100
0100
1000
0010
0100
0001
0100
0010
,  // measure 8
1000
0100
1000
0000
0001
0100
0001
0000
1000
0010
1000
0000
0001
0010
0001
0000
,  // measure 9
1000
0000
1000
0000
0010
0000
0000
0100
0001
0000
0010
0000
0100
0000
0000
0010
,  // measure 10
0100
0000
1000
0000
0010
0000
0000
0100
0010
0000
1000
0000
0001
0000
0000
0000
,  // measure 11
1000
0000
0010
0000
0001
0000
0010
0000
1000
0000
0001
0000
0010
0000
0000
0100
,  // measure 12
0010
0000
0001
0000
1000
0000
0000
0010
1000
0000
0001
0000
0010
0000
0110
0000
,  // measure 13
0000
0000
1001
0000
1000
0000
0000
0001
0100
0000
0001
0000
0010
0000
0000
0001
,  // measure 14
0010
0000
0100
0000
0010
0000
0000
0100
1000
0000
0010
0000
0100
0000
0000
0000
,  // measure 15
1000
0100
0001
1000
0100
0000
0000
0010
,  // measure 16
0011
1100
0011
1100
,  // measure 17
0001
0000
1001
0000
1000
0000
0000
0001
0100
0000
0010
0000
1000
0000
0000
0100
,  // measure 18
0010
0000
0001
0000
1000
0000
0000
0001
1000
0000
0100
0000
0010
0000
0000
0000
,  // measure 19
0001
1000
0010
0001
1000
0000
0000
0000
,  // measure 20
0001
0100
0010
0100
0001
1000
0100
0110
,  // measure 21
0000
0000
1100
0000
1000
0000
0010
0000
0000
0000
0110
0000
0000
0000
0000
0100
,  // measure 22
0001
0000
0010
0000
0100
0000
0000
0010
0100
0000
1000
0000
0010
0000
0000
0000
,  // measure 23
0100
1000
0100
0001
1000
0001
0010
0100
,  // measure 24
1100
0100
1100
1000
0020
0000
0000
0000
,  // measure 25
0130
0101
0001
0000
0010
0001
0100
0001
,  // measure 26
0100
0001
1000
0100
0010
0100
1000
0001
,  // measure 27
0000
1000
0000
0010
0010
0000
0100
0100
,  // measure 28
0100
0000
0001
1000
0000
0010
0100
0000
,  // measure 29
0001
0101
0100
0000
0010
1000
0001
0010
,  // measure 30
0001
1000
0100
0010
0001
1000
0010
0100
,  // measure 31
0001
0001
1000
0100
0010
0010
0100
1000
,  // measure 32
0001
0001
0001
0001
0001
0000
0000
0000
,  // measure 33
1000
1000
1000
1000
0000
0000
0000
0000
,  // measure 34
0000
1001
0000
0110
0000
0000
0000
0000
,  // measure 35
0001
0001
0001
0001
0000
0000
0000
0000
,  // measure 36
0000
0101
0000
1010
0000
0000
0000
0000
,  // measure 37
1000
1000
0001
0010
0000
0100
0100
0100
,  // measure 38
0000
0110
0000
1100
0000
0000
0000
0000
,  // measure 39
0100
0100
0010
0001
0000
0000
0010
0000
,  // measure 40
0001
0100
1000
0010
,  // measure 41
0001
0001
0000
0000
1000
1000
1000
1000
,  // measure 42
0000
0101
1001
0110
,  // measure 43
0000
0000
0000
0100
0001
0011
0000
0000
,  // measure 44
0000
1100
0101
1100
,  // measure 45
1001
0001
0010
0100
0010
0001
1000
0010
,  // measure 46
0100
0001
0010
0110
0000
1100
0000
0110
,  // measure 47
0000
0010
0001
0100
0010
1000
0001
0010
,  // measure 48
0100
0010
0001
1000
0000
0001
0010
1000
,  // measure 49
0000
0010
0001
0100
0010
1000
0001
0010
,  // measure 50
0100
0010
0001
0011
0000
1100
0000
0011
,  // measure 51
0000
0001
0100
0010
1000
0001
0010
0001
,  // measure 52
1000
0100
0010
0001
1000
0001
1000
0001
,  // measure 53
0000
1000
1000
1000
1000
0000
1000
0000
,  // measure 54
0001
0000
0100
0000
0110
0000
0000
0010
1000
0000
0100
0000
0110
0000
0000
0010
,  // measure 55
0001
1000
0010
2000
0000
0000
3002
0000
,  // measure 56
0013
0000
0100
0000
1100
0000
0000
0100
0010
0000
0001
0000
1001
0000
0000
0001
,  // measure 57
0100
0010
0010
0010
0010
0000
1001
0000
,  // measure 58
1100
0000
0100
0000
0010
0000
0000
0001
0010
0000
0100
0000
0010
0000
0000
0001
,  // measure 59
0100
0010
1000
0002
0000
0000
0023
0000
,  // measure 60
0130
0100
1000
0010
0010
0100
0001
0000
,  // measure 61
1000
1000
0001
0010
0100
0000
0000
0000
,  // measure 62
0010
0010
0001
0100
0010
0010
0100
0001
,  // measure 63
1000
0001
0010
0100
1000
0100
0010
0001
,  // measure 64
1000
1000
0010
0001
0001
0010
1000
0001
,  // measure 65
0100
0010
1000
0001
0100
0010
1000
0100
,  // measure 66
0010
0010
0100
1000
0010
0100
0001
0010
,  // measure 67
0100
1000
0001
0100
0001
0010
0100
1000
,  // measure 68
0001
0001
0010
1000
1000
0010
0001
0100
,  // measure 69
0010
1000
0001
0010
0100
1000
0001
0000
,  // measure 70
1000
0000
0010
0000
0110
0000
0000
0010
1000
0000
0001
0000
0011
0000
0000
0010
,  // measure 71
0001
0000
0010
0000
0110
0000
0000
0100
1000
0000
0010
0000
0110
0000
0000
0100
,  // measure 72
0001
0000
0010
0000
0110
0000
0000
0100
1000
0000
0100
0000
0110
0000
0000
0100
,  // measure 73
1000
0000
0010
0000
0101
0000
0000
0001
0100
0000
0010
0000
1001
0000
0000
0000
,  // measure 74
1000
0010
0200
0000
0310
1000
0002
0000
,  // measure 75
0013
0100
2000
0000
3100
0010
0002
0000
,  // measure 76
1003
0001
0100
1000
0100
0001
0010
1000
,  // measure 77
0010
0100
1000
0010
1001
0000
0000
0000
;
