#VERSION:0.83;
#TITLE:Onyx;
#SUBTITLE:;
#ARTIST:HuΣeR;
#TITLETRANSLIT:;
#SUBTITLETRANSLIT:;
#ARTISTTRANSLIT:;
#GENRE:;
#ORIGIN:;
#CREDIT:;
#BANNER:Onyx.png;
#BACKGROUND:Onyx-bg.png;
#PREVIEWVID:;
#JACKET:Onyx-jacket.png;
#CDIMAGE:;
#DISCIMAGE:;
#LYRICSPATH:;
#CDTITLE:;
#MUSIC:Onyx.ogg;
#OFFSET:-0.100000;
#SAMPLESTART:16.636999;
#SAMPLELENGTH:16.580000;
#SELECTABLE:YES;
#BPMS:0.000=174.000,
46.000=87.000,
47.000=174.000,
237.000=87.000,
238.000=174.000;
#STOPS:;
#DELAYS:;
#WARPS:;
#TIMESIGNATURES:0.000=4=4;
#TICKCOUNTS:0.000=4;
#COMBOS:0.000=1;
#SPEEDS:0.000=1.000=0.000=0;
#SCROLLS:0.000=1.000;
#FAKES:;
#LABELS:0.000=Song Start;
#BGCHANGES:;
#KEYSOUNDS:;
#ATTACKS:
;

//---------------dance-single - ----------------
#NOTEDATA:;
#CHARTNAME:;
#STEPSTYPE:dance-single;
#DESCRIPTION:;
#CHARTSTYLE:;
#DIFFICULTY:Beginner;
#METER:6;
#RADARVALUES:0.207854,0.310698,0.062869,0.000000,0.000000,162.000000,155.000000,7.000000,0.000000,0.000000,0.000000,0.000000,0.000000,0.000000,0.207854,0.310698,0.062869,0.000000,0.000000,162.000000,155.000000,7.000000,0.000000,0.000000,0.000000,0.000000,0.000000,0.000000;
#CREDIT:Pandemonium X;
#NOTES:
// measure 0
0000
0000
0000
0000
,  // measure 1
0000
0000
0000
0000
,  // measure 2
0000
0000
0000
0000
,  // measure 3
0000
0000
0000
0000
,  // measure 4
0000
0000
0000
0000
,  // measure 5
0000
0000
0000
0000
,  // measure 6
0001
0000
0000
0000
0000
0100
0000
0000
,  // measure 7
0000
0000
0010
0000
0000
0000
0000
1000
,  // measure 8
0000
0000
0100
0100
,  // measure 9
1000
0000
0000
0000
0000
0001
0000
0000
,  // measure 10
0000
0000
0100
0000
0000
0000
0000
0010
,  // measure 11
0000
0000
0100
0001
,  // measure 12
0001
0001
0000
0000
,  // measure 13
1000
0000
0000
0001
,  // measure 14
0000
0000
0100
0010
,  // measure 15
0010
0010
0100
0000
,  // measure 16
0010
0000
0000
1000
,  // measure 17
1000
1000
0000
0001
,  // measure 18
0001
0001
1000
0000
,  // measure 19
1000
0000
0000
0100
,  // measure 20
0000
0000
0000
0010
,  // measure 21
0010
0010
0100
0000
,  // measure 22
0100
0000
0000
0010
,  // measure 23
0010
0010
0000
1001
,  // measure 24
0000
0001
0000
1000
,  // measure 25
0000
0010
0000
1000
,  // measure 26
0000
0100
0000
1000
,  // measure 27
0000
0010
0000
0100
,  // measure 28
0000
0000
0000
0010
,  // measure 29
0000
0000
0000
1000
,  // measure 30
0000
0000
0000
0001
,  // measure 31
0001
0001
0000
0110
,  // measure 32
0000
0000
1000
1000
,  // measure 33
1000
1000
1000
0000
,  // measure 34
0001
0001
0001
0001
,  // measure 35
0001
0100
0000
0110
,  // measure 36
0000
0010
0010
0010
,  // measure 37
0010
0010
0010
0000
,  // measure 38
0000
0000
0000
1000
,  // measure 39
0000
0001
0000
0110
,  // measure 40
0000
0001
0001
0001
,  // measure 41
0001
0001
0001
0000
,  // measure 42
1000
1000
1000
1000
,  // measure 43
1000
0010
0000
0110
,  // measure 44
0000
0100
0100
0100
,  // measure 45
0100
0100
0100
0010
,  // measure 46
0000
0100
0000
0001
,  // measure 47
1000
0001
0000
0100
,  // measure 48
0000
0000
0000
0010
0000
0000
0000
0000
,  // measure 49
1000
0000
0000
0000
0000
0100
0000
0000
,  // measure 50
0000
0010
0100
0010
,  // measure 51
0000
0000
0000
0001
0000
0000
0000
0000
,  // measure 52
0100
0000
0000
0000
0000
0010
0000
0000
,  // measure 53
0000
0100
0010
0100
,  // measure 54
0000
0000
0000
0010
0000
0000
0000
0000
,  // measure 55
1000
0000
0000
0000
0000
0001
0000
0000
,  // measure 56
0000
0010
0010
0100
,  // measure 57
0000
0000
0000
1000
0000
0000
0000
0000
,  // measure 58
0100
0000
0000
0000
0000
0010
0000
0000
,  // measure 59
0000
0000
0001
0001
,  // measure 60
0001
1000
0000
0001
,  // measure 61
0000
0000
1000
0000
,  // measure 62
0000
0000
0010
0010
,  // measure 63
0010
0100
0000
0010
,  // measure 64
0000
0000
0100
0000
,  // measure 65
0010
0000
1001
0000
,  // measure 66
0001
0001
0000
1000
,  // measure 67
0000
0000
0010
0000
,  // measure 68
0000
0000
0100
0000
,  // measure 69
0000
0010
0000
0000
,  // measure 70
1000
0000
0001
0001
,  // measure 71
0001
1000
1001
0000
,  // measure 72
0001
0000
0000
0000
0000
0100
0000
0000
,  // measure 73
0000
0000
0001
0000
0000
0000
0000
0100
,  // measure 74
0000
0000
0000
0000
,  // measure 75
0010
0000
0000
0000
0000
1000
0000
0000
,  // measure 76
0000
0000
0010
0000
0000
0000
0000
1000
;

//---------------dance-single - ----------------
#NOTEDATA:;
#CHARTNAME:;
#STEPSTYPE:dance-single;
#DESCRIPTION:;
#CHARTSTYLE:;
#DIFFICULTY:Easy;
#METER:8;
#RADARVALUES:0.318196,0.487238,0.143701,0.619712,0.000000,248.000000,232.000000,16.000000,69.000000,0.000000,0.000000,0.000000,0.000000,0.000000,0.318196,0.487238,0.143701,0.619712,0.000000,248.000000,232.000000,16.000000,69.000000,0.000000,0.000000,0.000000,0.000000,0.000000;
#CREDIT:Pandemonium X;
#NOTES:
// measure 0
0000
0000
0000
0000
,  // measure 1
0000
0000
0000
0000
,  // measure 2
0000
0000
0000
0000
,  // measure 3
0000
0000
0000
0000
,  // measure 4
0000
0000
0000
0000
,  // measure 5
0000
0000
0000
0000
,  // measure 6
1000
0000
0000
0000
0000
0010
0000
0000
,  // measure 7
0000
0000
0100
0000
0000
0000
0000
0001
,  // measure 8
0000
0000
0010
0100
,  // measure 9
0010
0000
0000
0000
0000
0001
0000
0000
,  // measure 10
0000
0000
1000
0000
0000
0000
0000
0010
,  // measure 11
0000
0000
0200
0310
,  // measure 12
0010
1000
0001
0010
,  // measure 13
0001
1000
0010
1000
,  // measure 14
0001
1000
1000
0001
,  // measure 15
0001
0100
0001
0010
,  // measure 16
0001
0100
0001
0010
,  // measure 17
0001
0100
0010
1000
,  // measure 18
1000
0100
0001
0100
,  // measure 19
1000
0010
0100
0001
,  // measure 20
0010
0100
1000
0100
,  // measure 21
0100
0001
0100
1000
,  // measure 22
0010
0100
0010
1000
,  // measure 23
0001
0010
0100
1100
,  // measure 24
1100
0100
1000
0001
,  // measure 25
0001
0100
0010
1010
,  // measure 26
1010
0010
1000
0001
,  // measure 27
0001
0000
1000
0000
0001
0000
0010
0100
,  // measure 28
0010
0000
0100
0000
1000
0000
0010
0100
,  // measure 29
0010
0000
0100
0000
0001
0000
0010
0100
,  // measure 30
0010
0000
0100
0000
1000
0000
0001
1000
,  // measure 31
0001
1001
0110
2002
,  // measure 32
0000
0000
3003
0000
0002
0003
0200
0300
,  // measure 33
0020
0030
2000
3000
0002
0003
0000
0000
,  // measure 34
2000
3000
0200
0300
0020
0030
0002
0003
,  // measure 35
0020
0030
0200
0000
0000
0300
0022
0000
,  // measure 36
0033
0000
0002
0003
0200
0300
0020
0030
,  // measure 37
2000
3000
0200
0300
0020
0030
0100
0000
,  // measure 38
0100
0000
1000
0000
1000
0000
0001
1000
,  // measure 39
0001
1001
0110
2002
,  // measure 40
3003
0000
0002
0003
2000
3000
0020
0030
,  // measure 41
2000
3000
0200
0300
0020
0030
0000
0000
,  // measure 42
0200
0300
2000
3000
0020
0030
0200
0300
,  // measure 43
0002
2000
3003
2200
,  // measure 44
3300
0000
0002
0003
0020
0030
0200
0300
,  // measure 45
0020
0030
0002
0003
2000
3000
0010
0000
,  // measure 46
0010
0000
0100
0000
0100
0000
0010
0100
,  // measure 47
0001
0101
1100
1001
,  // measure 48
0000
0000
0000
0001
0000
0000
0000
0000
,  // measure 49
0010
0000
0000
0000
0000
0100
0000
0000
,  // measure 50
0000
0010
0001
1000
,  // measure 51
0000
0000
0000
0100
0000
0000
0000
0000
,  // measure 52
0010
0000
0000
0000
0000
0100
0000
0000
,  // measure 53
0000
1000
0001
0100
,  // measure 54
0000
0000
0000
1000
0000
0000
0000
0000
,  // measure 55
0100
0000
0000
0000
0000
0001
0000
0000
,  // measure 56
0000
1000
0001
0010
,  // measure 57
0000
0000
0000
1000
0000
0000
0000
0000
,  // measure 58
0010
0000
0000
0000
0000
0001
0000
0000
,  // measure 59
0000
0200
0310
0010
,  // measure 60
0100
0001
1000
0100
,  // measure 61
1000
0010
0100
0001
,  // measure 62
0010
0100
1000
1000
,  // measure 63
0100
1000
0010
0100
,  // measure 64
0001
0010
0100
1000
,  // measure 65
0100
0000
0100
0000
1100
0000
0000
0100
,  // measure 66
2000
3200
0320
0230
,  // measure 67
2300
3002
2003
3002
,  // measure 68
0023
0230
2000
3300
,  // measure 69
0002
0023
0032
0203
,  // measure 70
2300
3200
0320
2030
,  // measure 71
3002
0023
0230
2300
3000
0000
0000
0000
,  // measure 72
0001
0000
0000
0000
0000
0100
0000
0000
,  // measure 73
0000
0000
0010
0000
0000
0000
0000
1000
,  // measure 74
0000
0000
0000
0000
,  // measure 75
0100
0000
0000
0000
0000
0010
0000
0000
,  // measure 76
0000
0000
0001
0000
0000
0000
0000
2000
,  // measure 77
0000
0000
3000
0000
;

//---------------dance-single - ----------------
#NOTEDATA:;
#CHARTNAME:;
#STEPSTYPE:dance-single;
#DESCRIPTION:;
#CHARTSTYLE:;
#DIFFICULTY:Medium;
#METER:11;
#RADARVALUES:0.377216,0.556843,0.314347,0.673600,0.026944,294.000000,259.000000,35.000000,75.000000,0.000000,0.000000,0.000000,0.000000,0.000000,0.377216,0.556843,0.314347,0.673600,0.026944,294.000000,259.000000,35.000000,75.000000,0.000000,0.000000,0.000000,0.000000,0.000000;
#CREDIT:Pandemonium X;
#NOTES:
// measure 0
0000
0000
0000
0000
,  // measure 1
0000
0000
0000
0000
,  // measure 2
0000
0000
0000
0000
,  // measure 3
0000
0000
0000
0000
,  // measure 4
0000
0000
0000
0000
,  // measure 5
0000
0000
0000
0000
,  // measure 6
1001
0000
0000
0000
0000
0001
0000
0000
,  // measure 7
0000
0000
0010
0000
0000
0000
0000
1000
,  // measure 8
0000
0000
0010
0001
,  // measure 9
1001
0000
0000
0000
0000
1000
0000
0000
,  // measure 10
0000
0000
0100
0000
0000
0000
0000
0001
,  // measure 11
0000
0000
0000
0000
0200
0300
1100
0000
,  // measure 12
1100
0100
0010
0001
,  // measure 13
0100
0010
1000
0001
,  // measure 14
0010
0000
0100
0010
0001
1000
1010
0000
,  // measure 15
1010
1000
0001
0010
,  // measure 16
0001
0100
0010
1000
,  // measure 17
0001
0000
1000
0100
0010
0001
1001
0000
,  // measure 18
1001
0001
0100
0001
,  // measure 19
0010
0100
1000
0001
,  // measure 20
0100
0000
0010
1000
0010
0100
0101
0000
,  // measure 21
0101
0010
0001
0100
,  // measure 22
0010
1000
0100
0010
,  // measure 23
0100
1000
0100
1100
,  // measure 24
1100
0000
0000
0000
0001
0000
0000
0001
0000
0000
0100
0000
0000
0100
0000
0000
,  // measure 25
0010
0000
0000
0000
0100
0000
0000
0001
0000
0000
0010
0000
0011
0000
0000
0000
,  // measure 26
0011
0000
0000
0000
1000
0000
0000
1000
0000
0000
0001
0000
0000
0001
0000
0000
,  // measure 27
0100
0000
0000
0000
0010
0000
0000
1000
0000
0000
0100
0000
0010
0000
0100
0000
,  // measure 28
1000
0000
0002
0000
0103
0000
0001
0100
,  // measure 29
0010
0000
2000
0000
3100
0000
1000
0100
,  // measure 30
0010
0000
0200
0000
1300
0000
0200
0320
,  // measure 31
0032
0000
0203
0000
0020
0330
2002
0000
,  // measure 32
0000
3003
0002
0203
,  // measure 33
2300
3020
0032
0003
,  // measure 34
0002
0023
2030
3200
,  // measure 35
0302
0000
1003
0100
0010
0001
2002
0000
,  // measure 36
3003
2000
3200
0302
,  // measure 37
0023
2030
3001
1100
,  // measure 38
1100
0000
0101
0000
0101
0000
0001
0100
,  // measure 39
1000
1200
0302
2000
,  // measure 40
3003
0002
0203
2300
,  // measure 41
3020
0032
2003
3000
,  // measure 42
2000
3200
0302
0023
,  // measure 43
2030
0000
3001
0100
0010
1000
2002
0000
,  // measure 44
3003
0002
0203
2300
,  // measure 45
3020
0000
0032
0000
2003
3000
1010
0000
,  // measure 46
0011
0000
1010
0000
0011
0000
0010
0100
,  // measure 47
1000
1100
0101
0001
,  // measure 48
0000
0000
0000
0100
0000
0000
0000
0000
,  // measure 49
0010
0000
0000
0000
0000
1000
0000
0000
,  // measure 50
0000
0100
1000
1010
,  // measure 51
0000
0000
0000
1000
0000
0000
0000
0000
,  // measure 52
0001
0000
0000
0000
0000
0010
0000
0000
,  // measure 53
0000
0100
0010
0002
,  // measure 54
0000
0000
0000
0203
0000
0000
0000
0000
,  // measure 55
2300
0000
0000
0000
0000
3020
0000
0000
,  // measure 56
0000
0031
1000
1002
,  // measure 57
0000
0000
0000
2003
0000
0000
0000
0000
,  // measure 58
3200
0000
0000
0000
0000
0302
0000
0000
,  // measure 59
0000
0000
0023
0030
0110
0000
1100
0000
,  // measure 60
0100
1000
0010
0001
,  // measure 61
0010
0100
0001
0010
,  // measure 62
0100
0010
0001
0100
0101
0000
0110
0000
,  // measure 63
0100
1000
0100
0001
,  // measure 64
1000
0100
0001
0100
,  // measure 65
0010
0001
1000
0100
0020
0000
0000
0130
,  // measure 66
2000
3020
0032
0023
,  // measure 67
0230
0000
0302
0000
2003
0000
3001
1000
,  // measure 68
0100
1000
0010
1000
2100
0000
0000
0000
,  // measure 69
3200
2300
3020
0230
,  // measure 70
0302
0000
2003
0000
3010
0100
0001
1000
,  // measure 71
0100
0010
0001
1000
0010
0000
0000
0000
,  // measure 72
0100
0000
0000
0000
0000
0010
0000
0000
,  // measure 73
0000
0000
1000
0000
0000
0000
0000
0001
,  // measure 74
0000
0000
0000
0000
,  // measure 75
1000
0000
0000
0000
0000
0010
0000
0000
,  // measure 76
0000
0000
0100
0000
0000
0000
0000
0001
,  // measure 77
0020
0000
0030
0000
;

//---------------dance-single - ----------------
#NOTEDATA:;
#CHARTNAME:;
#STEPSTYPE:dance-single;
#DESCRIPTION:;
#CHARTSTYLE:;
#DIFFICULTY:Hard;
#METER:15;
#RADARVALUES:0.667185,0.765659,0.556843,0.772395,0.619712,520.000000,458.000000,62.000000,86.000000,20.000000,0.000000,2.000000,0.000000,0.000000,0.667185,0.765659,0.556843,0.772395,0.619712,520.000000,458.000000,62.000000,86.000000,20.000000,0.000000,2.000000,0.000000,0.000000;
#CREDIT:Pandemonium X;
#NOTES:
// measure 0
0000
0000
0000
0000
,  // measure 1
0000
0000
0000
0000
,  // measure 2
0000
0000
0000
0000
,  // measure 3
0000
0000
0000
0000
,  // measure 4
0000
0000
0000
0000
,  // measure 5
0000
0000
0000
0000
,  // measure 6
1000
0010
0100
1000
0100
0010
1000
0001
,  // measure 7
0010
0100
1000
0001
0100
0010
0001
0010
,  // measure 8
0100
0001
1000
0100
0010
0100
1100
0000
,  // measure 9
0001
0100
0010
0001
0010
0100
0001
1000
,  // measure 10
0100
0010
0100
1000
0010
0100
1000
0100
,  // measure 11
0020
0000
1030
0001
1000
0000
0100
0000
0000
MMMM
0000
0000
1001
0000
0000
0001
,  // measure 12
0010
0000
0000
0010
0001
0000
0000
0001
0100
0000
0000
0100
0001
0000
0000
0001
,  // measure 13
1000
0000
0000
1000
0001
0000
0000
0010
0100
0000
0000
0100
1000
0000
0000
1000
,  // measure 14
0010
0000
0000
0010
0100
0000
0000
0100
0001
0000
0000
0000
1001
0000
0000
1000
,  // measure 15
0001
0000
0000
0001
1000
0000
0000
1000
0010
0000
0000
0010
1000
0000
0000
0100
,  // measure 16
0010
0000
0000
0010
0100
0000
0000
0010
0001
0000
0000
0001
0010
0000
0000
0100
,  // measure 17
1000
0000
0000
0000
1000
0000
0010
0000
0100
0000
0001
0000
0010
0000
0000
0100
,  // measure 18
0010
0000
0000
0010
0001
0000
0000
0010
0100
0000
0000
0010
0001
0000
0000
1000
,  // measure 19
0010
0000
0000
0010
0100
0000
0000
0010
1000
0000
0000
0001
0100
0000
0000
0001
,  // measure 20
0010
0000
0000
0000
0001
0000
0100
0000
0001
0000
0010
0000
0001
0000
0000
1000
,  // measure 21
0100
0000
0000
0010
0001
0000
0000
1000
0010
0000
0000
0100
0001
0000
0000
0010
,  // measure 22
0100
0000
0000
0010
0001
0000
0000
0010
0100
0000
0000
1000
0010
0000
0000
0100
,  // measure 23
0010
0000
0000
1000
0001
0000
0010
0000
0100
0000
0010
0000
0011
0000
0000
0000
,  // measure 24
0011
0000
0000
0000
0100
0000
0000
1000
0000
0000
0010
0000
0000
0010
0000
0000
,  // measure 25
0010
0000
0000
0000
0100
0000
0000
0010
0000
0000
1000
0000
0001
0000
0000
0000
,  // measure 26
0001
0000
0000
0000
1000
0000
0000
1000
0000
0000
0100
0000
0000
0100
0000
0000
,  // measure 27
0100
0000
0000
0000
1000
0000
0000
1000
0000
0000
0001
0000
0010
0000
0100
0000
,  // measure 28
0010
0000
0000
0000
0100
0000
1000
0010
0000
0100
0001
0010
0100
0000
0010
0000
,  // measure 29
0001
0000
0000
0000
1000
0000
0001
0010
0000
0100
0010
0001
1000
0000
0001
0000
,  // measure 30
0100
0000
0010
0000
1000
0000
0001
0010
0100
0010
0001
1000
0010
0000
1000
0000
,  // measure 31
0002
0000
0000
0000
0203
0000
0000
0000
0320
0000
0000
0030
2002
0000
0000
0000
,  // measure 32
0000
0000
0000
0000
0000
0000
0000
0000
3003
0000
0000
0000
0000
0000
0000
0000
MMMM
0000
0000
0000
0000
0000
0000
0000
0000
0000
0000
0000
0000
0000
0000
0000
0202
0000
0000
0000
0000
0000
0000
0000
0000
0000
0000
0000
0000
0000
0000
0303
0220
0000
0000
0000
0000
0000
0000
0000
0000
0000
0000
0000
0000
0000
0000
0330
,  // measure 33
0202
0000
0000
0000
0000
0000
0000
0000
0000
0000
0000
0000
0003
0000
0000
0300
0220
0000
0000
0000
0000
0000
0000
0000
0000
0000
0000
0000
0000
0000
0000
0330
0202
0000
0000
0000
0000
0000
0000
0000
0000
0000
0000
0000
0000
0000
0000
0303
0101
0000
0000
0000
0000
0000
0000
0000
0000
0000
0000
0000
0000
0000
0000
0000
,  // measure 34
2020
0000
0000
0000
0000
0000
0000
0000
0000
0000
0000
0000
0000
0000
0000
3030
2200
0000
0000
0000
0000
0000
0000
0000
0000
0000
0000
0000
0000
0000
0000
3300
2020
0000
0000
0000
0000
0000
0000
0000
0000
0000
0000
0000
0000
0000
0000
3030
2200
0000
0000
0000
0000
0000
0000
0000
0000
0000
0000
0000
0000
0000
0000
3300
,  // measure 35
2020
0000
0000
0000
0000
0000
0000
0000
0000
0000
0000
0000
0000
0000
0000
3000
1030
0000
0000
0000
0010
0000
0000
0000
0100
0000
0000
0000
0001
0000
0000
0000
1000
0000
0000
0000
0100
0000
0000
0000
0010
0000
0000
0000
0001
0000
0000
0000
2000
0000
0000
0000
0000
0000
0000
0000
0000
0000
0000
0000
0000
0000
0000
0000
,  // measure 36
0000
0000
0000
0000
0000
0000
0000
0000
0000
0000
0000
0000
3000
0000
0000
0000
2200
0000
0000
0000
0000
0000
0000
0000
0000
0000
0000
0000
0000
0000
0000
3300
0220
0000
0000
0000
0000
0000
0000
0000
0000
0000
0000
0000
0000
0000
0000
0330
2200
0000
0000
0000
0000
0000
0000
0000
0000
0000
0000
0000
0000
0000
0000
3300
,  // measure 37
0220
0000
0000
0000
0000
0000
0000
0000
0000
0000
0000
0000
0000
0000
0000
0330
2200
0000
0000
0000
0000
0000
0000
0000
0000
0000
0000
0000
0000
0000
0000
3300
0220
0000
0000
0000
0000
0000
0000
0000
0000
0000
0000
0000
0000
0000
0000
0330
1002
0000
0000
0000
0000
0000
0000
0000
0000
0000
0000
0000
0000
0000
0000
0000
,  // measure 38
0103
0000
2001
0000
3100
0000
1000
0001
,  // measure 39
0100
0000
0010
0000
1000
0001
1000
0001
0010
0100
1000
0010
0200
0000
0300
0000
,  // measure 40
MMMM
0000
0000
0000
0000
0000
0000
0000
0000
0000
0000
0000
0000
0000
0000
0000
0202
0000
0000
0000
0000
0000
0000
0000
0000
0000
0000
0000
0000
0000
0000
0303
2200
0000
0000
0000
0000
0000
0000
0000
0000
0000
0000
0000
0000
0000
0000
3300
0202
0000
0000
0000
0000
0000
0000
0000
0000
0000
0000
0000
0000
0000
0000
0303
,  // measure 41
2200
0000
0000
0000
0000
0000
0000
0000
0000
0000
0000
0000
0000
0000
0000
3300
0202
0000
0000
0000
0000
0000
0000
0000
0000
0000
0000
0000
0000
0000
0000
0303
2200
0000
0000
0000
0000
0000
0000
0000
0000
0000
0000
0000
0000
0000
0000
3300
1001
0000
0000
0000
0000
0000
0000
0000
0000
0000
0000
0000
0000
0000
0000
0000
,  // measure 42
2020
0000
0000
0000
0000
0000
0000
0000
0000
0000
0000
0000
0000
0000
0000
3030
0022
0000
0000
0000
0000
0000
0000
0000
0000
0000
0000
0000
0000
0000
0000
0033
2020
0000
0000
0000
0000
0000
0000
0000
0000
0000
0000
0000
0000
0000
0000
3030
0022
0000
0000
0000
0000
0000
0000
0000
0000
0000
0000
0000
0000
0000
0000
0033
,  // measure 43
2020
0000
0000
0000
0000
0000
0000
0000
0000
0000
0000
0000
0000
0000
0000
3000
1030
0000
0000
0000
0010
0000
0000
0000
0100
0000
0000
0000
0001
0000
0000
0000
0010
0000
0000
0000
0100
0000
0000
0000
0010
0000
0000
0000
0001
0000
0000
0000
2000
0000
0000
0000
0000
0000
0000
0000
0000
0000
0000
0000
3000
0000
0000
0000
,  // measure 44
MMMM
0000
0000
0000
0000
0000
0000
0000
0000
0000
0000
0000
0000
0000
0000
0000
0202
0000
0000
0000
0000
0000
0000
0000
0000
0000
0000
0000
0000
0000
0000
0303
0220
0000
0000
0000
0000
0000
0000
0000
0000
0000
0000
0000
0000
0000
0000
0330
2020
0000
0000
0000
0000
0000
0000
0000
0000
0000
0000
0000
0000
0000
0000
3030
,  // measure 45
2200
0000
0000
0000
0000
0000
0000
0000
0000
0000
0000
0000
0000
0000
0000
3300
0220
0000
0000
0000
0000
0000
0000
0000
0000
0000
0000
0000
0000
0000
0000
0330
0022
0000
0000
0000
0000
0000
0000
0000
0000
0000
0000
0000
0000
0000
0000
0033
0011
0000
0000
0000
0000
0000
0000
0000
0000
0000
0000
0000
0000
0000
0000
0000
,  // measure 46
0011
0000
1010
0000
1010
0000
1000
0010
,  // measure 47
0100
0000
0020
0000
0200
0330
1001
0000
,  // measure 48
0000
0000
0000
0011
0000
0000
0000
0000
,  // measure 49
0101
0000
0000
0000
0000
1010
0000
0000
,  // measure 50
0000
0000
0000
0000
0000
0000
1001
0000
0000
0000
0000
0000
0110
0000
0000
0000
0000
0000
1000
0001
0000
0000
0000
0000
,  // measure 51
0000
0000
0000
1010
0000
0000
0000
0000
,  // measure 52
0011
0000
0000
0000
0000
1100
0000
0000
,  // measure 53
0000
0000
1001
0000
0110
0000
0001
1000
,  // measure 54
0010
0100
1000
0100
0010
0001
0010
0100
,  // measure 55
0010
0001
1000
0100
0010
0001
0010
0100
,  // measure 56
0010
0001
0100
0010
1000
0001
1000
1000
,  // measure 57
0100
0010
1000
0010
0100
0001
0100
0010
,  // measure 58
0001
0010
0001
1000
0100
0001
0100
0010
,  // measure 59
0100
0000
1000
0000
0000
MMMM
0000
0000
1100
0000
0000
0000
1100
0000
0000
0100
,  // measure 60
0010
0000
0000
0010
0001
0000
0000
0001
0100
0000
0000
0100
0010
0000
0000
0010
,  // measure 61
1000
0000
0000
1000
0010
0000
0000
0010
0100
0000
0000
0010
1000
0000
0000
1000
,  // measure 62
0001
0000
0010
0000
0100
0000
1000
0000
1010
0000
0000
0000
1010
0000
0000
0010
,  // measure 63
0100
0000
0000
0100
0010
0000
0000
0010
1000
0000
0000
1000
0010
0000
0000
0010
,  // measure 64
0100
0000
0000
0100
0001
0000
0000
0001
0010
0000
0000
0010
0100
0000
0000
0100
,  // measure 65
1000
0000
0000
0000
1000
0100
0010
0001
0200
0000
0000
0000
0000
0000
0310
0000
,  // measure 66
0001
0010
1000
0001
0010
0100
1000
0001
,  // measure 67
1000
0000
0010
0000
1000
0000
0001
0000
0200
0000
0000
0000
0310
1000
0010
1000
,  // measure 68
0001
0010
0100
0010
0001
1000
0010
0100
0002
0000
0000
0000
0000
0000
0000
0000
,  // measure 69
1003
0100
1000
0001
0010
0001
1000
0001
,  // measure 70
0100
0010
1000
0001
0020
0230
2300
3200
,  // measure 71
0310
0001
0010
0001
1000
0100
1000
0100
0010
0000
0000
0000
0001
0000
0100
0000
,  // measure 72
0010
0000
0000
0100
0001
1000
0000
0000
,  // measure 73
0100
0010
0001
0000
0000
0010
0100
1000
,  // measure 74
0000
0000
0001
0100
0010
1000
0001
0010
,  // measure 75
0100
0000
0000
0010
0001
1000
0000
0000
,  // measure 76
0010
1000
0001
0000
0000
0010
0100
1000
,  // measure 77
0040
0400
0000
0000
0000
0000
0000
0000
0330
0000
0000
0000
0000
0000
0000
0000
;
