#TITLE:Ocean Dream (Radio Edit);
#SUBTITLE:;
#ARTIST:Mhammed El Alami & Ben Samy;
#TITLETRANSLIT:;
#SUBTITLETRANSLIT:;
#ARTISTTRANSLIT:;
#GENRE:;
#CREDIT:;
#BANNER:Ocean Dream (Radio Edit).png;
#BACKGROUND:Ocean Dream (Radio Edit)-bg.png;
#LYRICSPATH:;
#CDTITLE:;
#MUSIC:Ocean Dream (Radio Edit).ogg;
#OFFSET:-0.004000;
#SAMPLESTART:83.458000;
#SAMPLELENGTH:13.913000;
#SELECTABLE:YES;
#BPMS:0.000000=138.000000
,64.000000=69.000000
,96.000000=138.000000
;
#STOPS:
;
#BGCHANGES:;
#KEYSOUNDS:;
#ATTACKS:;

//---------------dance-single - ----------------
#NOTES:
     dance-single:
     :
     Beginner:
     2:
     0.087892,0.143557,0.025635,0.000000,0.000000,72.000000,69.000000,3.000000,0.000000,0.000000,0.000000,0.087892,0.143557,0.025635,0.000000,0.000000,72.000000,69.000000,3.000000,0.000000,0.000000,0.000000:
0000
0000
0000
0000
,
0000
0000
0000
0000
,
0000
0000
0000
0000
,
0000
0000
0000
0000
,
0000
0000
0000
0000
,
0000
0000
0000
0000
,
0000
0000
0000
0000
,
0000
0000
0000
0000
,
0001
0000
0000
0000
,
0000
0000
0000
0000
,
1000
0000
0000
0000
,
0100
0000
0000
0000
,
0010
0000
0000
0000
,
0000
0000
0000
0000
,
0100
0000
0000
0000
,
1000
0000
0001
0000
,
0110
0000
0000
0000
,
0001
0000
0000
0000
,
0010
0000
0000
0000
,
0100
0000
1000
0000
,
0001
0000
0000
0000
,
0100
0000
0000
0000
,
0010
0000
0000
0000
,
1000
0000
0001
0000
,
0010
0000
0000
0000
,
0100
0000
0000
0000
,
0010
0000
0000
0000
,
0001
0000
1000
0000
,
0100
0000
0000
0000
,
0010
0000
0000
0000
,
0001
0000
0000
0000
,
1000
0000
0001
0000
,
0100
0000
0000
0000
,
0010
0000
0000
0000
,
1000
0000
0000
0000
,
0001
0000
0010
0000
,
0100
0000
0000
0000
,
0010
0000
0000
0000
,
0001
0000
0000
0000
,
1000
0000
0001
0000
,
0110
0000
0100
0000
,
0100
0000
0100
0000
,
0010
0000
0010
0000
,
0010
0000
0010
0010
,
1000
0000
1000
0000
,
1000
0000
1000
0000
,
0001
0000
0001
0000
,
0001
0000
0001
0001
,
0100
0000
0000
0000
,
0010
0000
0000
0000
,
1000
0000
0000
0000
,
0100
0000
0010
0010
,
0001
0000
1000
0000
,
0001
0000
0000
0000
,
0100
0000
0010
0000
,
0100
0000
0001
0000
,
1001
0000
0000
0000
;

//---------------dance-single - ----------------
#NOTES:
     dance-single:
     :
     Easy:
     6:
     0.184329,0.263187,0.076905,0.017090,0.000000,151.000000,142.000000,9.000000,2.000000,0.000000,0.000000,0.184329,0.263187,0.076905,0.017090,0.000000,151.000000,142.000000,9.000000,2.000000,0.000000,0.000000:
0000
0000
0000
0000
,
0000
0000
0000
0000
,
0000
0000
0000
0000
,
0000
0000
0000
0000
,
0000
0000
0000
0000
,
0000
0000
0000
0000
,
0000
0000
0000
0000
,
0000
0000
0000
0000
,
1000
0100
0010
0001
,
0010
0001
0100
0010
,
1000
0001
0010
0001
,
0100
0010
1000
0100
,
0010
0001
0100
0001
,
0010
0100
0010
0001
,
1000
0010
1000
0001
,
0010
0100
1000
1000
,
1001
0000
0000
0000
,
0001
0000
0000
0000
,
0100
0000
0000
0000
,
1000
0000
0010
0000
,
1001
0000
0000
0000
,
1000
0000
0000
0000
,
0100
0000
0000
0000
,
0001
0000
0010
0000
,
1001
0000
0001
0000
,
1000
0000
0010
0000
,
1000
0000
0100
0000
,
0010
0000
0100
1000
,
0001
0000
0100
0000
,
0001
0000
0010
0000
,
0100
0000
0010
0000
,
0001
0000
1000
0001
,
0100
0100
0001
0010
,
0100
0100
1000
0010
,
1000
1000
0001
0010
,
0100
0100
0010
0001
,
1000
0010
0001
0010
,
1000
0100
0001
0100
,
1000
0100
0010
0001
,
0220
0000
0000
0330
,
1000
0001
0010
0001
,
1000
0010
1000
0001
,
0010
0001
1000
0010
,
1000
0001
1001
0110
,
1000
0001
0100
0001
,
1000
0100
1000
0001
,
0100
0001
1000
0100
,
1000
0001
1001
0110
,
1000
0000
0010
0000
,
0100
0000
0001
0000
,
0010
0000
0100
0000
,
1000
0000
0001
0100
,
0010
0010
1000
0000
,
0100
0100
0010
0000
,
0100
0000
1000
0000
,
0010
0000
0100
0010
,
1001
0000
0000
0000
;

//---------------dance-single - ----------------
#NOTES:
     dance-single:
     :
     Medium:
     10:
     0.334477,0.406744,0.136721,0.068360,0.119631,274.000000,258.000000,16.000000,8.000000,0.000000,0.000000,0.334477,0.406744,0.136721,0.068360,0.119631,274.000000,258.000000,16.000000,8.000000,0.000000,0.000000:
0000
0000
0000
0000
,
0000
0000
0000
0000
,
0000
0000
0000
0000
,
0000
0000
0000
0000
,
0000
0000
0000
0000
,
0000
0000
0000
0000
,
0000
0000
0000
0000
,
0000
0000
0000
0000
,
0001
0000
0000
0010
0000
0000
0001
0000
0100
0000
0000
0001
0000
0000
1000
0000
,
0100
0000
0000
1000
0000
0000
0010
0000
1000
0000
0000
0001
0000
0000
0010
0000
,
0001
0000
0000
1000
0000
0000
0100
0000
0010
0000
0000
0100
0000
0000
1000
0000
,
0010
0000
0000
0100
0000
0000
0001
0000
0010
0000
0100
0000
1000
0000
0001
0000
,
1000
0000
0000
0001
0000
0000
0010
0000
0001
0000
0000
1000
0000
0000
0010
0000
,
0100
0000
0000
0010
0000
0000
1000
0000
0001
0000
0000
0010
0000
0000
0100
0000
,
0010
0000
0000
0001
0000
0000
1000
0000
0100
0000
0000
0010
0000
0000
0100
0000
,
1000
0000
0000
0001
0000
0000
0100
0000
0001
0000
0010
0000
0100
0000
1000
0000
,
1001
0000
0000
0000
,
1010
0000
0000
0000
,
1100
0000
0000
0000
,
0101
0000
0000
0000
,
1001
1000
0001
0100
,
0011
0001
1000
0100
,
0110
0100
0010
0001
,
1001
0000
1000
0000
0101
0000
0001
0010
,
0100
1000
0100
1000
,
0001
1000
0100
0010
,
0100
1000
0010
0100
,
0001
0000
0010
0000
0001
0010
0100
1000
,
0001
1000
0010
1000
,
0100
1000
0001
0100
,
0001
0010
0001
1000
,
0100
0000
0010
0000
0001
0010
0100
1000
,
0001
1000
0001
0000
0100
0001
0100
0000
,
0010
0100
0010
0000
1000
0010
1000
0000
,
0001
1000
0001
0000
0010
0001
0010
0000
,
0100
1000
0100
0000
1000
0100
0010
0001
,
1000
1010
0100
0011
,
0100
1001
0100
1010
,
0010
0011
0010
1100
,
2000
0000
0000
3020
0000
0000
0230
0000
0302
0000
0013
0100
0010
0000
0100
0000
,
1000
0000
0100
0000
1000
0000
0010
0000
0100
0000
0000
0100
0000
0000
0100
0000
,
0010
0000
1000
0000
0001
0000
0010
0000
0100
0000
0000
0100
0000
0000
0100
0000
,
0010
0000
0001
0000
1000
0000
0100
0000
0010
0000
0000
0010
0000
0000
0010
0000
,
0100
0010
0001
1000
0001
0010
0100
1000
,
0001
0000
0100
0000
0001
0000
0010
0000
0100
0000
0000
0010
0000
0000
0100
0000
,
1000
0000
0100
0000
0010
0000
0100
0000
1000
0000
0000
0100
0000
0000
1000
0000
,
0010
0000
0100
0000
0010
0000
1000
0000
0001
0000
0000
1000
0000
0000
0001
0000
,
1000
0000
0000
0100
0000
0000
1000
0000
0001
0000
0010
0000
0100
0000
1000
0000
,
0002
0000
0103
0000
0100
0010
1000
0000
,
0002
0000
0013
0000
0100
1000
0010
0000
,
2000
0000
3100
0000
1000
0010
0100
0000
,
0020
0000
1030
0000
0001
0010
0100
1000
,
0001
0000
1000
0000
0001
0000
1000
0000
0001
0000
0000
0001
0000
0000
0001
0000
,
1000
0000
0001
0000
1000
0000
0001
0000
1000
0000
0000
1000
0000
0000
1000
0000
,
0001
0000
0000
0100
0000
0000
0010
0000
1000
0000
0000
0010
0000
0000
0100
0000
,
0001
0000
0000
0010
0000
0000
0100
0000
1000
0000
0100
0000
0010
0000
0001
0000
,
1001
0000
0000
0000
;

//---------------dance-single - ----------------
#NOTES:
     dance-single:
     :
     Hard:
     13:
     0.397955,0.550300,0.205081,0.495612,0.333256,326.000000,293.000000,24.000000,58.000000,28.000000,9.000000,0.397955,0.550300,0.205081,0.495612,0.333256,326.000000,293.000000,24.000000,58.000000,28.000000,9.000000:
0000
0000
0000
0000
,
0000
0000
0000
0000
,
0000
0000
0000
0000
,
0000
0000
0000
0000
,
0000
0000
0000
0000
,
0000
0000
0000
0000
,
0000
0000
0000
0000
,
0000
0000
0000
0000
,
2000
0000
0000
3100
0000
0000
1000
0000
0020
0000
0000
0130
0000
0000
0001
0000
,
0020
0000
0000
0130
0000
0000
0010
0000
0002
0000
0000
1003
0000
0000
0001
0000
,
0200
0000
0000
0310
0000
0000
1000
0000
0020
0000
0000
0130
0000
0000
0010
0000
,
2000
0000
0000
3100
0000
0000
0010
0000
0001
0000
0010
0000
0100
0000
1000
0000
,
0200
0000
0000
1300
0000
0000
0010
0000
0200
0000
0000
0301
0000
0000
0010
0000
,
0200
0000
0000
0310
0000
0000
0001
0000
2000
0000
0000
3100
0000
0000
1000
0000
,
0020
0000
0000
0130
0000
0000
0001
0000
2000
0000
0000
3100
0000
0000
1000
0000
,
0020
0000
0000
0130
0000
0000
0010
0000
1000
0000
0100
0000
0010
0000
0001
0000
,
1001
0000
0000
0000
,
2110
0000
0000
3000
,
1102
0000
0000
0003
,
0121
0030
2011
3000
,
1102
0000
0000
0003
,
0121
0000
0000
0030
,
1210
0000
0000
0300
,
2011
3000
1102
0003
,
1000
0000
0000
1000
0000
0000
1000
0000
0001
0000
0000
0001
0000
0000
0001
0000
,
0100
0000
0000
0100
0000
0000
0100
0000
0010
0000
0000
0010
0000
0000
0010
0000
,
0100
0000
0000
0100
0000
0000
0100
0000
0001
0000
0000
0001
0000
0000
0001
0000
,
1000
0000
0000
1000
0000
0000
1000
0000
1000
0000
0100
0000
0010
0000
0001
0000
,
0010
0000
0000
0010
0000
0000
0010
0000
0100
0000
0000
0100
0000
0000
0100
0000
,
1000
0000
0000
1000
0000
0000
1000
0000
0010
0000
0000
0010
0000
0000
0010
0000
,
0100
0000
0000
0100
0000
0000
0100
0000
0010
0000
0000
0010
0000
0000
0010
0000
,
1000
0000
0000
1000
0000
0000
1000
0000
0001
0000
0010
0000
0100
0000
1000
0000
,
0001
0100
0010
0100
0010
1000
0001
0000
,
1000
0100
0010
0100
0010
0001
1000
0000
,
0001
1000
0100
1000
0001
0100
0010
0000
,
1000
0010
1000
0001
1000
0100
0010
0001
,
1000
0000
0010
1000
0000
0010
1000
0000
0010
0000
0100
0001
0000
0100
0001
0000
,
1000
0000
0010
1000
0000
0010
1000
0000
0010
0000
0100
0001
0000
0100
0001
0000
,
1000
0000
0001
1000
0000
0001
1000
0000
0100
0000
0010
0100
0000
0010
0100
0000
,
4000
0004
0000
0000
0000
0000
3003
0000
0000
0000
1000
0010
0100
0010
2000
0000
,
3002
0000
0003
001M
0000
0000
0100
0000
2000
0000
3000
M010
0000
0000
0100
0000
,
0002
0000
0003
001M
0000
0000
0100
0000
2000
0000
3000
M010
0000
0000
0100
0000
,
0002
0000
0003
001M
0000
0000
0100
0000
2000
0000
3000
M010
0000
0000
0100
0000
,
0002
0000
0003
001M
0000
0000
0100
0000
1000
0000
0100
0000
0010
0000
0001
0000
,
2000
0000
3000
M100
0000
0000
0010
0000
0002
0000
0003
010M
0000
0000
0010
0000
,
2000
0000
3000
M100
0000
0000
0010
0000
0002
0000
0003
010M
0000
0000
0010
0000
,
2000
0000
3000
M100
0000
0000
0010
0000
0002
0000
0003
010M
0000
0000
0010
0000
,
2000
0000
3000
M100
0000
0000
0010
0000
0001
0000
0010
0000
0100
0000
1000
0000
,
2020
0000
3030
M1M1
0000
0000
0001
0000
0022
0000
0033
11MM
0000
0000
1000
0000
,
2020
0000
3030
M1M1
0000
0000
0001
0000
0022
0000
0033
11MM
0000
0000
1000
0000
,
2200
0000
3300
MM11
0000
0000
0001
0000
0202
0000
0303
1M1M
0000
0000
1000
0000
,
2200
0000
3300
MM11
0000
0000
0001
0000
1000
0000
0100
0000
0010
0000
0001
0000
,
1000
0000
0010
0000
0100
0001
0020
0000
0130
1000
0100
1000
0000
1000
0100
0000
,
1000
0000
0010
0000
0100
0001
0020
0000
0130
0010
0100
0010
0000
0010
0100
0000
,
1000
0000
0001
1000
0000
0010
0100
0000
0001
0000
0100
0001
0000
1000
0010
0000
,
1000
0000
0100
1000
0000
0001
0010
0000
0002
0000
0023
0000
0230
0000
2300
0000
,
3001
0000
0000
0000
;

//---------------dance-double - ----------------
#NOTES:
     dance-double:
     :
     Easy:
     4:
     0.130617,0.191409,0.008545,0.008545,0.000000,107.000000,106.000000,1.000000,1.000000,0.000000,0.000000,0.130617,0.191409,0.008545,0.008545,0.000000,107.000000,106.000000,1.000000,1.000000,0.000000,0.000000:
// measure 0
00000000
00000000
00000000
00000000
,  // measure 1
00000000
00000000
00000000
00000000
,  // measure 2
00000000
00000000
00000000
00000000
,  // measure 3
00000000
00000000
00000000
00000000
,  // measure 4
00000000
00000000
00000000
00000000
,  // measure 5
00000000
00000000
00000000
00000000
,  // measure 6
00000000
00000000
00000000
00000000
,  // measure 7
00000000
00000000
00000000
00000000
,  // measure 8
10000000
00000000
00010000
00000000
,  // measure 9
00100000
00000000
00001000
00000000
,  // measure 10
00010000
00000000
00000100
00000000
,  // measure 11
00001000
00000000
00000010
00000100
,  // measure 12
00000010
00000000
00001000
00000000
,  // measure 13
00000001
00000000
00000010
00000000
,  // measure 14
00000001
00000000
00000100
00000000
,  // measure 15
00000010
00000000
00001000
00000100
,  // measure 16
00000010
00000000
00000000
00000000
,  // measure 17
00000001
00000000
00000000
00000000
,  // measure 18
00001000
00000000
00000000
00000000
,  // measure 19
00000100
00000000
00010000
00000000
,  // measure 20
00001000
00000000
00000000
00000000
,  // measure 21
01000000
00000000
00000000
00000000
,  // measure 22
00100000
00000000
00000000
00000000
,  // measure 23
10000000
00000000
00010000
00000000
,  // measure 24
00100000
00000000
00001000
00000000
,  // measure 25
00010000
00000000
00000100
00000000
,  // measure 26
00001000
00000000
00000010
00000000
,  // measure 27
00000100
00000000
00000001
00000100
,  // measure 28
00000010
00000000
00001000
00000000
,  // measure 29
00000100
00000000
00010000
00000000
,  // measure 30
00001000
00000000
01000000
00000000
,  // measure 31
00100000
00000000
10000000
00010000
,  // measure 32
00100000
00000000
00001000
00000000
,  // measure 33
00010000
00000000
00000100
00000000
,  // measure 34
00001000
00000000
00000010
00000000
,  // measure 35
00000100
00000000
00000001
00000010
,  // measure 36
00000100
00000000
00001000
00000000
,  // measure 37
00000100
00000000
00010000
00000000
,  // measure 38
00001000
00000000
01000000
00000000
,  // measure 39
00200000
00000000
00000000
00300000
,  // measure 40
01000000
00010000
01000000
00000000
,  // measure 41
00010000
00100000
00010000
00000000
,  // measure 42
00100000
00001000
00100000
00000000
,  // measure 43
00001000
00010000
00000100
00001000
,  // measure 44
00000010
00000100
00000010
00000000
,  // measure 45
00000100
00000001
00000100
00000000
,  // measure 46
00000001
00000010
00000001
00000000
,  // measure 47
00000010
00000100
00001000
00000100
,  // measure 48
00010000
00000000
00001000
00000000
,  // measure 49
01000000
00000000
00100000
00000000
,  // measure 50
10000000
00000000
01000000
00000000
,  // measure 51
00100000
00000000
00010000
00100000
,  // measure 52
00001000
00000000
00010000
00000000
,  // measure 53
00000010
00000000
00000100
00000000
,  // measure 54
00000001
00000000
00000010
00000000
,  // measure 55
00000100
00000000
00001000
00000000
,  // measure 56
00011000
00000000
00000000
00000000
;

//---------------dance-double - ----------------
#NOTES:
     dance-double:
     :
     Medium:
     8:
     0.272220,0.358892,0.162356,0.162356,0.055543,223.000000,204.000000,19.000000,19.000000,0.000000,0.000000,0.272220,0.358892,0.162356,0.162356,0.055543,223.000000,204.000000,19.000000,19.000000,0.000000,0.000000:
// measure 0
00000000
00000000
00000000
00000000
,  // measure 1
00000000
00000000
00000000
00000000
,  // measure 2
00000000
00000000
00000000
00000000
,  // measure 3
00000000
00000000
00000000
00000000
,  // measure 4
00000000
00000000
00000000
00000000
,  // measure 5
00000000
00000000
00000000
00000000
,  // measure 6
00000000
00000000
00000000
00000000
,  // measure 7
00000000
00000000
00000000
00000000
,  // measure 8
01000000
10000000
00100000
01000000
,  // measure 9
00010000
00100000
00001000
00010000
,  // measure 10
00000100
00001000
00000010
00000100
,  // measure 11
00000001
00000000
00000010
00000000
00000100
00001000
00000100
00010000
,  // measure 12
00001000
00001000
00010000
00010000
,  // measure 13
00000100
00000100
00001000
00001000
,  // measure 14
00000010
00000010
00000100
00000100
,  // measure 15
00000001
00000000
00000100
00000000
00000010
00001000
00000100
00010000
,  // measure 16
00011000
00000000
00000000
00000000
,  // measure 17
00101000
00000000
00000000
00000000
,  // measure 18
01010000
00000000
00000000
00000000
,  // measure 19
10010000
00000000
00101000
00000000
,  // measure 20
00011000
00000000
00000000
00000000
,  // measure 21
00001010
00000000
00000000
00000000
,  // measure 22
00000101
00000000
00000000
00000000
,  // measure 23
00001010
00000000
00010100
00000000
,  // measure 24
00011000
00001000
01000000
00100000
,  // measure 25
10000000
01000000
00010000
01000000
,  // measure 26
10000000
00010000
00100000
00001000
,  // measure 27
00010000
00000000
00000100
00000000
00000100
00001000
00000100
00000010
,  // measure 28
00000001
00000100
00000010
00000100
,  // measure 29
00000001
00000010
00001000
00000010
,  // measure 30
00000001
00000100
00000010
00001000
,  // measure 31
00000100
00000000
00010000
00000000
00001000
01000000
10000000
01000000
,  // measure 32
00010000
00100000
01000000
00000000
10000000
00000000
01000000
00000000
,  // measure 33
10000000
00010000
00100000
00000000
00001000
00000000
00010000
00000000
,  // measure 34
00000100
00001000
00000010
00000000
00000100
00000000
00000001
00000000
,  // measure 35
00000010
00000100
00001000
00000000
00000100
00010000
00001000
00100000
,  // measure 36
00002000
01003000
00002000
00013000
,  // measure 37
00002000
01003000
00002000
00013000
,  // measure 38
00020000
00030100
00020000
00030010
,  // measure 39
00022000
00000000
00000000
00033000
,  // measure 40
00010000
00000000
00000000
00001000
00000000
00000000
00010000
00000000
00000010
00000000
00000000
00000000
00000110
00000000
00000000
00000000
,  // measure 41
00000100
00000000
00000000
00000001
00000000
00000000
00000010
00000000
00000100
00000000
00000000
00000000
00001100
00000000
00000000
00000000
,  // measure 42
00000100
00000000
00000000
00010000
00000000
00000000
00001000
00000000
01000000
00000000
00000000
00000000
01010000
00000000
00000000
00000000
,  // measure 43
01000000
00000000
00000000
00100000
00000000
00000000
01000000
00000000
10000000
00000000
01000000
00000000
00010000
00000000
00100000
00000000
,  // measure 44
00001000
00000000
00000000
00010000
00000000
00000000
00000010
00000000
00000100
00000000
00000000
00000000
00000101
00000000
00000000
00000000
,  // measure 45
00000001
00000000
00000000
00000010
00000000
00000000
00000100
00000000
00001000
00000000
00000000
00000000
00001100
00000000
00000000
00000000
,  // measure 46
00000100
00000000
00000000
00010000
00000000
00000000
00001000
00000000
01000000
00000000
00000000
00000000
01100000
00000000
00000000
00000000
,  // measure 47
00100000
00000000
00000000
10000000
00000000
00000000
01000000
00000000
10000000
00000000
00100000
00000000
00010000
00000000
00100000
00000000
,  // measure 48
20000000
31000000
02000000
03100000
,  // measure 49
00200000
00301000
00002000
00013000
,  // measure 50
00020000
00030100
00000200
00001300
,  // measure 51
00002000
00000000
00003010
00000100
00000010
00000001
00000010
00001000
,  // measure 52
00000200
00000000
00000000
00000000
00020300
00000000
00000000
00000000
00031000
00000000
00000000
01000000
00000000
00000000
00100000
00000000
,  // measure 53
20000000
00000000
00000000
00000000
32000000
00000000
00000000
00000000
03100000
00000000
00000000
00010000
00000000
00000000
00100000
00000000
,  // measure 54
00001000
00000000
00000000
00001000
00000000
00000000
00001000
00000000
00010000
00000000
00000000
00010000
00000000
00000000
00010000
00000000
,  // measure 55
00000100
00000000
00000000
00000100
00000000
00000000
00000100
00000000
00001000
00000000
00000100
00000000
00000010
00000000
00000001
00000000
,  // measure 56
00001001
00000000
00000000
00000000
;

//---------------dance-double - ----------------
#NOTES:
     dance-double:
     :
     Hard:
     13:
     0.417486,0.526374,0.410162,0.393072,0.303349,342.000000,285.000000,48.000000,46.000000,42.000000,9.000000,0.417486,0.526374,0.410162,0.393072,0.303349,342.000000,285.000000,48.000000,46.000000,42.000000,9.000000:
// measure 0
00000000
00000000
00000000
00000000
,  // measure 1
00000000
00000000
00000000
00000000
,  // measure 2
00000000
00000000
00000000
00000000
,  // measure 3
00000000
00000000
00000000
00000000
,  // measure 4
00000000
00000000
00000000
00000000
,  // measure 5
00000000
00000000
00000000
00000000
,  // measure 6
00000000
00000000
00000000
00000000
,  // measure 7
00000000
00000000
00000000
00000000
,  // measure 8
10000000
00000000
00000000
10000000
00000000
00000000
00100000
00000000
01000000
00000000
00000000
01000000
00000000
00000000
00010000
00000000
,  // measure 9
00100000
00000000
00000000
00100000
00000000
00000000
00001000
00000000
00010000
00000000
00000000
00010000
00000000
00000000
00000100
00000000
,  // measure 10
00001000
00000000
00000000
00001000
00000000
00000000
00000010
00000000
00000100
00000000
00000000
00000100
00000000
00000000
00000001
00000000
,  // measure 11
00000010
00000000
00000000
00000010
00000000
00000000
00000001
00000000
00000010
00000000
00000100
00000000
00010000
00000000
00001000
00000000
,  // measure 12
01000000
00000000
00000000
01000000
00000000
00000000
00100000
00000000
10000000
00000000
00000000
10000000
00000000
00000000
00010000
00000000
,  // measure 13
00100000
00000000
00000000
00100000
00000000
00000000
00001000
00000000
00010000
00000000
00000000
00010000
00000000
00000000
00000100
00000000
,  // measure 14
00001000
00000000
00000000
00001000
00000000
00000000
00000010
00000000
00000100
00000000
00000000
00000100
00000000
00000000
00000010
00000000
,  // measure 15
00000100
00000000
00000000
00000100
00000000
00000000
00000010
00000000
00001000
00000000
00000100
00000000
00001000
00000000
00100000
00000000
,  // measure 16
00011000
00000000
00000000
00000000
,  // measure 17
01110000
00000000
00000000
00000000
,  // measure 18
10110000
00000000
00000000
00000000
,  // measure 19
00111000
00000000
00011100
00000000
,  // measure 20
00001110
00000000
00000000
00000000
,  // measure 21
00001011
00000000
00000000
00000000
,  // measure 22
00001101
00000000
00000000
00000000
,  // measure 23
00001110
00000000
00011100
00000000
,  // measure 24
00011000
00000000
00000000
00001000
01000000
00000000
00100000
00000000
10000000
00000000
00000000
10000000
00000000
00000000
10000000
00000000
,  // measure 25
01000000
00000000
00000000
00100000
01000000
00000000
00100000
00000000
00001000
00000000
00000000
00001000
00000000
00000000
00001000
00000000
,  // measure 26
00010000
00000000
00000000
00000100
00001000
00000000
00000010
00000000
00000100
00000000
00000000
00000100
00000000
00000000
00000010
00000000
,  // measure 27
00001000
00000000
00000000
00000001
00000010
00000000
00000001
00000000
00001000
00000000
00000100
00000000
00010000
00000000
00001000
00000000
,  // measure 28
01000000
00000000
00000000
00100000
10000000
00000000
01000000
00000000
00100000
00000000
00000000
00100000
00000000
00000000
00100000
00000000
,  // measure 29
01000000
00000000
00000000
00100000
00010000
00000000
00100000
00000000
00001000
00000000
00000000
00001000
00000000
00000000
00001000
00000000
,  // measure 30
00010000
00000000
00000000
00000100
00000010
00000000
00000001
00000000
00001000
00000000
00000000
00001000
00000000
00000000
00001000
00000000
,  // measure 31
00000100
00000000
00000000
00001000
00000100
00000000
00010000
00000000
00001000
00000000
01000000
00000000
10000000
00000000
01000000
00000000
,  // measure 32
00010000
00100000
00101000
00010000
00000100
00001000
00001100
00000000
,  // measure 33
00000100
00010000
00101000
00001000
01000000
00100000
10100000
00000000
,  // measure 34
10000000
01000000
00110000
00100000
00001000
00010000
00010100
00000000
,  // measure 35
00010000
00000100
00001100
00010000
00000100
00001000
00000100
00001000
,  // measure 36
00010000
00000000
00000010
00010000
00000000
00000010
00000100
00000000
00000010
00000000
00010000
00001000
00000000
00010000
00000100
00000000
,  // measure 37
00010000
00000000
00001000
01000000
00000000
00100000
10000000
00000000
01000000
00000000
00100000
00001000
00000000
00010000
00000100
00000000
,  // measure 38
00001000
00000000
00000010
00000100
00000000
00000001
00001000
00000000
00000001
00000000
00000010
00000100
00000000
00000100
00001000
00000000
,  // measure 39
00004000
00040000
00000000
00000000
00000000
00000000
00000000
00000000
00033000
00000000
00000100
00010000
00001000
00100000
00010000
00000000
,  // measure 40
12000000
00000000
03000000
0M100000
00000000
00000000
00010000
00000000
02000000
00000000
03000000
0M100000
00000000
00000000
10000000
00000000
,  // measure 41
02000000
00000000
03000000
0M100000
00000000
00000000
00010000
00000000
02000000
00000000
03000000
0M100000
00000000
00000000
10000000
00000000
,  // measure 42
02000000
00000000
03000000
0M100000
00000000
00000000
00010000
00000000
02000000
00000000
03000000
0M100000
00000000
00000000
10000000
00000000
,  // measure 43
02000000
00000000
03000000
0M100000
00000000
00000000
00010000
00000000
00100000
00000000
00001000
00000000
00010000
00000000
00000100
00000000
,  // measure 44
00002000
00000000
00003000
0000M010
00000000
00000000
00000100
00000000
00000002
00000000
00000003
0000001M
00000000
00000000
00000100
00000000
,  // measure 45
00002000
00000000
00003000
0000M010
00000000
00000000
00000100
00000000
00000002
00000000
00000003
0000001M
00000000
00000000
00000100
00000000
,  // measure 46
00002000
00000000
00003000
0000M010
00000000
00000000
00000100
00000000
00000002
00000000
00000003
0000001M
00000000
00000000
00000100
00000000
,  // measure 47
00002000
00000000
00003000
0000M010
00000000
00000000
00000100
00000000
00000010
00000000
00010000
00000000
00001000
00000000
01000000
00000000
,  // measure 48
20200000
00000000
30300000
M1M10000
00000000
00000000
00010000
00000000
00202000
00000000
00303000
00M1M100
00000000
00000000
00001000
00000000
,  // measure 49
00002200
00000000
00003300
0000MM11
00000000
00000000
00000001
00000000
00000202
00000000
00000303
00001M1M
00000000
00000000
00000100
00000000
,  // measure 50
00002002
00000000
00003003
0000M11M
00000000
00000000
00000001
00000000
00002020
00000000
00003030
0000M1M1
00000000
00000000
00000001
00000000
,  // measure 51
00002002
00000000
00003003
0000M11M
00000000
00000000
00000010
00000000
00000100
00000000
00000010
00000000
00001000
00000000
00000100
00000000
,  // measure 52
00002200
00000000
00003300
0101MM00
00000000
00000000
00010000
00000000
02020000
00000000
03030000
0M0M1100
00000000
00000000
00000100
00000000
,  // measure 53
00002200
00000000
00003300
0101MM00
00000000
00000000
01000000
00000000
02020000
00000000
03030000
0M0M1100
00000000
00000000
00000010
00000000
,  // measure 54
00002020
00000000
00003030
0011M0M0
00000000
00000000
00100000
00000000
00220000
00000000
00330000
00MM1010
00000000
00000000
00000010
00000000
,  // measure 55
00002020
00000000
00003030
0011M0M0
00000000
00000000
00200000
00000000
00302000
00000000
00023000
00000000
00030020
00000000
00000130
00000000
,  // measure 56
00001001
00000000
00000000
00000000
;
