#VERSION:0.83;
#TITLE:OUTER LIMITS;
#SUBTITLE:;
#ARTIST:L.E.D.-G;
#TITLETRANSLIT:;
#SUBTITLETRANSLIT:;
#ARTISTTRANSLIT:;
#GENRE:;
#ORIGIN:;
#CREDIT:;
#BANNER:OUTER LIMITS.png;
#BACKGROUND:OUTER LIMITS-bg.png;
#PREVIEWVID:;
#JACKET:OUTER LIMITS-jacket.png;
#CDIMAGE:;
#DISCIMAGE:;
#LYRICSPATH:;
#CDTITLE:cdtitle.png;
#MUSIC:OUTER LIMITS.ogg;
#OFFSET:-1.400000;
#SAMPLESTART:26.659000;
#SAMPLELENGTH:16.841999;
#SELECTABLE:YES;
#BPMS:0.000=85.500,
32.000=42.750,
34.000=171.000,
158.000=85.500,
160.000=171.000,
216.000=42.750,
218.000=171.000;
#STOPS:;
#DELAYS:;
#WARPS:;
#TIMESIGNATURES:0.000=4=4;
#TICKCOUNTS:0.000=4;
#COMBOS:0.000=1;
#SPEEDS:0.000=1.000=0.000=0;
#SCROLLS:0.000=1.000;
#FAKES:;
#LABELS:0.000=Song Start;
#BGCHANGES:2.000=OUTER LIMITS.avi=1.000=0=0=1=====,
99999=-nosongbg-=1.000=0=0=0 // don't automatically add -songbackground-
;
#KEYSOUNDS:;
#ATTACKS:
;

//---------------dance-single - ----------------
#NOTEDATA:;
#CHARTNAME:;
#STEPSTYPE:dance-single;
#DESCRIPTION:;
#CHARTSTYLE:;
#DIFFICULTY:Beginner;
#METER:4;
#RADARVALUES:0.131057,0.171708,0.024356,0.000000,0.000000,113.000000,110.000000,3.000000,0.000000,0.000000,0.000000,0.000000,0.000000,0.000000,0.131057,0.171708,0.024356,0.000000,0.000000,113.000000,110.000000,3.000000,0.000000,0.000000,0.000000,0.000000,0.000000,0.000000;
#CREDIT:Pandemonium X;
#NOTES:
// measure 0
0000
0000
0000
0000
,  // measure 1
0000
0000
0000
0000
,  // measure 2
0000
0000
0000
0000
,  // measure 3
0000
0000
0000
0000
,  // measure 4
0000
0000
1000
0000
,  // measure 5
1000
0000
1000
0001
1000
0000
0000
0000
,  // measure 6
0000
0000
0001
0000
,  // measure 7
0001
0000
0001
1000
0001
0000
0000
0000
,  // measure 8
0000
0000
1000
0000
,  // measure 9
0000
0000
0100
0000
,  // measure 10
0000
0000
0010
0000
,  // measure 11
0000
0000
0001
0000
,  // measure 12
1000
0000
0010
0000
,  // measure 13
0000
0000
0100
0000
,  // measure 14
0000
0000
0001
0000
,  // measure 15
0000
0000
0010
0010
,  // measure 16
0010
0010
0100
0000
,  // measure 17
0000
0000
1000
0000
,  // measure 18
0000
0000
0010
0000
,  // measure 19
0000
0000
0100
0000
,  // measure 20
0010
0000
1000
0000
,  // measure 21
0000
0000
0001
0000
,  // measure 22
0000
0000
0010
0000
,  // measure 23
0000
0000
0001
0000
,  // measure 24
1000
0000
0010
0000
,  // measure 25
0000
0000
1000
0000
,  // measure 26
0000
0000
0100
0000
,  // measure 27
0000
0000
0100
0000
,  // measure 28
1000
0000
0000
0000
0001
0000
0000
0001
,  // measure 29
0000
0001
0000
0000
,  // measure 30
0000
0000
0000
0000
1000
0000
0000
1000
,  // measure 31
0000
1000
0000
0000
,  // measure 32
0000
0000
0110
0000
,  // measure 33
0000
0000
0100
0000
,  // measure 34
0000
0000
0010
0000
,  // measure 35
0000
0000
1000
0000
,  // measure 36
0001
0000
1000
0000
,  // measure 37
0000
0000
0100
0000
,  // measure 38
0000
0000
0010
0000
,  // measure 39
0000
0000
0001
0000
,  // measure 40
0100
0000
0010
0000
,  // measure 41
1000
1000
1000
0000
,  // measure 42
0001
0000
1000
0000
,  // measure 43
0100
0100
0000
0000
,  // measure 44
0010
0000
0001
0000
,  // measure 45
0100
0100
0100
0000
,  // measure 46
0010
0000
1000
0000
,  // measure 47
0001
0000
1000
0000
,  // measure 48
0010
0010
0000
0100
,  // measure 49
0000
0010
0000
1000
,  // measure 50
0001
1000
0000
0001
,  // measure 51
0000
1000
0000
0000
,  // measure 52
0100
0100
0000
0010
,  // measure 53
0000
0001
0000
0000
,  // measure 54
0000
0000
1001
0000
,  // measure 55
0000
0000
0001
0000
,  // measure 56
0000
0000
1000
0000
,  // measure 57
0000
0000
0010
0000
,  // measure 58
1000
0000
0100
0000
,  // measure 59
0000
0000
0010
0000
,  // measure 60
0000
0000
0100
0000
,  // measure 61
0000
0000
1000
1000
,  // measure 62
1000
1000
0001
0000
,  // measure 63
0000
0000
1000
0000
,  // measure 64
0010
1000
0100
0000
,  // measure 65
0000
0000
0010
0000
,  // measure 66
0100
0000
0010
0000
0001
0000
0000
0001
,  // measure 67
0000
0001
0000
0000
,  // measure 68
0000
0000
0000
0000
1000
0000
0000
1000
,  // measure 69
0000
1000
0000
0000
,  // measure 70
0000
0000
0110
0000
;

//---------------dance-single - ----------------
#NOTEDATA:;
#CHARTNAME:;
#STEPSTYPE:dance-single;
#DESCRIPTION:;
#CHARTSTYLE:;
#DIFFICULTY:Easy;
#METER:9;
#RADARVALUES:0.308507,0.406336,0.211084,0.357218,0.000000,266.000000,240.000000,26.000000,44.000000,0.000000,0.000000,0.000000,0.000000,0.000000,0.308507,0.406336,0.211084,0.357218,0.000000,266.000000,240.000000,26.000000,44.000000,0.000000,0.000000,0.000000,0.000000,0.000000;
#CREDIT:Pandemonium X;
#NOTES:
0000
0000
0000
0000
,
0000
0000
0000
0000
,
0000
0000
0000
0000
,
0000
0000
0000
0000
,
0000
0000
1000
0000
,
1000
0000
1000
0001
0220
0000
0000
0000
,
0330
0000
0001
0000
,
0001
0000
0001
1000
0220
0000
0000
0000
,
0330
0000
0001
0010
,
0001
0100
0001
0000
0100
0000
0010
0000
,
1000
0100
1000
0000
0010
0000
1000
0000
,
0001
1000
0001
0000
0020
0000
0230
0000
,
1300
0001
0010
0000
0100
0000
0010
0000
,
0001
0010
0001
0000
0010
0000
0100
0000
,
1000
0001
1000
0000
0010
0000
0100
0000
,
0010
0100
0010
0000
1001
0000
0110
0000
,
1001
0000
0110
0000
0001
0000
1000
0100
,
0000
1000
0010
0000
1000
0001
0000
0001
,
1000
0000
1001
0000
1000
0000
0001
0010
,
0000
0001
1000
0000
0001
0100
0000
0100
,
0010
0000
1000
0000
0100
0000
0010
0001
,
0000
0010
0100
0000
0010
0001
0000
0010
,
0100
0000
0010
0000
0001
0000
1000
0010
,
0000
0010
0100
0000
0100
0010
0000
0010
,
1000
0001
1000
0001
,
0010
1000
0010
0001
,
0100
1000
0100
0010
,
1000
0001
0020
0130
,
2000
0000
3010
0000
0101
0000
0000
1010
,
0000
1001
0000
0000
,
0000
0000
0000
0000
1100
0000
0000
0011
,
0000
1001
0000
0000
,
0000
0000
0002
0203
,
0000
0320
0000
2030
,
0000
3200
2300
3020
,
0000
2030
0000
0002
,
0000
3003
0020
0032
,
0000
0203
0000
0320
,
0000
0000
0230
0000
,
0000
0000
0002
0300
,
0013
0000
0110
0000
0100
1000
0010
0000
,
0100
0000
0010
0100
0000
0100
0010
0000
,
0100
0000
0101
0000
0001
0010
0100
0000
,
0100
0010
0001
1000
,
0001
0000
1001
0000
1000
0001
0100
0000
,
0001
0000
0100
0010
0000
1000
0010
0000
,
0100
0000
0001
0000
0010
0100
1000
0000
,
0100
1000
0010
1000
,
0001
2000
0000
3200
,
0000
2300
0000
3010
,
0100
0002
0000
0023
,
0000
0200
0000
0330
,
0010
0002
0000
2003
,
0000
0002
0000
0000
,
3003
0000
0000
0000
0001
0100
0001
0000
,
0100
0000
0010
0000
1000
0010
1000
0000
,
0010
0000
0100
0000
0001
1000
0001
0000
,
1000
0001
0020
0230
,
1300
0100
0010
0001
1000
0000
0001
0000
,
1000
0010
1000
0000
0001
0000
0010
0000
,
0100
1000
0100
0000
1000
0000
0010
0000
,
0100
0001
0100
0000
1001
0000
0110
0000
,
1001
0000
0110
0000
0002
0000
0000
2003
,
0000
0000
3200
0000
0000
0302
0000
0000
,
0103
0000
1000
0000
0020
0000
0000
0032
,
0000
0000
0023
0000
0000
0230
0000
0000
,
0301
0000
0100
0000
1001
0000
0000
1010
,
0000
1001
0000
0000
,
0000
0000
0000
0000
1001
0000
0000
0011
,
0000
1001
0000
0000
,
0001
0100
0010
2000
0002
0000
0000
0000
,
0000
0000
3003
0000
;

//---------------dance-single - ----------------
#NOTEDATA:;
#CHARTNAME:;
#STEPSTYPE:dance-single;
#DESCRIPTION:;
#CHARTSTYLE:;
#DIFFICULTY:Medium;
#METER:13;
#RADARVALUES:0.480157,0.584539,0.308507,0.259795,0.117720,414.000000,376.000000,38.000000,32.000000,0.000000,0.000000,0.000000,0.000000,0.000000,0.480157,0.584539,0.308507,0.259795,0.117720,414.000000,376.000000,38.000000,32.000000,0.000000,0.000000,0.000000,0.000000,0.000000;
#CREDIT:Pandemonium X;
#NOTES:
0000
0000
0000
0000
,
0000
0000
0000
0000
,
0000
0000
0000
0000
,
0000
0000
0000
0000
,
0000
0000
1001
0000
,
1001
0000
1000
0010
0201
0001
0001
0001
,
0301
0000
1001
0000
,
1001
0000
0001
0010
2100
0100
0100
3100
,
1001
0000
0000
0000
0001
0100
0010
0000
,
1000
0100
0010
0000
0100
1000
0010
0100
,
0001
0010
0100
0000
0010
0001
0100
0000
,
0010
0000
1000
0000
0100
0000
0000
1000
0100
0000
0000
0100
0010
0000
0000
0010
,
0001
0000
0000
0001
0100
0000
0000
0100
0010
0000
1000
0000
0001
0000
0000
0000
,
0010
0100
1000
0000
0100
1000
0010
0100
,
0001
0010
0100
0000
0010
0001
1000
0000
,
0100
1000
0010
0000
1010
0000
0011
0000
,
1010
0000
0011
0000
1001
0000
0001
0100
,
0000
0100
1000
0000
1000
0100
0000
0100
,
0001
0000
1001
0000
1001
0000
1000
0010
,
0000
0010
0001
0000
0001
0010
0000
0010
,
1000
0000
0001
0100
0110
0000
1000
0100
,
0000
0001
0100
0000
1000
0100
0000
0001
,
0100
0000
1001
0000
0110
0000
1000
0010
,
0000
0001
0010
0000
1000
0010
0000
1000
,
0001
0010
0100
1000
0010
0010
1000
0010
,
0010
0100
0001
0000
0010
0010
0100
0010
,
0010
0001
1000
0000
0001
0001
0100
0001
,
0001
1000
0100
0000
0010
0010
0100
0010
,
0010
0001
0010
0100
1100
0000
0000
1010
,
0000
2002
0000
0000
,
3003
0000
0000
0000
0011
0000
0000
1010
,
0000
2002
0000
3003
,
0001
0100
1000
0100
0002
0000
1003
0000
,
0100
1000
0010
0000
0200
0000
0301
0000
,
0100
0010
1000
0100
0020
0000
0130
0000
,
1000
0001
0100
0000
0020
0000
1030
0000
,
0100
0010
0001
1000
0002
0000
0013
0000
,
0100
0010
0001
0000
0020
0000
0130
0000
,
0010
1000
0100
0010
0200
0000
1300
0000
,
0100
0010
0001
0100
0110
0000
0000
0000
,
1000
0000
1000
0000
1010
0000
1000
0001
0000
1000
0001
0000
0010
0000
0000
0000
,
0100
0100
0010
0100
0100
0010
0010
0000
,
0100
0000
1000
0000
0010
0000
0100
0001
0000
0010
0100
0000
1000
0000
0000
0000
,
0001
0001
0001
0000
1000
0000
0011
0010
,
0100
0000
0100
0000
1100
0000
1000
0010
0000
0100
0010
0000
1000
0000
0000
0000
,
0001
0000
0010
0000
0100
0000
0010
0001
0000
0010
0100
0000
1000
0000
0010
0000
,
0100
0000
0100
0000
0010
0000
1000
0001
0000
0010
0100
0000
0010
0000
0000
0000
,
0100
0000
0010
0000
0001
0000
1000
0010
0000
0100
0001
0000
0010
0000
0100
0000
,
0010
0001
0000
0200
,
0000
2000
3300
0100
,
0010
1000
0000
0002
,
0000
2000
0000
3003
,
0100
0010
0000
0200
,
0000
2000
0000
0000
,
3300
0000
0000
0000
0000
0000
0000
0000
1001
0000
0001
0000
0010
0000
0001
0010
,
0000
0010
0100
0000
0010
0000
0000
0000
0001
0000
1000
0000
0010
0000
1000
0010
,
0000
0010
0100
0000
0010
0000
1000
0000
0001
0000
0010
0000
0001
0000
0100
0010
,
0000
1000
0100
0000
0010
0000
0100
0000
2000
0000
3100
0000
0002
0000
0103
0000
,
2000
0000
3010
0000
0002
0000
0013
0000
0100
0000
0010
0000
0001
0000
0100
0001
,
0000
0010
0100
0000
1000
0000
0000
0000
0001
0000
0100
0000
0001
0000
1000
0010
,
0000
0010
0100
0000
0010
0000
0100
0000
0001
0000
1000
0000
0100
0000
0010
0100
,
0000
0100
1000
0000
0001
0000
0001
0000
0101
0000
0000
0000
1010
0000
0000
0000
,
0101
0000
1010
0000
0001
0001
0010
0001
,
0001
0100
0001
0000
1000
1000
0010
1000
,
1000
0010
0100
0100
0001
0001
0010
0100
,
0100
0010
0010
0000
0200
0310
0002
0103
,
0020
1030
2000
3001
0110
0000
0000
1010
,
0000
0202
0000
0303
,
0001
0010
0100
1000
1100
0000
0000
0011
,
0000
2002
0000
3003
,
0001
1000
0001
1000
0020
0000
0000
0000
,
0000
0000
0000
0000
,
0030
0000
0000
0000
;

//---------------dance-single - Pandemonium X----------------
#NOTEDATA:;
#CHARTNAME:;
#STEPSTYPE:dance-single;
#DESCRIPTION:Pandemonium X;
#CHARTSTYLE:;
#DIFFICULTY:Hard;
#METER:16;
#RADARVALUES:0.690081,0.876808,0.608895,0.405930,0.584539,595.000000,520.000000,75.000000,50.000000,0.000000,0.000000,0.000000,0.000000,0.000000,0.690081,0.876808,0.608895,0.405930,0.584539,595.000000,520.000000,75.000000,50.000000,0.000000,0.000000,0.000000,0.000000,0.000000;
#CREDIT:Pandemonium X;
#NOTES:
0000
0000
0000
0000
,
0000
0000
0000
0000
,
0000
0000
0000
0000
,
0000
0000
0000
0000
,
0000
0000
1001
0000
,
1001
0000
0010
0100
2002
0000
0000
0000
,
3003
0000
0110
0000
,
0110
0000
1000
0001
0220
0000
0000
0000
,
0330
0000
0000
0000
0000
0000
0000
0000
1000
0000
0100
0000
0011
0000
0001
0010
,
0000
0001
1000
0000
1001
0000
0000
0000
1000
0000
0001
0000
1100
0000
0001
1000
,
0000
0100
0010
0000
0100
0000
0010
0000
0001
0000
1000
0000
1010
0000
0001
1000
,
0000
0100
1000
0000
1001
0000
0000
0000
0001
0000
0010
0000
1000
0000
0010
0001
,
0100
0010
0100
0010
0100
0000
0001
0000
1000
0000
0001
0000
1100
0000
0100
1000
,
0000
0001
0100
0000
0110
0000
0000
0000
0100
0000
0001
0000
0011
0000
0010
0001
,
0000
1000
0010
0000
0110
0000
0100
0001
1000
0000
0001
0000
0011
0000
0001
0100
,
0000
0010
0100
0000
0001
0000
1000
0000
1100
0000
0000
0000
0101
0000
0000
0000
,
1100
0000
0000
0000
0101
0000
0000
0000
1000
0000
0010
0000
0001
0000
0010
1000
,
0000
0001
0100
0000
0001
0000
1000
0100
0010
0000
0001
0000
0010
0000
1000
0010
,
0000
0001
1000
0000
0010
0000
0100
0001
1000
0000
0100
0000
0001
0000
0100
1000
,
0000
0010
0100
0000
0010
0000
0100
0001
1000
0001
1000
0000
0010
1000
0010
0000
,
0100
0001
0100
0000
0001
0010
0001
0000
1000
0000
0001
0000
0100
0000
1000
0100
,
0000
0100
0010
0000
1000
0000
0001
1000
0001
0000
0010
0000
1000
0000
0010
0001
,
0000
0001
0100
0000
0010
0000
0100
0001
0100
0000
0010
0000
1000
0000
0100
0010
,
0000
0010
0100
0000
1000
0000
0001
1000
0010
0100
0010
0000
1000
0010
1000
0000
,
0001
0100
0001
0000
1000
0010
1000
0000
1001
0000
0001
0000
0011
0000
0001
0000
,
0001
0000
0011
0000
0010
0100
0000
0100
1000
0000
0100
0000
1100
0000
1000
0000
,
1000
0001
1000
0001
0100
0010
0100
0010
0100
0000
0100
0000
0101
0000
0100
0000
,
0100
0000
0100
0001
0000
0010
0100
0000
0010
0001
0010
0000
0100
0000
1000
0000
,
0010
1000
0010
0000
0100
0000
0001
0000
2002
0000
0000
0000
3003
0000
0220
0000
,
0000
0330
2002
0000
0000
0000
0000
0000
,
3003
0000
0000
0000
2002
0000
3003
0220
,
0000
0330
2002
0000
0000
0000
0000
3003
,
0001
0100
0010
1000
0001
0100
0010
1000
0100
0000
0010
0000
0012
0000
0000
0010
,
0000
0013
0100
0000
1001
0000
0000
0000
1000
0000
0100
0000
0021
0000
0000
0100
,
0000
0130
1000
0000
1001
0000
0000
0000
1000
0000
0001
0000
0201
0000
0000
0010
,
0000
0310
1000
0000
1001
0000
0000
0000
1000
0000
0100
0000
0120
0000
0000
0001
,
0000
0031
0100
0000
0110
0000
0100
0010
1000
0000
0001
0000
0021
0000
0000
0100
,
0000
0130
1000
0000
1100
0000
0000
0000
1000
0000
0010
0000
0210
0000
0000
0001
,
0000
0301
1000
0000
1001
0000
0001
0000
0010
0000
0100
0000
2100
0000
0000
0010
,
0000
3010
0100
0000
0110
0000
0001
0000
1000
0000
0001
0000
0100
0000
0010
0000
,
1000
0000
0001
0100
0010
0000
0100
0010
1000
0001
0010
0100
1000
0000
0100
0010
,
0001
0000
1000
0000
0110
0000
0001
0000
1000
0000
0110
0000
1000
0001
0010
0100
,
1000
0000
0001
0100
0010
0000
0100
0010
1000
0001
0010
0001
1000
0000
0000
0000
,
0001
0000
0001
0000
0001
0010
0100
0010
0001
0000
1000
0000
0001
0100
0010
0000
,
1000
0000
0010
0100
0001
0000
0010
0100
1000
0100
0010
0001
1000
0000
0001
0000
,
1000
0001
0100
0001
0010
0000
0100
0000
0010
0100
1000
0010
0100
0000
0010
0000
,
1000
0000
0100
0000
0011
0000
0001
0010
0000
0100
1000
0000
1001
0000
0001
0100
,
0010
0000
0100
0000
0110
0000
0110
0000
1000
0000
0001
0010
0100
0000
0010
0001
,
2000
3002
0000
0203
,
0000
0302
0000
0023
,
0032
2003
0000
3200
,
0000
2300
0000
0000
,
3002
2003
0000
3020
,
0000
2030
0000
0000
,
3000
0000
0000
0000
0000
0000
0000
0000
0001
0000
0010
0000
1001
0000
1000
0001
,
0000
0010
0100
0000
0011
0000
0100
1000
0010
0000
0100
0000
0101
0000
0001
1000
,
0000
0100
0010
0000
0110
0000
0100
1000
0010
0000
0100
0000
0101
0000
0001
0010
,
0000
0100
0010
0000
0011
0000
0010
0100
1000
0001
1000
0001
1000
0001
0100
0010
,
0100
0010
1000
0001
0100
0010
1000
0001
0010
0000
0100
0000
1100
0000
1000
0010
,
0000
0100
0001
0010
0100
0000
1000
0000
0100
0000
0010
0000
0011
0000
0001
0100
,
0000
0010
1000
0100
0010
0000
0100
0000
1000
0000
0001
0000
0100
0000
0010
1000
,
0000
0001
0010
0100
0010
0000
0001
0000
1001
0000
0000
0000
0110
0000
0000
0000
,
1001
0000
0110
0000
1000
0100
0010
0110
,
0100
1100
1100
0000
0001
0100
0110
0110
,
1000
0001
1000
0001
1000
0001
1000
0001
1000
0000
0001
0000
0010
0000
0110
0000
,
0010
0000
0011
0000
0011
0000
0001
0000
1000
0001
0100
0001
0010
0100
0010
0001
,
0100
0010
1000
0001
0010
0100
1000
0002
2000
0000
0000
0000
3003
0000
0220
0000
,
0000
0330
2002
0000
0000
0000
0000
3003
,
1000
0010
0100
0001
0010
0100
1000
0002
2000
0000
0000
0000
3003
0000
0220
0000
,
0000
0330
2002
0000
0000
0000
0000
3003
,
1000
0100
0010
0001
0010
0100
1000
0200
0020
0000
0000
0000
0000
0000
0000
0000
,
0000
0000
0000
0000
,
0330
0000
0000
0000
;
