#VERSION:0.83;
#TITLE:Neon Paradise;
#SUBTITLE:;
#ARTIST:megawolf77;
#TITLETRANSLIT:;
#SUBTITLETRANSLIT:;
#ARTISTTRANSLIT:;
#GENRE:;
#ORIGIN:;
#CREDIT:;
#BANNER:Neon Paradise.png;
#BACKGROUND:Neon Paradise-bg.png;
#PREVIEWVID:;
#JACKET:Neon Paradise-jacket.png;
#CDIMAGE:;
#DISCIMAGE:;
#LYRICSPATH:;
#CDTITLE:;
#MUSIC:Neon Paradise.ogg;
#OFFSET:1.552000;
#SAMPLESTART:13.043000;
#SAMPLELENGTH:19.569000;
#SELECTABLE:YES;
#BPMS:0.000=148.000;
#STOPS:;
#DELAYS:;
#WARPS:;
#TIMESIGNATURES:0.000=4=4;
#TICKCOUNTS:0.000=4;
#COMBOS:0.000=1;
#SPEEDS:0.000=1.000=0.000=0;
#SCROLLS:0.000=1.000;
#FAKES:;
#LABELS:0.000=Song Start;
#BGCHANGES:4.000=Neon Paradise.avi=1.000=1=0=1===CrossFade==,
99999=-nosongbg-=1.000=0=0=0 // don't automatically add -songbackground-
;
#KEYSOUNDS:;
#ATTACKS:
;

//---------------dance-single - ----------------
#NOTEDATA:;
#CHARTNAME:;
#STEPSTYPE:dance-single;
#DESCRIPTION:;
#CHARTSTYLE:;
#DIFFICULTY:Beginner;
#METER:3;
#RADARVALUES:0.113747,0.174362,0.022535,0.000000,0.000000,106.000000,103.000000,3.000000,0.000000,0.000000,0.000000,0.000000,0.000000,0.000000,0.113747,0.174362,0.022535,0.000000,0.000000,106.000000,103.000000,3.000000,0.000000,0.000000,0.000000,0.000000,0.000000,0.000000;
#CREDIT:Pandemonium X;
#NOTES:
// measure 0
0000
0000
0000
0000
,  // measure 1
0000
0000
0000
0000
,  // measure 2
0000
0000
0000
0000
,  // measure 3
0000
0000
0000
0000
,  // measure 4
0000
0000
0000
0000
,  // measure 5
1000
0000
0000
0000
,  // measure 6
0001
0000
0000
0000
,  // measure 7
0100
0000
0000
0000
,  // measure 8
0010
0000
0100
0000
,  // measure 9
0001
0000
0000
0000
,  // measure 10
0000
0000
1000
0001
,  // measure 11
0100
0000
0000
0000
,  // measure 12
0000
0000
0010
1000
,  // measure 13
0100
0000
0000
0000
,  // measure 14
0000
0000
0010
0001
,  // measure 15
1000
0000
0000
0000
,  // measure 16
0000
0000
0001
0000
0100
0000
0000
0010
,  // measure 17
0000
0000
0000
0000
0000
0000
0000
0100
,  // measure 18
0000
0000
0000
0000
0000
0000
0000
0001
,  // measure 19
0000
0000
0000
0000
,  // measure 20
0000
1001
0000
0000
0000
0000
0000
0000
,  // measure 21
0001
0000
0000
0000
,  // measure 22
1000
0000
0000
0010
,  // measure 23
0010
0000
0000
0000
,  // measure 24
0100
0000
0000
0001
,  // measure 25
0001
0000
0000
0000
,  // measure 26
0010
0000
0000
0100
,  // measure 27
0100
0000
1000
0000
,  // measure 28
0001
0001
0001
0000
,  // measure 29
0100
0000
0000
0000
,  // measure 30
0010
0000
0000
0000
,  // measure 31
1000
0000
0000
0000
,  // measure 32
0001
0000
0000
0000
,  // measure 33
0010
0000
0000
0000
,  // measure 34
0100
0000
1000
0000
,  // measure 35
0100
0000
0000
0000
,  // measure 36
0000
0000
0000
0000
,  // measure 37
1001
0000
0001
0000
,  // measure 38
1000
0000
0000
0000
,  // measure 39
0010
0000
0100
0000
,  // measure 40
0010
0000
0000
0000
,  // measure 41
1000
0000
0000
0000
,  // measure 42
0001
0000
0000
0000
,  // measure 43
0010
0000
0000
0100
,  // measure 44
0100
0000
0000
0000
,  // measure 45
0010
0000
0001
0000
,  // measure 46
1000
0000
0000
0000
,  // measure 47
0001
0000
1000
0000
,  // measure 48
0010
0000
0000
0000
,  // measure 49
0100
0000
0010
0000
,  // measure 50
1000
0000
0000
0000
,  // measure 51
0001
0000
0000
0000
,  // measure 52
1000
0000
0000
0000
,  // measure 53
0010
0000
0000
0000
,  // measure 54
0100
0000
0000
0000
,  // measure 55
0001
0000
0000
0000
,  // measure 56
0010
0000
0100
0100
,  // measure 57
1000
0000
0000
0000
,  // measure 58
0001
0000
0000
0000
,  // measure 59
0100
0000
0000
0000
,  // measure 60
0010
0000
0100
0100
,  // measure 61
0010
0000
0000
0000
,  // measure 62
1000
0000
0000
0000
,  // measure 63
0001
0000
1000
0000
,  // measure 64
0010
0010
0010
0000
,  // measure 65
0100
0000
0000
0000
,  // measure 66
0010
0000
1000
0001
,  // measure 67
1000
0000
0000
0000
,  // measure 68
0100
0000
0010
0100
,  // measure 69
0010
0000
0000
0000
,  // measure 70
0001
0000
0100
0010
,  // measure 71
0100
0000
0000
0000
,  // measure 72
0010
0000
0000
0000
0000
0000
0000
1000
,  // measure 73
0000
0000
0000
0000
0000
0000
0000
0001
,  // measure 74
0000
0000
0000
0000
0000
0000
0000
0100
,  // measure 75
0000
0000
0000
0000
,  // measure 76
0000
0110
0000
0000
0000
0000
0000
0000
,  // measure 77
0000
0000
0000
0001
0000
0000
0000
0000
;

//---------------dance-single - ----------------
#NOTEDATA:;
#CHARTNAME:;
#STEPSTYPE:dance-single;
#DESCRIPTION:;
#CHARTSTYLE:;
#DIFFICULTY:Easy;
#METER:5;
#RADARVALUES:0.237151,0.406845,0.292951,0.000000,0.000000,221.000000,182.000000,39.000000,0.000000,0.000000,0.000000,0.000000,0.000000,0.000000,0.237151,0.406845,0.292951,0.000000,0.000000,221.000000,182.000000,39.000000,0.000000,0.000000,0.000000,0.000000,0.000000,0.000000;
#CREDIT:Pandemonium X;
#NOTES:
// measure 0
0000
0000
0000
0000
,  // measure 1
0000
0000
0000
0000
,  // measure 2
0000
0000
0000
0000
,  // measure 3
0000
0000
0000
0000
,  // measure 4
0000
0000
0000
0000
,  // measure 5
1000
0000
0000
0000
,  // measure 6
0001
0000
0000
0000
,  // measure 7
0100
0000
0010
0000
,  // measure 8
0100
0000
0110
1001
,  // measure 9
0001
0000
1000
0000
,  // measure 10
0100
0000
0110
1001
,  // measure 11
1000
0000
0001
0000
,  // measure 12
0100
0000
0110
1001
,  // measure 13
0001
0000
1000
0000
,  // measure 14
0100
0000
0110
1001
,  // measure 15
0001
0000
1000
0000
,  // measure 16
0010
0000
0000
0000
0110
0000
0000
0100
,  // measure 17
0000
0000
0000
0000
0000
0000
0000
0010
,  // measure 18
0000
0000
0000
0000
0000
0000
0000
1000
,  // measure 19
0000
0000
0000
0000
,  // measure 20
0000
0001
1000
0000
0001
0000
1000
0001
,  // measure 21
0000
1000
0100
1000
,  // measure 22
0010
0100
0001
0011
,  // measure 23
0011
0001
0010
0001
,  // measure 24
0100
0010
1000
1010
,  // measure 25
1010
0010
1000
0001
,  // measure 26
0010
0100
1000
1001
,  // measure 27
0110
0100
0010
1000
,  // measure 28
1001
0110
1001
0000
,  // measure 29
0000
0001
0001
1000
,  // measure 30
0001
0000
0000
0000
,  // measure 31
0010
0010
0010
0100
,  // measure 32
0010
0000
0000
0000
,  // measure 33
0100
0000
1000
0000
,  // measure 34
0010
0000
0100
0001
,  // measure 35
1000
0000
0000
0000
,  // measure 36
0001
0000
0000
0000
,  // measure 37
0010
0000
0001
0000
,  // measure 38
0100
0100
0100
0000
,  // measure 39
0010
0000
1000
0000
,  // measure 40
0100
0100
0100
0000
,  // measure 41
0010
0000
0100
0000
,  // measure 42
1000
0000
0001
1000
,  // measure 43
0010
0000
0000
0100
,  // measure 44
0001
0000
0000
0000
,  // measure 45
1000
0000
0001
0000
,  // measure 46
0010
0000
0000
0000
,  // measure 47
0100
0000
0010
0000
,  // measure 48
0001
0000
0000
0000
,  // measure 49
1000
0000
0001
0000
,  // measure 50
0100
0000
0010
0000
,  // measure 51
1000
0000
0000
0001
0000
0000
0000
1000
,  // measure 52
0000
0000
0010
0010
,  // measure 53
0100
0000
0010
0000
,  // measure 54
1000
0000
1001
0110
,  // measure 55
1001
0000
0001
0000
,  // measure 56
0010
0000
0110
1001
,  // measure 57
0110
0000
0100
0000
,  // measure 58
0001
0000
1001
0110
,  // measure 59
1001
0000
0001
0000
,  // measure 60
1000
0000
1001
0110
,  // measure 61
1001
0000
0000
0001
0000
0000
0000
0000
,  // measure 62
1001
0000
0000
1000
0000
0000
0000
0110
,  // measure 63
0000
0000
0000
0000
0100
0000
0000
0010
,  // measure 64
0000
0000
1000
0000
0000
0001
0000
0000
,  // measure 65
1000
0100
1000
0010
,  // measure 66
0100
0001
0011
0110
,  // measure 67
0100
1000
0010
0100
,  // measure 68
0001
1000
1001
1100
,  // measure 69
1000
0001
0010
0001
,  // measure 70
0100
0010
1010
1100
,  // measure 71
1000
0010
0100
0001
,  // measure 72
0010
0000
0100
0000
0010
0000
0000
0011
,  // measure 73
0000
0000
0000
0000
0000
0000
0000
0001
,  // measure 74
0000
0000
0000
0000
0000
0000
0000
0100
,  // measure 75
0000
0000
0000
0000
,  // measure 76
0000
0010
0100
0000
0001
0000
1000
0100
,  // measure 77
0000
0000
0000
0010
0000
0000
0000
0000
;

//---------------dance-single - ----------------
#NOTEDATA:;
#CHARTNAME:;
#STEPSTYPE:dance-single;
#DESCRIPTION:;
#CHARTSTYLE:;
#DIFFICULTY:Medium;
#METER:8;
#RADARVALUES:0.328363,0.390601,0.375578,0.052581,0.000000,306.000000,256.000000,50.000000,7.000000,0.000000,0.000000,0.000000,0.000000,0.000000,0.328363,0.390601,0.375578,0.052581,0.000000,306.000000,256.000000,50.000000,7.000000,0.000000,0.000000,0.000000,0.000000,0.000000;
#CREDIT:Pandemonium X;
#NOTES:
// measure 0
0000
0000
0000
0000
,  // measure 1
0000
0000
0000
0000
,  // measure 2
0000
0000
0000
0000
,  // measure 3
0000
0000
0000
0000
,  // measure 4
0000
0000
0000
0000
,  // measure 5
0001
0000
1000
0000
,  // measure 6
0010
0000
0110
0110
,  // measure 7
0100
0000
0010
0000
,  // measure 8
1000
0000
1001
0110
,  // measure 9
0001
1000
0010
1000
,  // measure 10
0100
0010
0011
1100
,  // measure 11
0100
1000
0010
0100
,  // measure 12
0001
1000
1001
0101
,  // measure 13
0001
0010
0001
0100
,  // measure 14
0010
1000
1100
0110
,  // measure 15
0100
1000
0001
0100
,  // measure 16
0001
0000
0010
0000
0100
0000
1000
1100
,  // measure 17
0000
0000
0000
0000
0000
0000
0000
0011
,  // measure 18
0000
0000
0000
0000
0000
0000
0000
0110
,  // measure 19
0000
0000
0000
0000
,  // measure 20
0000
1000
0001
0000
0100
0000
0010
1000
,  // measure 21
0000
0001
1000
0000
0100
0000
0010
0000
,  // measure 22
0100
1000
0010
0110
,  // measure 23
0101
0001
0010
0001
,  // measure 24
1000
0100
0010
0110
,  // measure 25
1100
0100
1000
0010
,  // measure 26
0100
0001
1000
1001
,  // measure 27
0110
0100
0010
1000
,  // measure 28
0001
0010
0100
1000
0001
0000
0000
0000
,  // measure 29
0000
1000
0100
0000
0001
0000
0100
0000
,  // measure 30
1000
0010
1000
0001
,  // measure 31
0010
0100
0010
0001
,  // measure 32
0100
0010
1000
0001
,  // measure 33
0010
0100
1000
0100
,  // measure 34
0001
0000
0100
0000
1000
0000
0010
0200
,  // measure 35
0000
0000
0000
0000
0300
0010
1000
0002
,  // measure 36
0000
0000
0000
0003
,  // measure 37
0010
0001
0100
1000
,  // measure 38
0100
0001
1000
0100
,  // measure 39
0010
0001
0010
1000
,  // measure 40
0010
0001
1000
0010
,  // measure 41
1000
1000
0001
0001
,  // measure 42
0100
0000
0010
0000
1000
0000
0100
0020
,  // measure 43
0000
0000
0000
0000
0030
0100
1000
0020
,  // measure 44
0000
0000
0000
0030
,  // measure 45
1001
0001
1000
0001
,  // measure 46
0010
0100
0000
1200
0000
0000
0000
0000
,  // measure 47
1300
0100
0010
0001
,  // measure 48
0100
0001
0010
0200
0000
0000
0000
0000
,  // measure 49
0310
0001
0100
0010
,  // measure 50
1000
0001
0010
0100
,  // measure 51
0110
0000
0000
1100
0000
0000
0000
1001
,  // measure 52
0000
0000
1001
0110
,  // measure 53
1001
0001
1000
0010
,  // measure 54
0100
0001
0011
1100
,  // measure 55
0100
1000
0010
0100
,  // measure 56
0001
0010
0110
1100
,  // measure 57
0100
1000
0010
0100
,  // measure 58
0001
0010
0110
0011
,  // measure 59
0001
0100
0001
1000
,  // measure 60
0100
0010
0011
1010
,  // measure 61
0010
0000
0000
0110
0000
0100
0010
0000
,  // measure 62
1001
0000
0000
1100
0000
0000
0000
0110
,  // measure 63
0000
0000
0100
0000
0010
0001
0100
0010
,  // measure 64
0000
1000
1000
0000
1000
1000
0000
0000
,  // measure 65
0001
1000
0010
1000
,  // measure 66
0100
0010
0011
0101
,  // measure 67
0001
0100
0010
0100
,  // measure 68
0001
1000
1010
1100
,  // measure 69
1000
0001
0010
0100
,  // measure 70
0010
0001
0101
0011
,  // measure 71
0001
0100
0010
1000
,  // measure 72
0100
0000
1000
0000
0010
0000
1000
1100
,  // measure 73
0000
0000
0000
0000
0000
0000
0000
0011
,  // measure 74
0000
0000
0000
0000
0000
0000
0000
0101
,  // measure 75
0000
0000
0000
0000
,  // measure 76
0000
0010
0100
0000
1001
0000
0010
0110
,  // measure 77
0000
0000
0000
2000
0000
0000
0000
0000
,  // measure 78
0000
0000
0000
0000
,  // measure 79
0000
0000
0000
0000
,  // measure 80
3000
0000
0000
0000
;

//---------------dance-single - ----------------
#NOTEDATA:;
#CHARTNAME:;
#STEPSTYPE:dance-single;
#DESCRIPTION:;
#CHARTSTYLE:;
#DIFFICULTY:Hard;
#METER:12;
#RADARVALUES:0.496837,0.540833,0.548344,0.135208,0.007512,463.000000,390.000000,73.000000,18.000000,0.000000,0.000000,0.000000,0.000000,0.000000,0.496837,0.540833,0.548344,0.135208,0.007512,463.000000,390.000000,73.000000,18.000000,0.000000,0.000000,0.000000,0.000000,0.000000;
#CREDIT:Pandemonium X;
#NOTES:
// measure 0
0000
0000
0000
0000
,  // measure 1
0000
0000
0000
0000
,  // measure 2
0000
0000
0000
0000
,  // measure 3
0000
0000
0000
0000
,  // measure 4
0000
0000
0000
0000
,  // measure 5
1000
0100
0100
1000
0000
0010
0010
0100
,  // measure 6
0000
0001
0001
0010
0100
0000
0010
0000
,  // measure 7
0001
0001
1000
0010
0000
0100
0100
0001
,  // measure 8
0000
0010
0010
0100
0110
0000
1001
0000
,  // measure 9
0001
0001
1000
1100
0000
1000
0001
0101
,  // measure 10
0000
0001
1000
0100
0110
0000
1001
0000
,  // measure 11
0001
0001
1000
1010
0000
1000
0001
0011
,  // measure 12
0000
0001
0010
0010
0110
0000
1100
0000
,  // measure 13
0001
0001
1000
1010
0000
0010
0100
0101
,  // measure 14
0000
0001
0010
0100
0110
0000
1001
0000
,  // measure 15
0001
0001
1000
1100
0000
1000
0010
0110
,  // measure 16
0000
0100
0100
0010
0110
0000
0001
2001
,  // measure 17
0000
0000
0000
0000
0000
0000
3000
0201
,  // measure 18
0000
0000
0000
0000
0000
0000
0300
0012
,  // measure 19
0000
0000
0000
0000
,  // measure 20
0003
1001
0110
0000
0101
0000
0011
1100
,  // measure 21
0000
1000
0010
0000
1000
0000
0100
0000
,  // measure 22
0010
0001
0010
0100
0000
0010
0011
0000
,  // measure 23
1100
0100
1000
0000
0010
0000
0100
0000
,  // measure 24
0010
0100
1000
0100
0000
0010
0110
0000
,  // measure 25
1001
1000
0001
0000
0010
0000
0100
0000
,  // measure 26
0010
0001
0100
0010
0000
1000
1001
0000
,  // measure 27
0011
0010
0100
0000
0010
0000
0001
0000
,  // measure 28
1000
0100
0001
0100
1000
0000
0010
0010
,  // measure 29
0100
0001
0001
0001
0001
0000
1000
0001
,  // measure 30
0010
0100
0000
0200
0000
0310
0100
0010
,  // measure 31
0000
0010
0001
0001
0001
0000
0100
0010
,  // measure 32
0010
0100
0000
0020
0000
0130
0010
1000
,  // measure 33
0000
0100
0010
0010
0100
0000
1000
0100
,  // measure 34
0000
1000
0010
0100
0001
0010
0100
2000
,  // measure 35
0000
0000
0000
0000
0000
3001
0100
0002
,  // measure 36
0000
0000
0000
0000
0000
1003
0001
0001
,  // measure 37
0011
0010
0010
0010
0010
0000
0100
0010
,  // measure 38
0001
1000
0000
0002
0000
1003
0010
0100
,  // measure 39
0000
0010
0100
0100
0100
0000
0010
0100
,  // measure 40
0001
1000
0000
0002
0000
0013
0100
1000
,  // measure 41
0000
0100
1000
1000
0100
0000
1000
0010
,  // measure 42
0000
0100
0010
0100
0010
1000
0100
0020
,  // measure 43
0000
0000
0000
0000
0000
0130
1000
0020
,  // measure 44
0000
0130
0100
0010
0100
0100
0001
1000
,  // measure 45
0001
1000
1000
1000
1000
0000
0001
1000
,  // measure 46
0100
0010
0000
1200
0000
0000
0000
0000
,  // measure 47
0300
1000
0001
0001
0001
0000
0010
0001
,  // measure 48
0100
0001
1000
0020
0000
0000
0000
0000
,  // measure 49
0130
0001
0001
0001
0001
0000
1000
0001
,  // measure 50
0010
0100
0010
0001
0000
0000
1000
0001
,  // measure 51
0100
0100
0001
0011
0000
0001
0100
0110
,  // measure 52
0000
0010
1000
0100
0110
0000
1001
0000
,  // measure 53
0101
0000
0101
0000
0001
0010
0000
0110
,  // measure 54
0000
0010
0100
1000
0000
1000
0100
0010
,  // measure 55
0001
0100
0010
1000
0000
0100
0010
0001
,  // measure 56
0000
0001
0010
1000
1010
0000
0011
0000
,  // measure 57
1001
0000
1001
0000
1000
0100
0000
1100
,  // measure 58
0000
1000
0100
0010
0000
0001
0010
0100
,  // measure 59
1000
0010
0100
0010
0000
0100
0010
1000
,  // measure 60
0000
1000
0010
0001
0011
0000
1010
0000
,  // measure 61
0100
0100
1000
0010
0000
0100
0001
0010
,  // measure 62
0100
0010
0001
1000
0000
0001
0100
0100
,  // measure 63
0000
0000
0001
0000
1000
0000
0000
0000
0001
0000
0010
0100
0010
0100
2000
0000
,  // measure 64
0000
3001
1001
0000
1000
1001
0000
0000
,  // measure 65
0110
0010
0010
1010
0000
0010
0010
0110
,  // measure 66
0000
0010
1000
1000
1010
0000
0101
0000
,  // measure 67
0001
0010
0100
1100
0000
0100
0010
0011
,  // measure 68
0000
0001
0010
0100
0110
0000
1001
0000
,  // measure 69
0001
0001
0100
0110
0000
0010
0010
0110
,  // measure 70
0000
0100
0100
0010
0110
0000
1001
0000
,  // measure 71
0001
0001
1000
1010
0000
0001
0001
0101
,  // measure 72
0000
1000
0100
0010
0011
0000
0001
2001
,  // measure 73
0000
0000
0000
0000
0000
0000
3000
0201
,  // measure 74
0000
0000
0000
0000
0000
0000
0300
1020
,  // measure 75
0000
0000
0000
0000
,  // measure 76
0030
1010
0011
0000
1100
0000
0101
1100
,  // measure 77
0000
0000
0000
0020
0000
0000
0000
0000
,  // measure 78
0000
0000
0000
0000
,  // measure 79
0000
0000
0000
0000
,  // measure 80
0030
0000
0000
0000
;
