#TITLE:Madness;
#SUBTITLE:;
#ARTIST:Saxsquatch;
#TITLETRANSLIT:;
#SUBTITLETRANSLIT:;
#ARTISTTRANSLIT:;
#GENRE:;
#CREDIT:;
#BANNER:Madness.png;
#BACKGROUND:Madness-bg.png;
#LYRICSPATH:;
#CDTITLE:;
#MUSIC:Madness.ogg;
#OFFSET:-0.069000;
#SAMPLESTART:22.926001;
#SAMPLELENGTH:17.153000;
#SELECTABLE:YES;
#BPMS:0.000000=125.999992
;
#STOPS:224.000000=1.441000
;
#BGCHANGES:;
#KEYSOUNDS:;
#ATTACKS:;

//---------------dance-single - ----------------
#NOTES:
     dance-single:
     :
     Beginner:
     4:
     0.132240,0.242815,0.119216,0.000000,0.000000,132.000000,115.000000,17.000000,0.000000,0.000000,0.000000,0.132240,0.242815,0.119216,0.000000,0.000000,132.000000,115.000000,17.000000,0.000000,0.000000,0.000000:
// measure 0
0000
0000
0000
0000
,  // measure 1
1000
0000
0000
0000
,  // measure 2
1000
0000
0000
0000
,  // measure 3
1000
0000
0000
0000
,  // measure 4
1000
0000
0001
0000
,  // measure 5
0100
0000
0000
0000
,  // measure 6
0100
0000
0000
0000
,  // measure 7
0100
0000
0000
0000
,  // measure 8
0010
0000
0100
0000
,  // measure 9
1001
0000
0000
0000
,  // measure 10
0000
0000
0000
0000
,  // measure 11
0001
0001
1000
1000
,  // measure 12
0000
0000
0000
0000
,  // measure 13
0110
1000
0000
0000
,  // measure 14
0110
0001
0000
0000
,  // measure 15
1001
0100
0000
0000
,  // measure 16
0001
0000
1000
0000
,  // measure 17
1001
0010
0000
0000
,  // measure 18
0110
0001
0000
0000
,  // measure 19
0110
1000
0000
0000
,  // measure 20
0001
0000
1000
0000
,  // measure 21
0110
0100
0100
0000
,  // measure 22
0110
0010
0010
0000
,  // measure 23
1001
0001
0001
0000
,  // measure 24
1000
0000
0001
0000
,  // measure 25
1001
1000
1000
0000
,  // measure 26
0110
0010
0010
0000
,  // measure 27
0110
0100
0100
0000
,  // measure 28
0001
0001
0001
0001
,  // measure 29
0100
0000
0000
0000
,  // measure 30
0010
0000
0000
0000
,  // measure 31
1000
0000
0000
0000
,  // measure 32
0100
0000
1000
0000
,  // measure 33
0001
0000
0000
0000
,  // measure 34
0100
0000
0000
0000
,  // measure 35
0010
0000
0000
0000
,  // measure 36
1000
0000
0001
0000
,  // measure 37
0100
0000
0010
0000
,  // measure 38
0100
0000
0010
0000
,  // measure 39
0000
0000
0000
0000
,  // measure 40
1000
0000
0000
0000
,  // measure 41
0001
0000
1000
0000
,  // measure 42
0010
0000
1000
1000
,  // measure 43
0001
0000
0010
0000
,  // measure 44
0100
0000
0000
0000
,  // measure 45
0010
0000
0001
0000
,  // measure 46
1000
0000
0010
0010
,  // measure 47
0100
0000
0010
0000
,  // measure 48
1001
0000
0000
0000
,  // measure 49
0110
0000
0000
0000
,  // measure 50
0001
0000
0000
0000
,  // measure 51
1000
0000
0000
0000
,  // measure 52
0100
0000
0010
0000
,  // measure 53
1001
0000
0000
0000
,  // measure 54
0000
0000
0000
0000
,  // measure 55
0010
0010
0100
0100
,  // measure 56
0000
0001
0000
0000
,  // measure 57
0000
0000
1000
0001
,  // measure 58
1000
0000
0010
0000
,  // measure 59
0000
0100
0000
0000
,  // measure 60
0000
0010
0000
0000
,  // measure 61
0000
0000
1000
0001
,  // measure 62
1000
0000
0100
0000
,  // measure 63
0000
0010
0000
0000
,  // measure 64
0000
0001
0000
0000
,  // measure 65
0000
0100
0000
0000
,  // measure 66
0000
0010
0000
0000
,  // measure 67
0000
1000
0000
0001
,  // measure 68
0000
0100
0000
0000
,  // measure 69
0000
1001
0000
0000
;

//---------------dance-single - ----------------
#NOTES:
     dance-single:
     :
     Easy:
     7:
     0.267485,0.342396,0.140254,0.189343,0.000000,267.000000,247.000000,20.000000,27.000000,0.000000,0.000000,0.267485,0.342396,0.140254,0.189343,0.000000,267.000000,247.000000,20.000000,27.000000,0.000000,0.000000:
// measure 0
0000
0000
0000
0000
,  // measure 1
0002
0003
2000
3000
,  // measure 2
0020
0030
0200
0300
,  // measure 3
0020
0030
2000
3000
,  // measure 4
0001
0010
0100
1100
,  // measure 5
0100
0000
0000
0000
,  // measure 6
1000
0000
0000
0000
,  // measure 7
0010
0000
0000
0000
,  // measure 8
0100
0001
0010
0100
,  // measure 9
1000
1000
0001
0001
,  // measure 10
0100
0100
0010
0010
,  // measure 11
1000
0100
0010
0001
,  // measure 12
0110
0000
0000
0000
,  // measure 13
1001
0000
1000
0010
1000
0000
0010
0000
,  // measure 14
0000
0000
1000
0010
1000
0000
0010
0000
,  // measure 15
0000
0000
1000
0010
1000
0000
0001
0000
,  // measure 16
1000
0100
0001
0100
,  // measure 17
1000
0000
0001
0010
0001
0000
0010
0000
,  // measure 18
0000
0000
0010
0001
0001
0000
1000
0000
,  // measure 19
0000
0000
0001
0010
0001
0000
0010
0000
,  // measure 20
0000
0100
0010
0100
,  // measure 21
1001
0000
1000
0001
1000
0000
1001
0000
,  // measure 22
0001
0000
0100
0010
0100
0000
0110
0000
,  // measure 23
0010
0000
1000
0100
1000
0000
1100
0000
,  // measure 24
0100
1000
0010
0100
,  // measure 25
0001
0000
0010
0100
0010
0000
0110
0000
,  // measure 26
0100
0000
1000
0100
1000
0000
1100
0000
,  // measure 27
1000
0000
0010
0100
0010
0000
0110
0000
,  // measure 28
1000
0100
0010
0001
,  // measure 29
1000
0100
0020
0000
,  // measure 30
0130
1000
0002
0000
,  // measure 31
0013
0100
2000
0000
,  // measure 32
3100
0000
1000
0000
0010
0100
0010
0000
,  // measure 33
0100
0001
2002
3003
,  // measure 34
1000
0100
0220
0330
,  // measure 35
0100
1000
2020
3030
,  // measure 36
0010
0000
1000
0000
0001
0010
0100
0000
,  // measure 37
1200
0300
0020
0030
,  // measure 38
0002
0003
0200
0300
,  // measure 39
0020
0000
0000
0000
,  // measure 40
0130
0010
1000
0001
,  // measure 41
1000
0001
0010
0100
,  // measure 42
0010
0000
0001
0000
0100
0010
0100
0000
,  // measure 43
0010
1000
0100
1000
,  // measure 44
0001
0000
1000
0000
0010
1000
0100
0000
,  // measure 45
0010
0000
0001
0000
0100
0010
0100
0000
,  // measure 46
0010
0000
1000
0000
0001
0010
0001
0000
,  // measure 47
0010
0000
0001
0000
0100
0010
0100
0000
,  // measure 48
0010
0100
0001
1000
,  // measure 49
2002
0000
0000
3003
,  // measure 50
0020
0000
0000
0030
,  // measure 51
0200
0000
0000
0300
,  // measure 52
0001
0100
0001
1000
,  // measure 53
0001
0001
1000
1000
,  // measure 54
0010
0010
0100
0100
,  // measure 55
0001
0100
0010
1000
,  // measure 56
0000
0000
1000
0020
0000
0000
0000
0000
,  // measure 57
0000
0000
0000
0000
0130
0000
0001
0100
,  // measure 58
0001
0010
0100
0010
,  // measure 59
0001
0000
1000
0000
0100
0000
0010
0010
,  // measure 60
0010
0000
0100
0000
1000
0000
0010
0100
,  // measure 61
0010
0000
0100
0000
0001
0000
0010
0001
,  // measure 62
0010
0000
0001
0000
1000
0000
0100
0010
,  // measure 63
0100
0010
0001
0100
,  // measure 64
0010
1000
0001
0010
,  // measure 65
0001
0000
0100
0000
0010
0000
1000
0100
,  // measure 66
1000
0100
1000
0010
,  // measure 67
0100
0101
0001
0011
,  // measure 68
1100
1001
0000
0000
,  // measure 69
0000
0220
0000
0330
;

//---------------dance-single - ----------------
#NOTES:
     dance-single:
     :
     Medium:
     12:
     0.374680,0.464680,0.119216,0.126229,0.080646,374.000000,357.000000,17.000000,18.000000,0.000000,0.000000,0.374680,0.464680,0.119216,0.126229,0.080646,374.000000,357.000000,17.000000,18.000000,0.000000,0.000000:
// measure 0
0000
0000
0000
0000
,  // measure 1
0001
0001
0001
0000
1000
1000
1000
0000
,  // measure 2
0010
0010
0010
0000
0100
0100
0100
0000
,  // measure 3
0010
0010
0010
0000
1000
1000
1000
0000
,  // measure 4
0001
0100
0010
1000
0001
0100
0010
0000
,  // measure 5
1001
0000
1000
0000
0001
0000
0010
0100
,  // measure 6
0000
0010
0001
0000
0100
0010
1000
0000
,  // measure 7
0000
0001
1000
0000
0100
0000
0010
0000
,  // measure 8
0000
0001
0010
1000
0010
0001
0100
1000
,  // measure 9
0100
0100
0010
0010
,  // measure 10
1000
1000
0001
0001
,  // measure 11
1000
0100
0010
0001
1000
0100
0010
0001
,  // measure 12
1001
0000
0000
0000
,  // measure 13
0101
0000
0000
0000
0000
0000
0001
0000
0000
0100
0000
0000
0010
0000
0000
0000
0000
1000
0000
0000
0000
0000
0000
0000
,  // measure 14
0000
0000
0000
0000
0000
0000
0100
0000
0000
0010
0000
0000
0001
0000
0000
0000
0000
1000
0000
0000
0000
0000
0000
0000
,  // measure 15
0000
0000
0000
0000
0000
0000
0010
0000
0000
0100
0000
0000
0001
0000
0000
0000
0000
0010
0000
0000
0000
0000
0000
0000
,  // measure 16
0000
0000
0000
0000
0000
0000
0100
0000
0000
0010
0000
0000
0001
0000
0000
0000
0000
1000
0000
0000
0000
0110
0000
0000
,  // measure 17
0000
0000
0000
0000
0000
0000
0100
0000
0000
0010
0000
0000
1000
0000
0000
0000
0000
0100
0000
0000
0000
0000
0000
0000
,  // measure 18
0000
0000
0000
0000
0000
0000
0010
0000
0000
0001
0000
0000
0100
0000
0000
0000
0000
0010
0000
0000
0000
0000
0000
0000
,  // measure 19
0000
0000
0000
0000
0000
0000
0100
0000
0000
0010
0000
0000
1000
0000
0000
0000
0000
0001
0000
0000
0000
0000
0000
0000
,  // measure 20
0000
0000
0100
0000
0010
0100
0000
0000
0010
0000
0100
0000
0001
1000
0000
0000
,  // measure 21
0101
0000
0000
0010
0000
0000
1000
0000
0000
0100
0000
0000
0010
0000
0000
0000
0000
0011
0000
0000
0000
0000
0000
0000
,  // measure 22
0010
0000
0000
0100
0000
0000
1000
0000
0000
0010
0000
0000
0100
0000
0000
0000
0000
1001
0000
0000
0000
0000
0000
0000
,  // measure 23
0001
0000
0000
1000
0000
0000
0001
0000
0000
0010
0000
0000
0100
0000
0000
0000
0000
1100
0000
0000
0000
0000
0000
0000
,  // measure 24
1000
0000
0000
0100
0000
0000
0001
0000
0000
0100
0000
0000
1000
0000
0000
0000
0000
0010
0000
0000
0000
0100
0000
0000
,  // measure 25
0010
0000
0000
1000
0000
0000
0010
0000
0000
0100
0000
0000
0001
0000
0000
0000
0000
0011
0000
0000
0000
0000
0000
0000
,  // measure 26
0010
0000
0000
0001
0000
0000
0100
0000
0000
0010
0000
0000
1000
0000
0000
0000
0000
1100
0000
0000
0000
0000
0000
0000
,  // measure 27
0100
0000
0000
1000
0000
0000
0010
0000
0000
0100
0000
0000
0001
0000
0000
0000
0000
0011
0000
0000
0000
0000
0000
0000
,  // measure 28
0002
2003
3020
0230
,  // measure 29
0301
0000
1000
1000
0200
0000
0000
0000
,  // measure 30
0310
0000
0100
0100
2000
0000
0000
0000
,  // measure 31
3010
0000
0100
0100
0020
0000
0000
0000
,  // measure 32
0130
0000
0000
0000
0000
0000
0001
0000
0000
0001
0000
0000
1000
0000
0000
0000
0000
0001
0000
0000
0000
0000
0000
0000
,  // measure 33
0010
0001
0100
0010
2000
0000
3000
0000
,  // measure 34
1000
0010
0100
0001
0020
0000
0030
0000
,  // measure 35
0010
0100
1000
0001
2000
0000
3000
0000
,  // measure 36
2000
0000
3002
0000
0103
0010
1000
0000
,  // measure 37
0001
0001
0001
0000
1000
1000
1000
0000
,  // measure 38
0100
0100
0100
0000
0010
0010
0010
0000
,  // measure 39
2002
0000
0000
3003
,  // measure 40
1000
0100
0010
0001
1000
0100
1000
0000
,  // measure 41
0001
0100
0010
0100
0001
1000
0001
1000
,  // measure 42
0000
1000
0100
0010
0100
1000
0001
0000
,  // measure 43
0000
1000
0010
0100
0001
1000
0001
1000
,  // measure 44
0000
0001
0100
0010
1000
0100
0010
0000
,  // measure 45
0000
0100
1000
0010
1000
0001
1000
0001
,  // measure 46
0000
0010
0001
0100
0001
1000
0001
0000
,  // measure 47
0000
0010
0100
1000
0010
0100
0010
0100
,  // measure 48
0010
1000
0001
0010
,  // measure 49
1100
0000
0000
0000
,  // measure 50
0011
0000
0000
0000
,  // measure 51
0101
0000
0000
0000
,  // measure 52
0000
1000
0010
0001
0010
0100
0001
1000
,  // measure 53
0100
0100
0010
0010
,  // measure 54
0001
0001
1000
1000
,  // measure 55
0001
0100
0010
1000
0001
0100
0010
1000
,  // measure 56
0000
0000
1000
2002
0000
0000
0000
0000
,  // measure 57
0000
0000
3003
0000
0001
0010
0100
0010
,  // measure 58
0001
0000
0000
1000
0100
0010
0100
1000
,  // measure 59
0010
0100
0001
0000
1000
0000
0010
0010
,  // measure 60
0010
0000
1000
0000
0001
0000
0010
0001
,  // measure 61
0100
0010
1000
0000
0100
0000
0010
0100
,  // measure 62
1000
0000
0100
0000
1000
0000
0010
0100
,  // measure 63
0001
0010
0100
0000
0010
0000
0001
1000
,  // measure 64
0001
1000
0010
1000
0010
0100
0001
0010
,  // measure 65
0100
1000
0000
0100
1000
0010
0100
0001
,  // measure 66
0010
0000
0000
0100
0010
0001
0010
0100
,  // measure 67
1000
0000
0001
0000
0100
0010
0000
0010
0100
0000
0001
0000
1000
0001
0000
0001
,  // measure 68
0010
0100
0000
0100
1000
0000
0000
0000
0000
0000
0000
0000
0000
0000
0000
0000
,  // measure 69
0000
0022
0000
0033
;

//---------------dance-single - ----------------
#NOTES:
     dance-single:
     :
     Hard:
     15:
     0.595079,0.660335,0.476865,0.455827,0.434789,594.000000,526.000000,68.000000,65.000000,0.000000,0.000000,0.595079,0.660335,0.476865,0.455827,0.434789,594.000000,526.000000,68.000000,65.000000,0.000000,0.000000:
// measure 0
0000
0000
0000
0000
,  // measure 1
0001
0100
0001
0010
0001
0000
0000
0000
1000
0010
0100
0010
1000
0000
0000
0000
,  // measure 2
0001
1000
0010
1000
0001
0000
0000
0000
1000
0100
1000
0001
1000
0000
0000
0000
,  // measure 3
0001
0010
0100
1000
0001
0000
0000
0000
1000
0100
0010
0001
1000
0000
0000
0000
,  // measure 4
0001
0001
0100
0010
0100
0100
0010
1000
0001
0001
1000
0001
0020
0000
0000
0000
,  // measure 5
0030
0001
0010
1000
0010
0001
1000
0001
,  // measure 6
0000
1000
0100
0001
0100
1000
0001
0000
,  // measure 7
0000
0100
1000
0100
0001
1000
0001
0100
,  // measure 8
0000
0000
0002
0003
0020
0030
2000
3000
0020
0030
0002
0003
2000
3000
0020
0030
,  // measure 9
1020
0130
0021
0130
,  // measure 10
1020
0130
0021
0130
,  // measure 11
1000
0000
0001
0100
0000
0100
0010
0000
0010
1000
0000
1000
0100
0000
0100
0010
0000
0010
0001
0000
0001
1000
0000
1000
,  // measure 12
0010
0010
0010
0010
,  // measure 13
1001
0000
0000
0000
0000
0000
1100
0000
0000
0001
0000
0000
0101
0000
0000
0001
0000
1000
0000
0000
1000
0100
0000
0100
,  // measure 14
0010
0000
0000
0000
0000
0000
0110
0000
0000
0100
0000
0000
1100
0000
0000
0001
0000
0100
0020
0000
0000
0000
0000
0000
,  // measure 15
0130
0000
0000
0000
0000
0000
0101
0000
0000
1000
0000
0000
1100
0000
0000
0100
0000
0010
0000
0000
0000
0000
0000
0000
,  // measure 16
0210
0000
1300
0000
0120
0000
1030
0000
1001
0000
0001
0100
0000
0000
0010
0000
,  // measure 17
1001
0000
0000
0000
0000
0000
0101
0000
0000
0100
0000
0000
0110
0000
0000
0010
0000
1000
0000
0000
0001
0010
0000
0010
,  // measure 18
0100
0000
0000
0000
0000
0000
0110
0000
0000
0010
0000
0000
0011
0000
0000
0001
0000
1000
0200
0000
0000
0000
0000
0000
,  // measure 19
0310
0000
0000
0000
0000
0000
0110
0000
0000
0010
0000
0000
0011
0000
0000
0001
0000
0100
0000
0000
0000
0000
0000
0000
,  // measure 20
0000
0000
0000
0000
0010
0000
0100
0000
0001
0000
1000
0000
0100
0000
0000
0010
0000
0000
0000
0000
0000
0100
0000
0000
0010
0000
0000
0001
0000
0000
0010
0000
0000
0100
0000
0000
0010
0000
0000
0001
0000
0000
0000
0000
0000
0000
0000
0000
,  // measure 21
1000
0000
0001
0100
0000
0000
0210
0000
0000
0001
0000
0000
0310
0000
0000
0100
0000
0010
0000
0000
1000
0001
0000
0001
,  // measure 22
0010
0000
0000
0000
0000
0000
0210
0000
0000
1000
0000
0000
0310
0000
0000
0001
0000
1000
0020
0000
0000
0000
0030
0000
,  // measure 23
1001
0000
0000
0000
0000
0000
2001
0000
0000
0010
0000
0000
3001
0000
0000
1000
0000
0010
0000
0000
0000
0000
0000
0000
,  // measure 24
0201
0000
0310
0000
1200
0000
0310
0000
1001
0000
0001
0100
0000
0010
1000
0000
,  // measure 25
1001
0000
0000
0000
0000
0000
1020
0000
0000
0100
0000
0000
1030
0000
0000
0010
0000
0100
0000
0000
0001
0010
0000
0010
,  // measure 26
0100
0000
0000
0000
0000
0000
2100
0000
0000
0100
0000
0000
3010
0000
0000
0100
0000
0010
2000
0000
0000
0000
0000
0000
,  // measure 27
3001
0000
0000
0000
0000
0000
0021
0000
0000
0100
0000
0000
0031
0000
0000
1000
0000
0010
0000
0000
0000
0000
0000
0000
,  // measure 28
2000
3010
0002
0013
0002
0103
2000
3100
,  // measure 29
0010
0100
1000
0000
0001
0000
1000
0000
0020
0000
0000
0000
0000
0000
0000
0000
,  // measure 30
0130
0001
0010
0000
0100
0000
0010
0000
0002
0000
0000
0000
0000
0000
0000
0000
,  // measure 31
1003
0010
0100
0000
0010
0000
1000
0000
0200
0000
0000
0000
0000
0000
0000
0000
,  // measure 32
0310
0000
0000
0001
0000
0000
1000
0000
0000
0000
0000
0000
0001
0000
0000
0000
0000
0000
1000
0000
0000
0000
0000
0000
0010
0000
0000
0000
0000
0000
0100
0000
0000
0000
0002
0000
0000
0000
0000
0000
0000
0000
0000
0000
0000
0000
0000
0000
,  // measure 33
0013
0100
1000
0000
0100
0000
0010
0000
0022
0000
0000
0000
0000
0000
0033
0000
,  // measure 34
0100
0010
0001
0000
1000
0000
0010
0000
0202
0000
0000
0000
0000
0000
0303
0000
,  // measure 35
1000
0100
0010
0000
0100
0000
1000
0000
2200
0000
0000
0000
0000
0000
3300
0000
,  // measure 36
2001
0000
0000
0000
0000
0000
0000
0000
0000
0000
0000
0000
3010
0000
0000
0100
0000
0000
0010
0000
0000
0000
0000
0000
0010
0000
0100
0000
0001
0000
1000
0000
0000
0010
0000
0000
1000
0000
0000
0001
0000
0000
0000
0000
0000
0000
0000
0000
,  // measure 37
0001
0100
1000
0100
0001
0000
0000
0000
1000
0100
0001
0100
1000
0000
0000
0000
,  // measure 38
0001
0010
1000
0010
0001
0000
0000
0000
0001
0100
1000
0100
0001
0000
0000
0000
,  // measure 39
4000
0004
0000
0000
0000
0000
0000
0000
0000
0000
0000
0000
3003
0000
0000
0000
,  // measure 40
1000
1000
0001
0010
0100
0100
0010
0001
1000
0010
0100
0001
1000
0000
0000
0000
,  // measure 41
1000
0100
0001
0100
1100
0010
0110
1000
,  // measure 42
0000
0001
0010
1000
0011
1000
0101
0000
,  // measure 43
0000
0001
0100
0010
1010
1000
1100
0100
,  // measure 44
1001
0000
0000
0000
0000
0000
1000
0000
0000
0000
0000
0000
0001
0000
0010
0000
0100
0000
1000
0000
0000
0001
0000
0000
1000
0000
0000
0010
0000
0000
1000
0000
0000
0001
0000
0000
0010
0000
0000
0001
0000
0000
0000
0000
0000
0000
0000
0000
,  // measure 45
1001
1000
0010
0001
0011
0010
0110
0001
,  // measure 46
0000
1000
0100
0001
0101
0100
1100
0000
,  // measure 47
0000
0001
0010
1000
1010
0010
0110
0001
,  // measure 48
1000
0100
0010
0000
0100
0000
1000
0000
0010
0000
0100
0000
0001
0000
1000
0000
,  // measure 49
0001
0010
0010
1000
0010
0001
1000
0001
,  // measure 50
0000
0100
0100
1000
0100
0001
1000
0000
,  // measure 51
0000
0100
0010
0010
0001
0010
0100
1000
,  // measure 52
0000
0000
2000
3000
0200
0300
0002
0003
0200
0300
2000
3000
0020
0030
2000
3000
,  // measure 53
0201
0310
1200
0310
,  // measure 54
0102
1003
2100
3001
,  // measure 55
1000
0000
0010
1000
0000
1000
0100
0000
0100
0010
0000
0010
0001
0000
0001
0010
0000
0010
0100
0000
0100
1000
0000
1000
,  // measure 56
0010
0000
0110
0020
1000
0000
0100
0000
,  // measure 57
1000
0000
0100
0000
1030
0100
0110
0100
,  // measure 58
1100
0000
0000
0100
0010
0001
0021
0130
,  // measure 59
2100
0000
3010
0000
0100
0000
0100
0000
0010
0000
0010
0000
0100
0001
0010
0000
,  // measure 60
0100
1000
0001
0010
1000
0010
0021
0130
,  // measure 61
2100
3010
0100
0010
1000
0001
0021
0100
,  // measure 62
0031
0000
0000
1000
0100
0001
0201
0310
,  // measure 63
0210
0000
1300
0000
1001
0000
1000
0000
0001
0200
0000
0000
0320
0000
1030
0000
,  // measure 64
0200
0310
1001
1000
0100
0001
0100
1000
,  // measure 65
0010
1000
0001
0010
1000
0010
0001
1000
,  // measure 66
0001
0000
0001
0100
1000
0100
0001
0100
,  // measure 67
0010
0000
1000
0000
0001
0001
0000
1000
1000
0000
0010
0000
0100
0100
0000
0010
,  // measure 68
0010
0010
0000
1000
1001
0000
0000
0000
0000
0000
0000
0000
0000
0000
0000
0000
,  // measure 69
0000
0220
0000
0330
;
