#TITLE:MAD ATTACK;
#SUBTITLE:;
#ARTIST:HALFBY;
#TITLETRANSLIT:;
#SUBTITLETRANSLIT:;
#ARTISTTRANSLIT:;
#GENRE:;
#CREDIT:;
#BANNER:MAD ATTACK.png;
#BACKGROUND:MAD ATTACK-bg.png;
#LYRICSPATH:;
#CDTITLE:;
#MUSIC:MAD ATTACK.ogg;
#OFFSET:-0.001000;
#SAMPLESTART:27.420000;
#SAMPLELENGTH:14.967000;
#SELECTABLE:YES;
#BPMS:0.000000=139.975998
;
#STOPS:60.000000=0.857000,
154.000000=0.643000,
154.500000=0.643000
;
#BGCHANGES:0.000=MAD ATTACK.mp4=1.000=0=0=0=StretchNoLoop====,
99999=-nosongbg-=1.000=0=0=0 // don't automatically add -songbackground-
;
#KEYSOUNDS:;
#ATTACKS:;

//---------------dance-single - ----------------
#NOTES:
     dance-single:
     :
     Beginner:
     4:
     0.154140,0.218611,0.093824,0.000000,0.000000,115.000000,105.000000,10.000000,0.000000,0.000000,0.000000,0.154140,0.218611,0.093824,0.000000,0.000000,115.000000,105.000000,10.000000,0.000000,0.000000,0.000000:
// measure 0
0000
0000
0000
0000
,  // measure 1
0000
0000
0000
0000
,  // measure 2
0000
0000
0000
0000
,  // measure 3
0000
0000
0000
0000
,  // measure 4
0001
0000
0000
0000
,  // measure 5
0000
0000
0000
0000
,  // measure 6
1000
0000
0000
0000
,  // measure 7
0000
0000
0000
0000
,  // measure 8
0001
0000
0000
0000
,  // measure 9
1000
0000
0000
0000
,  // measure 10
0001
0000
0000
0000
,  // measure 11
1000
0000
0000
0000
,  // measure 12
0001
0000
1000
0000
,  // measure 13
0001
0000
1000
0000
,  // measure 14
0001
1000
0001
1000
,  // measure 15
0000
0000
0110
0000
,  // measure 16
0000
0000
0010
0000
,  // measure 17
1000
1000
0001
0000
,  // measure 18
0000
0000
0010
0000
,  // measure 19
0100
0100
0010
0000
,  // measure 20
0000
0000
0001
0000
,  // measure 21
1000
1000
0010
0000
,  // measure 22
0000
0000
0100
0000
,  // measure 23
0000
1001
0110
0000
,  // measure 24
0010
0000
1000
0000
,  // measure 25
0001
0001
0010
0000
,  // measure 26
0100
0000
0010
0000
,  // measure 27
0001
0001
1000
0000
,  // measure 28
0001
0000
0100
0000
,  // measure 29
0010
0010
1000
0000
,  // measure 30
0001
0000
0010
0000
,  // measure 31
0000
0000
0100
0100
,  // measure 32
0100
0000
1000
0000
,  // measure 33
0000
0000
0001
0001
,  // measure 34
0001
0000
0100
0000
,  // measure 35
0000
0000
0010
0000
,  // measure 36
0100
0000
0001
0000
,  // measure 37
1000
0000
0001
1000
,  // measure 38
0001
1000
0000
0010
,  // measure 39
0000
0100
0000
0001
,  // measure 40
0000
1000
1000
0001
,  // measure 41
0000
1000
0000
0100
,  // measure 42
0000
0000
0000
0010
,  // measure 43
0010
0010
0000
0010
,  // measure 44
0010
0010
0000
0010
,  // measure 45
0010
0010
0000
1001
,  // measure 46
0000
0000
0000
0001
,  // measure 47
0000
1000
0000
0010
,  // measure 48
0000
0100
0000
0010
,  // measure 49
0000
1000
0000
0001
,  // measure 50
0000
0010
0100
0010
,  // measure 51
0000
0001
0000
0100
,  // measure 52
0000
0010
1000
0001
,  // measure 53
0000
1000
0000
0100
,  // measure 54
0000
0010
0000
0110
,  // measure 55
0000
0000
0000
1001
,  // measure 56
0000
0000
0000
0110
,  // measure 57
0000
0000
0000
1001
,  // measure 58
0110
1001
0000
0000
;

//---------------dance-single - ----------------
#NOTES:
     dance-single:
     :
     Easy:
     8:
     0.319003,0.491875,0.309621,0.365915,0.014074,238.000000,205.000000,33.000000,39.000000,0.000000,0.000000,0.319003,0.491875,0.309621,0.365915,0.014074,238.000000,205.000000,33.000000,39.000000,0.000000,0.000000:
// measure 0
0000
0000
0000
0000
,  // measure 1
0000
0000
0000
0000
,  // measure 2
0000
0000
0000
0000
,  // measure 3
0000
0000
0000
0000
,  // measure 4
0001
0000
1000
0000
,  // measure 5
0010
0000
0100
0000
,  // measure 6
0010
0000
1000
0000
,  // measure 7
0001
0000
0010
0000
,  // measure 8
0100
1000
0100
1000
,  // measure 9
0001
0100
0001
0100
,  // measure 10
1000
0100
1000
0100
,  // measure 11
0001
0100
1000
0100
,  // measure 12
1001
1001
1001
1001
,  // measure 13
1001
1001
1001
1001
,  // measure 14
1001
1001
1001
1001
,  // measure 15
0000
0000
0000
0000
1000
0000
0000
0001
,  // measure 16
0100
0000
0100
0010
0000
0010
0000
0010
,  // measure 17
0200
0000
0000
0000
0310
0000
0000
1000
,  // measure 18
0001
0000
0001
1000
0000
1000
0000
1000
,  // measure 19
0200
0000
0300
0000
0010
0000
0000
0001
,  // measure 20
0010
0000
0010
0001
0000
0001
0000
0001
,  // measure 21
0200
0000
0000
0000
0310
0000
0000
0100
,  // measure 22
0001
0000
0001
1000
0000
0001
0000
1000
,  // measure 23
0020
0000
0030
0000
0110
0000
0000
0100
,  // measure 24
0001
0000
0010
0100
0000
1000
0000
0100
,  // measure 25
0020
0000
0000
0000
0130
0000
0000
1000
,  // measure 26
0010
0000
0100
0001
0000
0010
0000
0100
,  // measure 27
0220
0000
0330
0000
0001
0000
0000
1000
,  // measure 28
0010
0000
0100
0001
0000
0010
0000
0100
,  // measure 29
0020
0000
0000
0000
0031
0000
0000
1000
,  // measure 30
0010
0000
0100
0001
0000
1000
0000
1000
,  // measure 31
0000
1000
1001
0000
0110
0000
0110
0000
,  // measure 32
0110
0000
1001
0000
,  // measure 33
0110
0000
1001
1001
,  // measure 34
1001
0000
0110
0000
,  // measure 35
1001
0000
1002
1000
,  // measure 36
1000
1000
1000
1000
,  // measure 37
1000
1003
1001
0110
,  // measure 38
1001
0110
0000
0002
,  // measure 39
0000
0100
0103
0010
,  // measure 40
0100
0010
0010
2000
,  // measure 41
0000
0000
0100
0000
3100
0000
0000
1000
,  // measure 42
0000
0001
0000
1000
0000
0001
2000
0000
,  // measure 43
3200
0000
0320
0000
0031
0010
0002
0000
,  // measure 44
0023
0000
0230
0000
1300
0100
2000
0000
,  // measure 45
3200
0000
0320
0000
0031
0010
0002
0000
,  // measure 46
0000
0003
0000
2000
,  // measure 47
3010
2000
3100
2000
,  // measure 48
3010
0000
0100
0001
0010
0000
0200
0000
,  // measure 49
0310
0002
0103
0020
,  // measure 50
1030
0002
2003
3200
,  // measure 51
1300
0020
0130
0002
,  // measure 52
0013
0000
0100
0010
0002
0000
0023
0000
,  // measure 53
0031
0200
0310
2000
,  // measure 54
3002
0000
0000
0000
0203
0000
0000
0000
0320
0000
0000
0000
1030
0000
0000
0001
,  // measure 55
0000
0000
1000
0000
0000
0000
0001
0000
1000
0000
0000
0000
0001
0000
0000
1000
,  // measure 56
0000
0000
0001
0000
0000
0000
1000
0000
0001
0000
0000
0000
1000
0000
0000
0001
,  // measure 57
0000
1000
0000
0001
1000
0000
1001
0000
,  // measure 58
0110
1001
0000
0000
;

//---------------dance-single - ----------------
#NOTES:
     dance-single:
     :
     Medium:
     10:
     0.391382,0.464548,0.225179,0.168884,0.192340,292.000000,268.000000,24.000000,18.000000,0.000000,0.000000,0.391382,0.464548,0.225179,0.168884,0.192340,292.000000,268.000000,24.000000,18.000000,0.000000,0.000000:
// measure 0
0000
0000
0000
0000
,  // measure 1
0000
0000
0000
0000
,  // measure 2
0000
0000
0000
0000
,  // measure 3
0000
0000
0000
0000
,  // measure 4
1000
0000
0000
0001
1000
0000
0001
1000
,  // measure 5
0000
1000
0000
1000
0002
0000
0000
0000
,  // measure 6
1003
0000
0000
0001
1000
0000
1000
0001
,  // measure 7
0000
0001
0000
0001
2000
0000
0000
0000
,  // measure 8
3001
1000
0001
1000
0001
1000
0001
1000
,  // measure 9
0001
1000
0001
1000
0001
1000
0001
1000
,  // measure 10
0001
1000
0001
1000
0001
1000
0001
1000
,  // measure 11
0001
1000
0001
1000
0001
1000
0001
1000
,  // measure 12
0004
4000
0000
0000
0000
0000
0000
0000
0000
0000
0000
0000
0000
0000
0000
0000
,  // measure 13
0000
0000
0000
0000
,  // measure 14
0000
0000
0000
0000
0000
0000
0000
0000
0000
0000
0000
0000
0000
0000
0000
3003
,  // measure 15
0000
0000
0000
0000
1001
0000
0000
0001
,  // measure 16
0100
0000
0100
0010
0000
0010
0000
0010
,  // measure 17
4000
0000
0004
0000
0000
0000
0000
0000
0000
0000
3003
0000
1100
0000
0000
0000
0000
0000
0000
0000
0000
1000
0000
0000
,  // measure 18
0010
0000
0100
0001
0000
0010
0000
0100
,  // measure 19
4000
0000
0004
0000
0000
0000
3003
0000
0000
0000
0000
0000
0110
0000
0000
0000
0000
0000
0000
0000
0000
1000
0000
0000
,  // measure 20
0001
0000
0010
0100
0000
0100
0000
0100
,  // measure 21
4000
0000
0040
0000
0000
0000
0000
0000
0000
0000
3030
0000
0101
0000
0000
0000
0000
0000
0000
0000
0000
0100
0000
0000
,  // measure 22
0010
0000
0100
0001
0000
1001
0000
0100
,  // measure 23
0004
0000
0040
0000
0000
0000
0033
0000
0000
0000
0000
0000
1100
0000
0000
0000
0000
0000
0000
0000
0000
1000
0000
0000
,  // measure 24
0100
0000
1000
0001
0000
0100
0000
0010
,  // measure 25
4000
0000
0400
0000
0000
0000
0000
0000
0000
0000
3300
0000
0011
0000
0000
0000
0000
0000
0000
0000
0000
0001
0000
0000
,  // measure 26
0010
0000
0001
0100
0000
0101
0000
1000
,  // measure 27
0040
0000
0400
0000
0000
0000
0330
0000
0000
0000
0000
0000
1001
0000
0000
0000
0000
0000
0000
0000
0000
1000
0000
0000
,  // measure 28
1100
0000
0001
0101
0000
1100
0000
1001
,  // measure 29
0004
0000
0400
0000
0000
0000
0000
0000
0000
0000
0303
0000
1010
0000
0000
0000
0000
0000
0000
0000
0000
1000
0000
0000
,  // measure 30
1010
0000
0001
0011
0000
1001
0000
0110
,  // measure 31
0000
0100
1001
0000
0001
0000
1000
0000
,  // measure 32
0001
0000
1000
0001
0000
0000
0000
0000
0001
0000
0001
0000
0000
0000
0001
0000
,  // measure 33
1000
0000
0001
1000
0000
0000
0000
0000
0010
0000
0000
0000
0100
0000
0000
0000
,  // measure 34
0010
0000
0100
0010
0000
0000
0000
0000
0010
0000
0010
0000
0000
0000
0010
0000
,  // measure 35
0010
0000
0100
0010
0000
0000
0000
0000
1000
0000
0001
0000
1000
0000
0001
0000
,  // measure 36
1000
0001
1000
0001
1000
0001
1000
0001
,  // measure 37
1000
0000
0001
0000
1000
0000
0001
0000
4000
0004
0000
0000
0000
0000
0000
0000
,  // measure 38
0000
0000
0000
0000
0000
0000
0000
3003
0000
0000
0000
0000
0102
0000
0000
0000
,  // measure 39
0000
0103
0001
0010
0001
0100
0000
0010
,  // measure 40
0000
0000
0010
0000
1000
0000
0000
1000
0000
0000
1000
0000
1002
0000
0000
0000
,  // measure 41
0000
1003
0100
0010
0100
1000
0000
0100
,  // measure 42
0000
0100
0000
0100
0000
0100
2000
0000
,  // measure 43
3200
0000
0320
0000
0031
0100
0002
0000
,  // measure 44
0203
0000
0320
0000
1030
0001
2000
0000
,  // measure 45
3002
0000
0000
0000
0023
0000
0000
0000
0130
0000
0010
0000
0004
4000
0000
0000
,  // measure 46
0000
0000
0000
3003
0000
0000
0000
0000
0000
0000
0000
0000
0001
0000
0000
0001
,  // measure 47
0000
0000
0001
0000
1000
0000
0000
1000
0000
0000
1000
0000
0100
0000
0000
0100
,  // measure 48
0000
0000
0100
0000
0010
0000
0100
0000
1000
0000
0000
0000
0100
0000
0000
0100
,  // measure 49
0000
0000
0100
0000
0010
0000
0000
0010
0000
0000
0010
0000
0001
0000
0000
0001
,  // measure 50
0000
0000
0001
0000
2000
0000
0000
0000
3002
0000
0000
0000
0103
0000
0000
0100
,  // measure 51
0000
0000
0010
0000
1000
0000
0000
1000
0000
0000
0100
0000
0010
0000
0000
0010
,  // measure 52
0000
0000
0100
0000
0010
0000
0001
0000
0200
0000
0000
0000
0310
0000
0000
0010
,  // measure 53
0000
0000
1000
0000
0001
0000
0000
0001
0000
0000
0010
0000
0100
0000
0000
0010
,  // measure 54
0000
0000
0001
0000
2000
0000
0000
0000
3002
0000
0000
0000
0103
0000
0000
0100
,  // measure 55
0000
0000
0010
0000
0000
0000
0010
0000
0110
0000
0000
0000
0010
0000
0000
0010
,  // measure 56
0000
0000
0100
0000
0000
0000
0100
0000
0110
0000
0000
0000
0001
0000
0000
0001
,  // measure 57
0000
0000
0000
1000
0000
0000
0000
0000
0000
1000
0000
0000
1001
0000
0000
0000
0000
0000
0001
0000
0100
0000
0010
0000
,  // measure 58
1000
0100
0010
0001
0000
0000
0000
0000
0000
0000
0000
0000
;

//---------------dance-single - ----------------
#NOTES:
     dance-single:
     :
     Hard:
     15:
     0.607178,0.901770,0.835038,0.272091,0.426901,453.000000,364.000000,89.000000,29.000000,0.000000,0.000000,0.607178,0.901770,0.835038,0.272091,0.426901,453.000000,364.000000,89.000000,29.000000,0.000000,0.000000:
// measure 0
0000
0000
0000
0000
,  // measure 1
0000
0000
0000
0000
,  // measure 2
0000
0000
0000
0000
,  // measure 3
0000
0000
0000
0000
,  // measure 4
0001
0000
0000
1000
0001
0000
1000
0001
,  // measure 5
0000
0000
0000
0001
0000
0000
0000
0000
0000
0001
0000
0000
1000
0000
0010
0000
0100
0000
0001
0000
0010
0000
0001
0000
,  // measure 6
1001
0000
0000
0001
1000
0000
0001
1000
,  // measure 7
0000
0000
0000
1000
0000
0000
0000
0000
0000
1000
0000
0000
0001
0000
0010
0000
0001
0000
1000
0000
0010
0000
0100
0000
,  // measure 8
0001
1000
0001
1000
0001
1000
0001
1000
,  // measure 9
0001
1000
0001
1000
0001
1000
0001
1000
,  // measure 10
0001
1000
0001
1000
0001
1000
0001
1000
,  // measure 11
0001
1000
0001
1000
0001
1000
0001
1000
,  // measure 12
0001
1000
0001
1000
0001
1000
0001
1000
0001
1000
0001
1000
0001
1000
0001
1000
,  // measure 13
0001
1000
0001
1000
0001
1000
0001
1000
0001
1000
0001
1000
0001
1000
0001
1000
,  // measure 14
0001
1000
0001
1000
0001
1000
0001
1000
0001
1000
0001
1000
0001
1000
0001
1000
,  // measure 15
0000
0000
0000
0000
0101
0000
0000
0100
,  // measure 16
0110
0000
0010
1010
0000
0011
0000
0110
,  // measure 17
0100
0000
0100
0000
0010
0000
0001
0000
1000
0000
0001
0000
1000
0000
0000
0000
0000
0000
0000
0000
0000
0001
0000
0000
,  // measure 18
0011
0000
0001
0101
0000
1010
0000
1001
,  // measure 19
0001
0000
0100
0000
0010
0000
1010
0000
0000
0000
0000
0000
0011
0000
0000
0000
0000
0000
0000
0000
0000
0010
0000
0000
,  // measure 20
0110
0000
0010
0011
0000
0101
0000
0110
,  // measure 21
0010
0000
0010
0000
1000
0000
0001
0000
1000
0000
0100
0000
0010
0000
0000
0000
0000
0000
0000
0000
0000
0100
0000
0000
,  // measure 22
1100
0000
1000
1001
0000
0101
0000
0010
,  // measure 23
1000
0000
1000
0000
0001
0000
0020
0000
0000
0000
0000
0000
0130
0000
0000
0000
0000
0000
0000
0000
0000
0010
0000
0000
,  // measure 24
0001
0010
0100
0001
0000
1001
0000
1000
,  // measure 25
0004
0000
4000
0000
0000
0000
0000
0000
0000
0000
3003
0000
0110
0000
0000
0000
0000
0000
0000
0000
0000
1000
0000
0000
,  // measure 26
0010
1000
0001
0010
0000
1100
0000
0001
,  // measure 27
0400
0000
0040
0000
0000
0000
0330
0000
0000
0000
0000
0000
1001
0000
0000
0000
0000
0000
0000
0000
0000
1000
0000
0000
,  // measure 28
0011
0000
0001
1100
0000
1001
0000
0011
,  // measure 29
0004
0000
4000
0000
0000
0000
0000
0000
0000
0000
3003
0000
1010
0000
0000
0000
0000
0000
0000
0000
0000
1000
0000
0000
,  // measure 30
0011
0000
0001
1100
0000
1001
0000
0110
,  // measure 31
0000
1001
0110
0000
1010
0000
1010
0000
,  // measure 32
1010
0000
1000
0010
0000
0000
0000
0000
1010
0000
1010
0000
0000
0000
1010
0000
,  // measure 33
1010
0000
1000
0010
0000
0000
0000
0000
0101
0000
0000
0000
0101
0000
0000
0000
,  // measure 34
0101
0000
0001
0100
0000
0000
0000
0000
0101
0000
0101
0000
0000
0000
0101
0000
,  // measure 35
0101
0000
0001
0100
0000
0000
0000
0000
0001
0000
1000
0000
0001
0000
1000
0000
,  // measure 36
0001
1000
0001
1000
0001
1000
0001
1000
,  // measure 37
0001
0000
1000
0000
0001
0000
1000
0000
0001
1000
0001
1000
0001
1000
0001
1000
,  // measure 38
0001
1000
0001
1000
0001
1000
0001
1000
0000
0000
0000
0000
0210
0000
0000
0000
,  // measure 39
0000
0310
1000
0001
0010
0100
0000
0010
,  // measure 40
0000
0000
0001
0000
1010
0000
0000
1100
0000
0000
1001
0000
0002
0000
0000
0000
,  // measure 41
0000
0103
0010
1000
0001
0010
0000
0011
,  // measure 42
0000
1100
0000
0011
0000
1100
0002
0000
,  // measure 43
0023
0000
0000
0000
0230
0000
0000
0000
1300
0001
1000
0100
2000
0000
0000
0000
,  // measure 44
3200
0000
0000
0000
0320
0000
0000
0000
0031
1000
0001
0100
0002
0000
0000
0000
,  // measure 45
0023
0000
0000
0000
0230
0000
0000
0000
1300
0001
1000
0100
1000
0100
0010
0001
,  // measure 46
1000
0100
0020
0002
0000
0000
0030
0000
0003
0000
0000
0000
2001
0000
0000
0010
,  // measure 47
0000
0000
0001
0000
3002
0000
0000
0100
0000
0000
1000
0000
2003
0000
0000
0100
,  // measure 48
0000
0000
3001
0000
1000
0000
0001
0000
0110
0000
0000
0000
1002
0000
0000
0100
,  // measure 49
0000
0000
1000
0000
2003
0000
0000
0010
0000
0000
0001
0000
3002
0000
0000
0010
,  // measure 50
0000
0000
1003
0000
1001
0000
0000
0000
1010
0000
0000
0000
0201
0000
0000
0310
,  // measure 51
0000
0000
0100
0000
0102
0000
0000
0013
0000
0000
0100
0000
0210
0000
0000
1300
,  // measure 52
0000
0000
0100
0000
1000
0000
0010
0000
0200
0000
0300
0000
1020
0000
0000
0130
,  // measure 53
0000
0000
0010
0000
2010
0000
0000
3100
0000
0000
0010
0000
0120
0000
0000
0031
,  // measure 54
0000
0000
0010
0000
0002
0000
0000
0000
2000
0000
3003
0000
0101
0000
0000
0011
,  // measure 55
0000
0000
1001
0000
0000
0000
1100
0000
0011
0000
0000
0000
1010
0000
0000
0110
,  // measure 56
0000
0000
0101
0000
0000
0000
1001
0000
0110
0000
0000
0000
1001
0000
0000
0101
,  // measure 57
0000
0000
0000
0011
0000
0000
0000
0000
0000
0110
0000
0000
1001
0000
0000
0000
0000
0000
1001
0000
1001
0000
0110
0000
,  // measure 58
1001
1001
0110
1001
0000
0000
0000
0000
0000
0000
0000
0000
;

//---------------dance-single - ----------------
#NOTES:
     dance-single:
     :
     Challenge:
     16:
     0.670175,0.901770,0.713066,0.675536,0.619242,500.000000,424.000000,76.000000,72.000000,52.000000,8.000000,0.670175,0.901770,0.713066,0.675536,0.619242,500.000000,424.000000,76.000000,72.000000,52.000000,8.000000:
// measure 0
0000
0000
0000
0000
,  // measure 1
0000
0000
0000
0000
,  // measure 2
0000
0000
0000
0000
,  // measure 3
0000
0000
0000
0000
,  // measure 4
0001
0000
0000
1000
0001
0000
1000
0001
,  // measure 5
0000
0000
0000
0001
0000
0000
0000
0000
0000
0001
0000
0000
0100
0000
0100
0000
0100
0000
0010
0000
1000
0000
0001
0000
,  // measure 6
1000
0000
0000
0001
1000
0000
0001
1000
,  // measure 7
0000
0000
0000
1000
0000
0000
0000
0000
0000
1000
0000
0000
0100
0000
0100
0000
0100
0000
0010
0000
0001
0000
1000
0000
,  // measure 8
0100
0100
0100
0100
0100
0100
0100
0100
,  // measure 9
0100
0100
0100
0100
0100
0100
0100
0100
,  // measure 10
0100
0100
0100
0100
0100
0100
0100
0100
,  // measure 11
0100
0100
0100
0100
0100
0100
0100
0100
,  // measure 12
0100
0100
0100
0100
0100
0100
0100
0100
0100
0100
0100
0100
0100
0100
0100
0100
,  // measure 13
0100
0100
0100
0100
0100
0100
0100
0100
0100
0100
0100
0100
0100
0100
0100
0100
,  // measure 14
0100
0100
0100
0100
0100
0100
0100
0100
0100
0100
0100
0100
0100
0100
0100
0100
,  // measure 15
0000
0000
0000
0000
0000
0000
0000
0000
1100
0000
0000
1000
0010
0000
0100
0000
,  // measure 16
0001
0010
0100
0010
0000
0011
0000
0101
,  // measure 17
0001
0000
0000
0000
0001
0000
0000
0000
0001
0000
0000
0000
0100
0000
0000
0000
0010
0000
0000
0000
1000
0000
0000
0000
0100
0000
0000
0000
0000
0000
0000
0000
0000
0010
0000
0000
0100
0000
0000
0000
0000
0000
1000
0000
0000
0000
0000
0000
,  // measure 18
0010
1000
0001
0010
0000
0110
0000
1000
,  // measure 19
0001
0000
0000
0000
1000
0000
0000
0000
0010
0000
0000
0000
0110
0000
0000
0000
0000
0000
0000
0000
0000
0000
0000
0000
1001
0000
0000
0000
0000
0000
0000
0000
0000
0001
0000
0000
0100
0000
0000
0000
0000
0000
0010
0000
0000
0000
0000
0000
,  // measure 20
1000
0001
0010
0100
0000
0011
0000
1010
,  // measure 21
0010
0000
0000
0000
0010
0000
0000
0000
0010
0000
0000
0000
0100
0000
0000
0000
0001
0000
0000
0000
0010
0000
0000
0000
0100
0000
0000
0000
0000
0000
0000
0000
0000
0010
0000
0000
0001
0000
0000
0000
0000
0000
0100
0000
0000
0000
0000
0000
,  // measure 22
0001
0000
0000
0000
1000
0000
0000
0000
0100
0000
0000
0000
0110
0000
0000
0000
0000
0000
0000
0000
1000
0001
1000
0001
1000
0000
0000
0000
0110
0000
0000
0000
,  // measure 23
0001
0000
0000
0000
0001
0000
0000
0000
0001
0000
0000
0000
0002
0000
0000
0000
0000
0000
0000
0000
0000
0000
0000
0000
1003
0000
0000
0000
0000
0000
0000
0000
0000
1000
0000
0000
0100
0000
0000
0000
0000
0000
0001
0000
0000
0000
0000
0000
,  // measure 24
0100
1000
0010
0100
0000
0101
0000
0001
,  // measure 25
0010
0000
0000
0000
0010
0000
0000
0000
0010
0000
0000
0000
0100
0000
0000
0000
1000
0000
0000
0000
0001
0000
0000
0000
0100
0000
0000
0000
0000
0000
0000
0000
0000
0010
0000
0000
0100
0000
0000
0000
0000
0000
1000
0000
0000
0000
0000
0000
,  // measure 26
0100
0001
1000
0100
0000
1100
0000
0001
,  // measure 27
1000
0000
0000
0000
0001
0000
0000
0000
0010
0000
0000
0000
0110
0000
0000
0000
0000
0000
0000
0000
0000
0000
0000
0000
1001
0000
0000
0000
0000
0000
0000
0000
0000
0001
0000
0000
0100
0000
0000
0000
0000
0000
1000
0000
0000
0000
0000
0000
,  // measure 28
0100
0001
1000
0100
0000
1100
0000
0011
,  // measure 29
0010
0000
0000
0000
0010
0000
0000
0000
0010
0000
0000
0000
0100
0000
0000
0000
1000
0000
0000
0000
0001
0000
0000
0000
0100
0000
0000
0000
0000
0000
0000
0000
0000
0010
0000
0000
1000
0000
0000
0000
0000
0000
0100
0000
0000
0000
0000
0000
,  // measure 30
0001
0100
1000
0001
0000
0101
0000
1010
,  // measure 31
0000
1001
M22M
0000
1331
0000
1001
0000
,  // measure 32
1001
0000
0001
1000
0000
0000
0000
0000
1001
0000
1001
0000
0000
0000
1001
0000
,  // measure 33
1001
0000
1000
0001
0000
0000
0000
0000
0110
0000
0000
0000
0110
0000
0000
0000
,  // measure 34
0110
0000
0010
0100
0000
0000
0000
0000
0110
0000
0110
0000
0000
0000
0110
0000
,  // measure 35
0110
0000
0100
0010
0000
0000
0000
0000
0100
0000
0100
0000
0100
0000
0100
0000
,  // measure 36
0100
0100
0100
0100
0100
0100
0100
0100
,  // measure 37
0100
0000
0100
0000
0100
0000
0100
0000
0100
0100
0100
0100
0100
0100
0100
0100
,  // measure 38
0100
0100
0100
0100
0100
0100
0100
0100
0000
MMMM
0000
0000
1002
0000
0000
0000
,  // measure 39
0000
0103
0001
0010
0100
1000
0000
1100
,  // measure 40
0000
0000
0100
0000
2020
3030
0000
0022
0033
0000
2002
3003
0120
0000
0000
0000
,  // measure 41
0000
0130
0010
0100
0100
0010
0000
1001
,  // measure 42
0000
1010
0000
0011
0000
1010
2002
0000
,  // measure 43
3223
0000
0000
M00M
0000
0000
0000
0000
0000
0000
0000
0000
2332
0000
0000
0MM0
0000
0000
0000
0000
0000
0000
3003
0000
M01M
0000
0000
0100
0000
0000
0001
0000
0000
1000
0000
0000
2002
0000
0000
0000
0000
0000
0000
0000
0000
0000
0000
0000
,  // measure 44
3223
M00M
0000
0000
2332
0MM0
0000
3003
M01M
0100
0010
0100
2002
0000
0000
0000
,  // measure 45
3223
M00M
0000
0000
2332
0MM0
0000
0000
3103
M01M
0100
0010
1000
1000
0100
0010
,  // measure 46
0001
0001
1000
0010
0000
0000
MMMM
0000
MMMM
0000
0000
0000
0002
0000
0103
0020
,  // measure 47
0000
1030
0200
0000
0310
0000
0100
2000
0000
3001
0200
0000
0310
0000
1000
0002
,  // measure 48
0000
0013
0200
0000
0320
0000
0230
0000
2000
0000
0300
0000
3200
0000
0310
0002
,  // measure 49
0000
1003
0020
0000
0230
0000
0301
0200
0000
0310
2000
0000
3002
0000
0013
0200
,  // measure 50
0000
0310
0001
0000
0201
0000
0000
0000
0320
0000
0000
0000
2030
0000
3001
0020
,  // measure 51
0000
0130
0020
0000
0032
0000
0103
0020
0000
1030
0200
0000
0320
0000
0130
2000
,  // measure 52
0000
3010
0200
0000
0302
0000
0203
0000
0020
0300
0000
0000
0230
0000
0310
2000
,  // measure 53
0000
3001
0020
0000
0230
0000
0310
0002
0000
0103
0020
0000
2030
0000
3001
0200
,  // measure 54
0000
0301
2000
0000
3200
0000
0000
0000
2300
0000
0000
3000
1001
0000
0000
1010
,  // measure 55
0000
0000
0101
0000
0000
0000
1001
0000
M11M
0000
0000
0000
1001
0000
0000
0011
,  // measure 56
0000
0000
1010
0000
0000
0000
1001
0000
M11M
0000
0000
0000
1001
0000
0000
1010
,  // measure 57
0000
0000
0000
0101
0000
0000
0000
0000
0000
0110
0000
0000
1MM1
0000
0000
0000
0000
0000
1MM1
0000
1MM1
0000
M11M
0000
,  // measure 58
1MM1
1MM1
M11M
1MM1
0000
0000
0000
0000
0000
0000
0000
0000
;
