#VERSION:0.83;
#TITLE:Lovely Howdy Cowboy!!;
#SUBTITLE:;
#ARTIST:まろん feat. キャサリン;
#TITLETRANSLIT:;
#SUBTITLETRANSLIT:;
#ARTISTTRANSLIT:;
#GENRE:;
#ORIGIN:;
#CREDIT:;
#BANNER:Lovely Howdy Cowboy!!.png;
#BACKGROUND:Lovely Howdy Cowboy!!-bg.png;
#PREVIEWVID:;
#JACKET:Lovely Howdy Cowboy!!-jacket.png;
#CDIMAGE:;
#DISCIMAGE:;
#LYRICSPATH:;
#CDTITLE:cdtitle.png;
#MUSIC:Lovely Howdy Cowboy!!.ogg;
#OFFSET:0.719000;
#SAMPLESTART:60.073002;
#SAMPLELENGTH:16.500000;
#SELECTABLE:YES;
#BPMS:0.000=180.000;
#STOPS:80.000=0.333,
81.000=0.333,
81.500=0.167,
82.500=0.167,
83.000=0.167,
83.500=0.167,
262.000=0.333,
294.500=0.333,
330.000=0.333,
331.000=0.333;
#DELAYS:;
#WARPS:;
#TIMESIGNATURES:0.000=4=4;
#TICKCOUNTS:0.000=4;
#COMBOS:0.000=1;
#SPEEDS:0.000=1.000=0.000=0;
#SCROLLS:0.000=1.000;
#FAKES:;
#LABELS:0.000=Song Start;
#BGCHANGES:2.000=Lovely Howdy Cowboy!!.avi=1.000=1=0=1===CrossFade==,
99999=-nosongbg-=1.000=0=0=0 // don't automatically add -songbackground-
;
#KEYSOUNDS:;
#ATTACKS:
;

//---------------dance-single - ----------------
#NOTEDATA:;
#CHARTNAME:;
#STEPSTYPE:dance-single;
#DESCRIPTION:;
#CHARTSTYLE:;
#DIFFICULTY:Beginner;
#METER:5;
#RADARVALUES:0.167181,0.348591,0.116197,0.066398,0.000000,141.000000,127.000000,14.000000,8.000000,0.000000,0.000000,0.000000,0.000000,0.000000,0.167181,0.348591,0.116197,0.066398,0.000000,141.000000,127.000000,14.000000,8.000000,0.000000,0.000000,0.000000,0.000000,0.000000;
#CREDIT:Pandemonium X;
#NOTES:
0000
0000
0000
0000
,
0000
0000
0000
0000
,
0000
0000
0000
0000
,
0000
0000
0000
0000
,
0000
0000
0000
0000
,
1000
0001
1001
0000
,
0001
0000
1000
0000
,
0010
0000
1000
0000
,
0200
0000
0000
0000
,
0320
0000
0000
0000
,
0130
0000
1000
0000
,
0001
0000
0100
0000
,
0010
0000
1000
0000
,
0001
0001
1000
1000
,
0110
0000
0000
0000
,
0000
0000
0000
0000
,
0001
0000
0000
0000
,
0000
0000
0000
0000
,
1000
0000
0000
0000
,
0001
0000
0000
0000
,
1000
0000
0001
1000
0000
0001
1000
0001
,
1000
0000
0000
0000
,
0010
0000
1000
0000
,
0100
0000
0000
0000
,
0010
0000
0001
0000
,
0100
0000
0000
0000
,
0010
0000
1000
1000
,
1000
0000
0000
0000
,
0001
0000
1000
0000
,
1001
0000
0110
0000
,
1001
0000
0110
0000
,
1001
0000
0000
0000
,
0001
0001
0001
0000
,
0100
0000
0000
0000
,
0010
0000
0000
0000
,
0100
0000
0000
0000
,
0000
0000
1000
0001
,
0001
0000
0000
0000
,
1000
0000
0000
0000
,
0100
0000
0000
0000
,
1000
0000
0000
0000
,
0010
0000
0000
0000
,
0100
0000
0000
0000
,
1001
0000
0110
0000
,
1001
0000
0000
0000
,
0001
0000
1000
0000
,
0010
0000
0000
0000
,
0100
0000
0010
0000
,
1000
0000
0000
0000
,
0100
0000
0010
0000
,
0001
0000
0000
0000
,
0010
0000
0001
0000
,
0100
0000
0000
0010
,
0010
0000
1000
0000
,
0001
0000
0000
0000
,
1000
0000
0010
0000
,
0100
0000
0000
0000
,
0010
0000
1000
0000
,
0001
0000
0000
0001
0000
0000
0000
0000
,
1000
0000
0001
0000
,
0100
0000
0000
0000
,
0010
0000
1000
0000
,
0200
0000
0000
0300
,
0020
0000
0000
0030
,
2002
0000
0000
0000
,
3003
0000
0000
0001
,
0000
1000
0000
0010
,
0000
0000
0000
1000
,
0000
0100
0000
0010
,
0000
0000
0000
0100
,
0000
1000
0000
0001
,
0000
0000
0000
0100
,
0000
0010
0000
1000
,
1000
0001
0001
1000
,
0000
0000
0001
0000
,
0010
0000
0100
0000
,
0000
0000
0010
0000
,
0001
0000
0100
0000
,
0000
0000
0010
0000
,
1000
0000
0001
0000
,
0000
0000
1000
0000
,
0100
0000
0010
0000
,
0001
0000
1001
0110
,
2002
0000
0000
0000
,
3003
0000
0000
0000
;

//---------------dance-single - ----------------
#NOTEDATA:;
#CHARTNAME:;
#STEPSTYPE:dance-single;
#DESCRIPTION:;
#CHARTSTYLE:;
#DIFFICULTY:Easy;
#METER:9;
#RADARVALUES:0.412618,0.627425,0.414989,0.174296,0.004150,348.000000,298.000000,50.000000,21.000000,0.000000,0.000000,0.000000,0.000000,0.000000,0.412618,0.627425,0.414989,0.174296,0.004150,348.000000,298.000000,50.000000,21.000000,0.000000,0.000000,0.000000,0.000000,0.000000;
#CREDIT:Pandemonium X;
#NOTES:
0000
0000
0000
0000
,
0000
0000
0000
0000
,
0001
0001
1000
1000
,
0010
1000
0100
1000
,
0001
0100
0010
1000
,
1001
0000
0001
0001
0010
0000
0100
0000
,
1000
0100
1000
0010
,
0100
0001
0010
0100
,
2100
0000
0000
0000
,
3001
2002
0000
0000
0000
0000
0003
0000
,
3001
0001
0100
0001
,
1000
0100
0010
0001
,
0010
0010
0100
0010
,
1001
0110
1001
0110
,
1001
0000
0000
0000
0000
0000
0000
1000
,
0001
0000
0000
0000
0000
0000
0000
0010
,
0010
0000
0000
0000
0000
0000
0000
0100
,
1000
0000
0100
0000
0001
0000
0001
0100
,
0010
0000
0100
0000
0010
0000
1000
0001
,
0010
0000
0100
0000
1000
0000
0001
1000
,
0010
0000
1000
0001
0000
0010
0100
1000
,
0010
0200
0000
0300
,
0010
0000
1000
0000
0001
0000
0010
0100
,
0000
0000
0020
0000
0000
0000
0030
0100
,
0000
1000
0001
1000
0000
0001
0100
0000
,
0010
0000
0000
0100
0000
0001
0000
1000
,
0000
0001
0000
1000
0001
0000
0001
0000
,
1100
0020
0000
0130
,
0001
0000
0010
0000
0100
1000
0000
0000
,
1001
0110
1001
0110
,
1001
0000
0110
0000
1001
0001
0000
0000
,
1100
0020
0000
1030
,
0001
0000
0100
0000
0001
0010
0000
0000
,
0100
1000
0010
0001
,
0010
1000
0100
0001
,
1100
0000
0000
0000
,
2002
3003
0110
1001
,
0001
0101
0100
0110
,
0010
1010
1000
1100
,
0100
0110
0010
0011
,
0001
0101
0100
0110
,
1000
0100
0010
0001
,
0100
0010
1000
0001
,
0011
0000
1010
0000
,
1001
0000
0000
0000
0000
1000
0001
1000
,
0001
0100
0001
0010
,
0100
0000
1000
0020
0000
0000
0030
0000
,
0000
0100
0010
0000
1000
0000
0001
0000
,
1100
0110
0011
0101
,
0010
0100
0001
1000
,
0001
0000
0010
0200
0000
0000
0300
0000
,
0000
0010
0001
0000
0100
0000
0001
0000
,
2000
0000
0000
3000
0000
0100
0010
0100
,
0010
0001
1000
0100
,
0010
0000
0100
2000
0000
0000
3000
0000
,
0000
0010
1000
0000
0010
0000
0100
0000
,
0002
0000
0003
1000
,
0001
0100
0001
1000
,
1001
0000
0000
0110
0000
0001
0100
0010
,
0000
1000
0001
0000
1000
0000
0100
0000
,
0010
0020
0000
0000
0000
0000
0030
0000
,
0000
0100
1000
0000
0010
0000
1000
0000
,
0002
0000
0000
0000
,
2003
0000
0000
3000
,
0220
0000
0000
0000
,
0330
0000
0000
0001
,
1000
0010
1000
0100
,
0001
0100
1000
0010
,
1000
0001
0010
0001
,
0010
1000
0010
0001
,
0100
0001
1000
0100
,
1000
0010
0100
0001
,
0010
1000
0010
0001
,
1000
0000
0001
1000
0001
1000
0001
0000
,
0100
0001
0010
0001
,
1000
0100
0010
0100
,
1000
0010
0100
0001
,
0010
0000
0100
0000
1000
0100
1000
0000
,
0001
0000
0100
0000
0010
0100
0010
0000
,
0100
0010
0100
0000
0010
1000
0010
0000
,
1000
0001
1100
0110
,
0011
1001
1100
0110
,
0011
1001
0110
1001
,
0220
0000
0000
0000
0000
0000
0000
0000
0000
0000
0000
0000
0000
0000
0000
0000
0000
0000
0000
0000
0000
0000
0000
0000
0000
0000
0000
0000
0000
0000
0000
0000
0000
0000
0000
0000
0000
0000
0000
0000
0000
0000
0000
0000
0000
0000
0000
0000
0000
0000
0000
0000
0000
0000
0000
0000
0000
0000
0000
0000
0000
0000
0000
0000
0000
0000
0000
0000
0000
0000
0000
0000
0000
0000
0000
0000
0000
0000
0000
0000
0000
0000
0000
0000
0000
0000
0000
0000
0000
0000
0000
0000
0000
0000
0000
0000
0000
0000
0000
0000
0000
0000
0000
0000
0000
0000
0000
0000
0000
0000
0000
0000
0000
0000
0000
0000
0000
0000
0000
0000
0000
0000
0000
0000
0000
0000
0000
0000
0000
0000
0000
0000
0000
0000
0000
0000
0000
0000
0000
0000
0000
0000
0000
0000
0000
0000
0000
0000
0000
0000
0000
0000
0000
0000
0000
0000
0000
0000
0000
0000
0000
0000
0000
0000
0000
0000
0000
0000
0000
0000
0000
0000
0000
0000
0000
0000
0000
0000
0000
0000
0000
0000
0000
0000
0000
0000
0000
0000
0000
0000
0000
0330
;

//---------------dance-single - ----------------
#NOTEDATA:;
#CHARTNAME:;
#STEPSTYPE:dance-single;
#DESCRIPTION:;
#CHARTSTYLE:;
#DIFFICULTY:Medium;
#METER:13;
#RADARVALUES:0.538301,0.627464,0.497987,0.165996,0.029049,454.000000,394.000000,60.000000,20.000000,0.000000,0.000000,0.000000,0.000000,0.000000,0.538301,0.627464,0.497987,0.165996,0.029049,454.000000,394.000000,60.000000,20.000000,0.000000,0.000000,0.000000,0.000000,0.000000;
#CREDIT:Pandemonium X;
#NOTES:
0000
0000
0000
0000
,
0000
0000
0000
0000
,
1000
0100
1000
0010
,
0100
0001
0010
0100
,
0010
0001
0100
0001
1000
0010
0100
0001
,
1000
0001
0000
0001
1000
0000
0010
0000
0110
0000
0000
0000
1001
0000
0000
0000
,
0001
0100
0001
0000
1000
0100
1000
0000
,
0001
0100
0001
0100
1000
0100
0001
1000
,
0001
0010
0001
0000
1000
0010
1000
0000
,
0001
0010
0001
0010
1000
0010
1000
0010
,
0001
1000
0010
0000
1000
0001
0010
0000
,
0001
1000
0100
0001
0100
1000
0010
0100
,
0001
0100
0010
0000
0100
0010
1000
0000
,
1001
1100
1001
0101
,
1001
0000
0000
0000
0000
0000
0000
0010
,
0100
0000
0000
0000
0000
0000
0000
1000
,
1001
0000
0000
0000
0000
0000
0000
0001
,
0010
0000
1000
0000
0010
0000
0001
0100
,
0110
0000
0010
0000
1000
0000
0001
0010
,
0110
0000
0100
0000
1000
0000
0010
0100
,
0001
1000
0001
0010
0100
0010
0001
1000
,
0010
0000
2000
0000
0000
0000
3000
0001
,
0000
0100
0001
0010
0100
0000
0010
0001
,
0000
0000
0200
0000
0000
0000
0300
0010
,
0000
1000
0001
0010
0000
0100
1000
0000
,
0001
0000
0000
1000
0000
0001
0000
1000
,
0000
0000
0001
0000
0000
0000
1000
0000
0001
0000
0000
0001
0000
0000
1000
0000
,
0001
0000
0200
0000
0000
0310
1000
0010
,
0000
0100
0001
0000
0001
0010
0000
0000
,
1001
1100
0101
1010
,
1001
0000
0110
0000
1001
1001
0000
0000
,
0101
0000
0200
0000
0000
0310
1000
0001
,
0000
0010
0100
0000
0100
0010
0000
0000
,
0100
1000
0010
0001
,
0010
1000
0001
0010
,
1100
0000
0000
0002
0000
0000
0000
0000
,
0200
0303
1010
0011
,
0001
0000
0101
0000
0001
0100
0010
0000
,
1000
0000
1010
0000
1000
0100
0010
0000
,
0001
0000
0011
0000
0001
0100
0010
0000
,
1000
0000
1001
0000
0001
0100
0110
0000
,
1010
0101
0011
0110
,
1100
1001
0101
0110
,
1001
0000
0000
0000
0001
0001
1000
1000
,
0010
1000
0000
0201
0000
0310
0100
0001
,
1000
0100
0001
0100
,
1000
0000
0010
0010
0000
0220
0000
0330
,
0000
0010
1000
0000
0001
0010
0100
1000
,
1100
0101
0110
1001
,
0001
0100
1000
0100
,
0001
0000
1000
0100
0000
0220
0000
0330
,
0000
0000
0100
0000
1000
0000
0010
0000
0100
0000
0000
0100
0000
0000
0010
0000
,
1000
0001
0010
0100
1000
0100
0010
0001
,
1000
0001
0100
0001
,
0010
0000
0100
0100
0000
2002
0000
3003
,
0000
0000
1000
0000
0001
0000
0100
0000
0001
0000
0000
0001
0000
0000
1000
0000
,
0020
0000
0000
0000
0000
0130
0010
1000
,
0001
1000
0100
0010
,
0011
0000
0000
1100
0000
0100
0010
0001
,
0000
0000
0010
0000
0001
0000
0100
0000
0010
0000
0000
1000
0000
0000
0001
0000
,
2000
0000
0000
3000
,
0000
0000
1000
0000
0100
0000
0010
0000
0001
0000
0000
1000
0000
0000
0100
0000
,
0020
0000
0000
0000
,
0230
0000
0000
0000
,
2000
0000
0000
0000
,
3300
0000
0000
0001
,
1000
0000
0010
1000
0100
0000
0010
0100
,
1000
0010
0100
0001
0010
0000
0100
0000
,
1000
0000
0010
1000
0001
0000
1000
0010
,
1000
0001
0001
0100
0001
0010
0100
0000
,
0010
0000
0100
1000
0010
0000
0100
0010
,
1000
0001
0010
0100
0010
0000
0001
0000
,
0011
0000
0001
0100
0010
0000
1001
0000
,
0110
0000
0001
1000
0001
1000
0010
1000
,
0001
0000
0001
0000
0001
1000
0010
0001
,
0100
0000
0010
0000
1000
0001
1000
0000
,
0001
0000
1000
0000
0001
0100
1000
0100
,
0001
0100
1000
0000
0010
1000
0010
1000
,
0001
1000
0001
1000
0001
0010
0100
1000
,
0001
0010
0100
0000
0010
0001
0010
0001
,
0010
0100
0010
0100
0110
0000
1100
0000
,
1010
0101
0110
0011
,
1100
1010
1001
0110
,
2002
0000
0000
0000
,
3003
0000
0000
0000
;

//---------------dance-single - ----------------
#NOTEDATA:;
#CHARTNAME:;
#STEPSTYPE:dance-single;
#DESCRIPTION:;
#CHARTSTYLE:;
#DIFFICULTY:Hard;
#METER:15;
#RADARVALUES:0.679397,0.941196,0.539486,0.174296,0.190895,573.000000,508.000000,65.000000,21.000000,0.000000,0.000000,0.000000,0.000000,0.000000,0.679397,0.941196,0.539486,0.174296,0.190895,573.000000,508.000000,65.000000,21.000000,0.000000,0.000000,0.000000,0.000000,0.000000;
#CREDIT:Pandemonium X;
#NOTES:
0000
0000
0000
0000
,
0000
0000
0000
0000
,
1000
0001
0010
0010
0100
1000
0100
0001
,
0100
0010
0001
1000
0010
1000
0001
1000
,
0100
0010
0100
0010
0100
0010
0100
0010
0001
1000
0001
1000
0001
1000
0001
1000
,
0001
0100
0000
0010
1000
0000
0100
0000
1001
0000
0000
0000
0020
0000
0000
0000
,
1030
0001
0010
0001
1000
0100
0010
0001
,
1000
0010
0100
0001
1000
0100
0010
0100
,
1000
0001
0100
0001
1000
0001
0010
0100
,
1000
0100
1000
0010
1000
0001
0010
0100
,
0010
0001
1000
0100
1000
0100
0010
0001
,
1000
0010
1000
0001
0100
0001
1000
0100
,
1000
0001
0010
0100
0010
0001
1000
0010
,
0100
0000
0000
0010
0100
0000
0000
0100
0001
0000
0000
0001
1000
0000
0000
0000
,
0110
0000
0000
0000
0000
0000
0000
1000
,
0001
0000
0000
0000
0000
0000
0000
0110
,
1001
0000
0000
0000
0000
0000
0000
0001
,
0010
0000
0000
0000
0100
0000
0000
0000
0010
0000
0001
0000
1000
0010
1000
0010
,
1000
0000
0001
0000
0100
0000
0010
0110
,
1001
0000
1000
0000
0001
0000
0100
0110
,
1001
0110
1001
0110
0100
1001
0011
1010
,
0001
0000
2000
0000
0100
0000
3010
0100
,
0000
0010
1000
0001
1000
0000
0001
0010
,
0000
0000
0002
0000
0100
0000
0013
0100
,
0000
0100
0010
0001
0000
1000
0010
0000
,
0101
0000
0000
1010
0000
0011
0000
1100
,
0000
1010
0000
0110
0101
0000
1001
0000
,
0110
0000
2000
0000
0100
0000
3010
0100
,
0000
0001
1000
0000
0010
0100
0000
0000
,
1001
0000
0000
0000
1001
0000
0000
0000
1001
0000
0000
0000
1001
0000
1000
0001
,
1000
0000
0000
0000
1001
0000
0001
1000
0001
0000
1001
0000
0000
0000
0000
0000
,
0001
0000
0020
0000
0100
0000
0031
0010
,
0000
0001
0010
0000
0100
0010
0000
0000
,
0001
0000
1000
0010
0000
0100
0000
0000
0010
1000
0000
0001
,
0010
0000
0100
0010
0000
0001
0000
0000
1000
0001
0000
0000
,
0100
0000
0000
0000
0001
1000
0100
0010
0001
0010
0100
1000
,
0002
0003
1010
0101
,
0210
0000
0010
0000
0301
0010
0000
0100
,
0010
0001
1000
0010
0100
0000
0000
0000
,
2001
0000
0001
0000
3010
0100
0000
0010
,
0100
0010
0100
0001
1000
0000
0100
0000
,
1000
0100
0010
0001
0010
0100
1000
0100
,
0010
0000
0001
0000
0010
0000
0100
0000
1000
0000
0001
0000
0100
0010
0100
0010
,
0100
0000
0000
0000
0000
0000
0000
0000
0001
1000
0010
0100
0001
1000
0001
0000
,
1010
0102
0000
0023
0000
0130
0100
0100
,
1100
0101
0110
1010
,
1002
0000
0010
0020
0000
0033
0000
0000
,
0100
0010
0001
1000
0010
1000
0001
0010
,
0100
1000
0100
0001
0100
1000
0100
0001
,
1100
0011
0101
1010
,
2001
0000
0010
0020
0000
3030
0000
0000
,
0000
0000
0100
0000
0010
0000
0000
0000
1000
0000
0000
0001
0000
0000
0100
0000
,
0020
0000
1000
0000
0130
0001
0001
0001
,
1001
0011
1100
0110
,
0201
0000
0010
0020
0000
0330
0000
0000
,
0100
0000
0010
0000
1000
0000
0001
0000
0010
0000
0000
0100
0000
0000
1000
0000
,
0010
0001
0010
1000
0010
0001
0010
1000
,
1100
1100
0101
0101
,
1001
0000
0000
0110
0000
0100
0010
1000
,
0000
0000
0001
0000
0010
0000
0000
0000
0100
0000
0000
1000
0000
0000
0001
0000
,
2000
0100
0010
3001
,
1000
0000
0001
0000
0100
0000
0000
0000
0001
0000
0000
0010
0000
0000
0001
0000
,
0100
0010
0100
0010
0100
0010
0100
0010
,
1000
0001
1000
0001
1000
0001
1000
0001
,
0020
0000
0000
0000
,
0030
0000
0000
0000
0000
0000
0001
1000
,
0010
1000
0001
0010
0100
1000
0100
0010
,
0100
1000
0001
0100
0001
1000
0001
0010
,
0001
1000
0010
1000
0001
0010
0100
1000
,
0001
0100
0001
0010
0100
1000
0100
1000
,
0010
1000
0001
0010
0100
1000
0100
1000
,
0010
0100
0001
0010
0100
0010
0001
0100
,
0010
1000
0001
0010
0100
1000
1001
0000
,
1001
0000
1001
1001
1001
1001
0010
1000
,
0100
0010
0001
0010
0001
0100
0010
1000
,
0001
0010
0001
1000
0100
1000
0010
0100
,
0001
0010
0100
1000
0100
1000
0010
1000
,
0001
0010
0100
1000
0100
1000
0010
0100
,
0001
0010
0100
0010
0001
1000
0100
0010
,
0001
0010
0100
1000
0001
0100
0010
1000
,
0001
0000
0010
0000
0100
0000
1000
0000
0100
0000
0000
0100
0010
0000
0000
0010
,
0001
0000
0000
0001
0100
0000
0000
0010
1000
0000
0000
1000
0001
0000
0000
0001
,
0010
0000
0000
0010
0100
0000
0000
0000
1100
0000
0000
0000
0101
0000
0000
0000
,
0220
0000
0000
0000
,
0330
0000
0000
0000
;

//---------------dance-single - ----------------
#NOTEDATA:;
#CHARTNAME:;
#STEPSTYPE:dance-single;
#DESCRIPTION:;
#CHARTSTYLE:;
#DIFFICULTY:Challenge;
#METER:17;
#RADARVALUES:0.835907,1.150422,0.688882,0.215794,0.547786,705.000000,620.000000,83.000000,26.000000,50.000000,2.000000,5.000000,0.000000,0.000000,0.835907,1.150422,0.688882,0.215794,0.547786,705.000000,620.000000,83.000000,26.000000,50.000000,2.000000,5.000000,0.000000,0.000000;
#CREDIT:HANGMAN;
#NOTES:
0000
0000
0000
0000
,
0000
0000
0000
0000
,
1000
0000
0001
0100
0001
0000
0100
0000
0010
1000
0010
0100
0001
0000
0010
0000
,
0100
1000
0100
1000
0001
0100
0001
0100
0010
1000
0001
1000
0001
0000
0010
0000
,
0100
0010
0100
0010
0001
1000
0001
1000
0001
0100
0001
0100
0010
1000
0010
1000
,
0010
0100
0000
0100
0100
0000
0010
0000
1001
0000
0000
0000
2010
0000
0000
0000
,
3001
0010
0001
1000
0001
0100
1000
0100
,
0001
0010
0001
1000
0010
0100
0001
1000
,
0400
0010
0000
1000
0000
0010
0000
1300
,
0010
0100
0001
0010
0100
1000
0001
1000
,
1000
0001
0010
0001
1000
0100
0001
0100
,
1000
0010
0100
0001
0010
0100
0010
0001
,
1000
0010
0100
0010
1000
0010
0001
0010
,
1000
0000
0010
1000
0100
0000
0100
0010
0001
0000
0001
0010
0100
0000
0100
1000
,
0010
0000
0100
0001
0010
0100
0000
0110
,
0000
0100
1000
0000
1100
0000
0001
1001
,
1001
0000
0001
0100
0010
1000
0000
1100
,
0000
1000
0100
0000
0110
0000
0100
1001
,
1001
0000
0001
0000
0100
0000
0010
1001
,
1001
0000
0010
0000
0100
0000
0001
0101
,
1001
MMMM
1100
0000
0011
MMMM
0110
MMMM
1100
0000
0011
MMMM
0101
MMMM
1010
0000
,
1001
0000
4000
0010
0000
0001
3000
0100
,
0000
0010
0001
0100
0010
0000
0100
0001
,
1000
0000
0400
1000
0000
0010
0300
1000
,
0000
0001
0100
0010
0000
0100
0010
0000
,
1001
0000
0000
0001
0000
0100
0000
1000
,
0000
0000
0010
0000
0000
0000
0001
0000
1001
0000
0000
1001
0000
0000
0110
0000
,
1001
0000
0400
0010
0000
0301
0010
0100
,
0000
0100
0010
0000
0010
0001
0000
0000
,
0101
0000
0000
0000
1010
0000
0000
0000
0101
0000
0000
0000
1010
0000
1000
0010
,
0110
0000
0000
0000
1001
0000
0001
0010
0110
0000
1100
0000
0000
0000
0000
0000
,
1001
0000
4000
0100
0000
3010
0100
0001
,
0000
0010
0100
0000
0010
0001
0000
0000
,
1000
0000
1000
0100
0000
0100
0000
0000
0010
0100
0000
0100
,
1000
0000
1000
0001
0000
0100
0000
0000
0010
1000
0000
0000
,
1001
0000
0000
0000
0001
0010
1000
0010
0001
1000
0000
0010
,
0100
MMMM
1001
0110
,
0001
0100
0110
0010
1000
0100
0110
0000
,
0100
1000
1010
0010
0100
0001
0101
0000
,
0001
0010
0110
0100
0010
0001
1001
0000
,
1000
0001
0011
0001
0100
0001
1001
0000
,
1010
0000
1000
0001
0010
0000
0100
0010
0001
0000
0010
0100
1000
0000
0100
1000
,
0010
0000
0100
0010
1000
0000
0001
0010
0100
0000
0010
0001
0100
0000
0010
1000
,
0001
0000
0000
0000
0000
0000
0000
0000
1000
0010
0100
0001
1000
0010
0100
0001
,
1000
0020
0000
0200
0030
0301
0001
0001
,
0101
1010
1100
0011
,
0110
0000
0000
0000
0000
0000
0100
0000
0000
2200
0000
0000
0000
0000
3300
MM22
0000
0000
0000
0000
0000
0033
0000
0000
,
0000
0001
0010
0100
1000
0010
0100
0001
,
0010
0100
1000
0100
0010
0100
1000
0100
0010
0001
0010
0100
0010
0001
0010
0100
,
0010
0011
0101
1010
,
1001
0000
0000
0000
0000
0000
0000
0000
0000
0000
0000
0000
0001
0000
0000
0000
0000
0000
0202
0000
0000
0000
0000
0000
0000
0000
0000
0000
0000
0303
2M2M
0000
0000
0000
0000
0000
0000
0000
0000
0000
0000
0000
0000
0000
0000
0000
0000
0000
,
3030
0000
0001
0000
0010
0000
1000
0000
0010
0000
0000
0001
0000
0000
0100
0000
,
0010
1000
0010
0001
0010
0100
0100
0100
,
0110
1010
1100
0110
,
0011
0000
0000
0000
0000
0000
0000
0000
0000
0000
0000
0000
0010
0000
0000
0000
0000
0000
2002
0000
0000
0000
0000
0000
0000
0000
0000
0000
0000
3003
M22M
0000
0000
0000
0000
0000
0000
0000
0000
0000
0000
0000
0330
0000
0000
0000
0000
0000
,
1000
0000
0010
0000
1000
0000
0001
0000
0010
0000
0000
0100
0000
0000
0010
0000
,
0001
0010
0001
0000
1000
0100
1000
0000
0010
1000
0010
0000
0100
0010
0100
0000
,
0101
1010
1100
0011
,
1101
0000
0000
1011
0000
1000
0100
0010
,
0000
0000
0100
0000
0010
0000
0001
0000
1000
0000
0000
0001
0000
0000
0100
0000
,
0020
1000
0100
1030
,
0010
0000
0100
0000
0001
0000
1000
0000
0001
0000
0000
1000
0000
0000
0100
0000
,
0010
0010
0001
0100
0010
1000
0100
0010
,
0001
0010
0001
0010
0100
1000
0100
1000
0010
1000
0010
1000
0001
0100
0001
0100
,
0020
0000
0000
0000
,
0030
0000
0000
0000
0000
0000
0000
0000
0000
0000
0000
0000
0000
0000
0000
0000
0000
0000
0000
0000
0000
0000
0000
0000
0000
0000
0000
0000
0000
0000
0000
0000
0000
0000
0000
0000
0000
0000
0000
0000
0000
0000
0000
0000
0000
0000
0000
0000
0000
0000
0000
0000
0000
0000
0000
0000
0000
0000
0000
0000
0000
0000
0000
0000
0000
0000
0000
0000
0000
0000
0000
0000
0000
0000
0000
0000
0000
0000
0000
0000
0000
0000
0000
0000
0000
0000
0000
0000
0000
0000
0000
0000
0000
0000
0000
0000
0100
MMMM
0000
0000
0000
0000
0000
0000
0000
0000
0000
0000
0000
0000
0000
0000
0000
0000
0000
0000
0000
0000
0000
0000
0000
0000
0000
0000
0000
0000
0000
0000
0000
0000
0000
0000
0000
0000
0000
0000
0000
0000
0000
0000
0000
0000
0000
0000
0001
0000
0000
0000
0000
0000
0000
0000
0000
0000
0000
0000
0000
0000
0000
0000
0000
0000
0000
0000
0000
0000
0000
0000
0010
0000
0000
0000
0000
0000
0000
0000
0000
0000
0000
0000
0000
0000
0000
0000
0000
0000
0000
0000
0000
0000
0000
0000
,
0001
0100
0010
1000
0100
0010
0100
1000
,
0001
0100
0001
1000
0100
0010
0001
1000
,
0100
1000
0010
0100
0001
1000
0100
0010
,
0100
1000
0010
0100
0001
0010
0100
0010
,
0001
1000
0010
1000
0100
0010
0100
1000
,
0001
0100
0001
1000
0100
0010
0100
1000
,
0010
0100
0001
0010
0100
1000
1100
0000
,
0011
0000
0000
0000
1100
0000
0011
0000
1100
0000
0011
MMMM
0001
1000
0010
0000
,
0100
0001
0010
0000
0100
0010
0001
0000
0010
0100
1000
0000
0100
1000
0010
0000
,
0100
0010
1000
0000
0001
0010
0100
0000
0010
0001
0100
0000
0010
1000
0001
0000
,
0010
0100
1000
0000
0100
1000
0010
0000
0100
0010
0100
0000
0010
1000
0010
0000
,
0100
0001
0100
0000
0001
0010
0001
0000
1000
0001
1000
0010
1000
0001
0100
0001
,
1000
0100
0010
0001
0010
0100
0010
0001
1000
0001
0010
0001
1000
0100
1000
0001
,
0100
0010
1000
0010
0100
0001
0010
0100
1000
0001
1000
0010
1000
0001
0100
0001
,
1000
0100
0010
0001
1000
0001
0100
0001
0010
0000
0100
1000
0020
0000
0130
0001
,
0020
0000
0130
1000
0002
0000
1003
0001
0200
0000
0301
0010
0002
0000
0013
0001
,
0200
0000
0310
1000
0002
0000
1003
0001
1001
0000
MMMM
0000
0110
0000
MMMM
0000
,
2002
0000
0000
0000
,
3003
MMMM
0000
0000
0000
0000
0000
0000
0000
0000
0000
0000
0000
0000
0000
0000
0000
0000
0000
0000
0000
0000
0000
0000
0000
0000
0000
0000
0000
0000
0000
0000
0000
0000
0000
0000
0000
0000
0000
0000
0000
0000
0000
0000
0000
0000
0000
0000
0000
0000
0000
0000
0000
0000
0000
0000
0000
0000
0000
0000
0000
0000
0000
0000
0000
0000
0000
0000
0000
0000
0000
0000
0000
0000
0000
0000
0000
0000
0000
0000
0000
0000
0000
0000
0000
0000
0000
0000
0000
0000
0000
0000
0000
0000
0000
0000
0000
0000
0000
0000
0000
0000
0000
0000
0000
0000
0000
0000
0000
0000
0000
0000
0000
0000
0000
0000
0000
0000
0000
0000
0000
0000
0000
0000
0000
0000
0000
0000
0000
0000
0000
0000
0000
0000
0000
0000
0000
0000
0000
0000
0000
0000
0000
0000
0000
0000
0000
0000
0000
0000
0000
0000
0000
0000
0000
0000
0000
0000
0000
0000
0000
0000
0000
0000
0000
0000
0000
0000
0000
0000
0000
0000
0000
0000
0000
0000
0000
0000
0000
0000
0000
0000
0000
0000
0000
0000
0000
0000
0000
0000
0000
0000
;

//---------------dance-double - ----------------
#NOTEDATA:;
#CHARTNAME:;
#STEPSTYPE:dance-double;
#DESCRIPTION:;
#CHARTSTYLE:;
#DIFFICULTY:Easy;
#METER:8;
#RADARVALUES:0.378233,0.627464,0.340291,0.124497,0.000000,319.000000,278.000000,41.000000,15.000000,0.000000,0.000000,0.000000,0.000000,0.000000,0.378233,0.627464,0.340291,0.124497,0.000000,319.000000,278.000000,41.000000,15.000000,0.000000,0.000000,0.000000,0.000000,0.000000;
#CREDIT:Pandemonium X;
#NOTES:
// measure 0
00000000
00000000
00000000
00000000
,  // measure 1
00000000
00000000
00000000
00000000
,  // measure 2
10000000
10000000
00010000
00010000
,  // measure 3
00100000
00100000
00001000
00001000
,  // measure 4
00010000
00001000
00010000
00001000
,  // measure 5
00011000
00110000
01100000
00000000
,  // measure 6
10000000
01000000
10000000
00100000
,  // measure 7
01000000
00010000
00100000
00001000
,  // measure 8
00021000
00000000
00000000
00000000
,  // measure 9
00001000
00002000
00000000
00000000
00000000
00000000
00033000
00000000
,  // measure 10
00100000
00001000
00010000
00000010
,  // measure 11
00000100
00000010
00001000
00000001
,  // measure 12
00000010
00000100
00001000
00000100
,  // measure 13
00001100
00001100
00011000
00011000
,  // measure 14
01001000
00000000
00000000
00000000
00000000
00000000
00000000
01000000
,  // measure 15
01000000
00000000
00000000
00000000
00000000
00000000
00000000
00100000
,  // measure 16
00100000
00000000
00000000
00000000
00000000
00000000
00000000
10000000
,  // measure 17
10000000
00000000
01000000
00000000
00100000
00000000
00010000
00100000
,  // measure 18
00010000
00000000
00100000
00000000
00001000
00000000
00010000
00001000
,  // measure 19
00010000
00000100
00001000
00000010
,  // measure 20
00000100
00000000
00000001
00000010
00000000
00000100
00001000
00000100
,  // measure 21
00010100
00020000
00000000
00030000
,  // measure 22
00000100
00010000
00001000
01000000
,  // measure 23
00100000
02000000
00000000
03000000
,  // measure 24
00100000
10000000
00010000
00100000
,  // measure 25
00001000
00000000
00000000
00010000
00000000
00001000
00000000
00010000
,  // measure 26
00000000
00001000
00000000
00010000
00001000
00000000
00010000
00000000
,  // measure 27
00011000
00020000
00000000
00031000
,  // measure 28
00010000
00000100
00001000
00000000
,  // measure 29
00001010
00001010
00000101
00000101
,  // measure 30
00001001
00000000
00001001
00000000
00000110
00000110
00000000
00000000
,  // measure 31
00000001
00000200
00000000
00000310
,  // measure 32
00001000
00000100
00010000
00000000
,  // measure 33
00001000
00000000
01000000
00000000
,  // measure 34
10000000
00000000
01000000
00000000
,  // measure 35
01010000
00000000
00000000
00000000
,  // measure 36
00000000
00000000
10010000
01100000
,  // measure 37
10000000
01000000
00010000
01000000
,  // measure 38
00010000
00100000
00001000
00000000
,  // measure 39
00010000
00000100
00001000
00000010
,  // measure 40
00000001
00000010
00001000
00000001
,  // measure 41
00001001
00000001
00000010
00000010
,  // measure 42
00000001
00000100
00001000
00000100
,  // measure 43
00001100
00000000
00000110
00000000
,  // measure 44
00001001
00000000
00000000
00000000
00000000
00000001
00001000
00000001
,  // measure 45
00001000
00000010
00010000
00001000
,  // measure 46
00100000
00000000
01000000
02000000
00000000
00000000
03000000
00000000
,  // measure 47
00000000
00100000
10000000
00010000
,  // measure 48
01000000
01000000
01000000
01000000
,  // measure 49
00010000
00100000
00001000
00010000
,  // measure 50
00000100
00000000
00001000
00002000
00000000
00000000
00003000
00000000
,  // measure 51
00000000
00000010
00000100
00000001
,  // measure 52
00001000
00000000
00000000
00000000
00000000
00000100
00010000
00001000
,  // measure 53
00010000
00000100
00010000
00001000
,  // measure 54
01000000
00000000
00100000
00200000
00000000
00000000
00300000
00000000
,  // measure 55
01000000
00010000
00100000
00001000
,  // measure 56
00010000
00000000
00000000
00001000
,  // measure 57
00010000
00000100
00001000
00000010
,  // measure 58
00000110
00000000
00000000
00001001
00000000
00000001
00000100
00000010
,  // measure 59
00000000
00000100
00000001
00000000
00001000
00000000
00000100
00000000
,  // measure 60
00020000
00000000
00000000
00030000
,  // measure 61
00001000
01000000
00100000
10000000
,  // measure 62
02000000
00000000
00000000
00000000
,  // measure 63
03020000
00000000
00000000
00000000
,  // measure 64
00032000
00000000
00000000
00000000
,  // measure 65
00003000
00000000
00000000
00010000
,  // measure 66
00000100
00010000
00001000
00000010
,  // measure 67
00000100
00000001
00001000
00000001
,  // measure 68
00000010
00000100
00001000
00000100
,  // measure 69
00001000
00000010
00010000
00001000
,  // measure 70
01000000
00100000
10000000
01000000
,  // measure 71
10000000
00100000
01000000
00010000
,  // measure 72
00100000
01000000
10000000
10010000
,  // measure 73
10010000
00000000
10000000
00010000
10000000
00010000
00100000
00000000
,  // measure 74
00001000
00010000
00000100
00001000
,  // measure 75
00000010
00000100
00000001
00000010
,  // measure 76
00000100
00001000
00000100
00010000
,  // measure 77
00001000
01000000
00100000
10000000
,  // measure 78
01000000
00100000
00010000
00100000
,  // measure 79
00001000
00010000
00000100
00001000
,  // measure 80
00000010
00000100
00000101
00000101
,  // measure 81
00000101
00000101
00001100
00001100
,  // measure 82
00001100
00001100
00011000
00011000
,  // measure 83
00022000
00000000
00000000
00000000
,  // measure 84
00033000
00000000
00000000
00000000
;

//---------------dance-double - ----------------
#NOTEDATA:;
#CHARTNAME:;
#STEPSTYPE:dance-double;
#DESCRIPTION:;
#CHARTSTYLE:;
#DIFFICULTY:Medium;
#METER:12;
#RADARVALUES:0.545415,0.766900,0.556086,0.257293,0.087148,460.000000,393.000000,67.000000,31.000000,0.000000,0.000000,0.000000,0.000000,0.000000,0.545415,0.766900,0.556086,0.257293,0.087148,460.000000,393.000000,67.000000,31.000000,0.000000,0.000000,0.000000,0.000000,0.000000;
#CREDIT:Pandemonium X;
#NOTES:
// measure 0
00000000
00000000
00000000
00000000
,  // measure 1
00000000
00000000
00000000
00000000
,  // measure 2
10000000
01000000
10000000
00010000
,  // measure 3
01000000
00010000
00100000
00001000
,  // measure 4
00010000
00000100
00010000
00000100
00010000
00000100
00010000
00000100
,  // measure 5
00010000
00001000
00000000
00001000
01000000
00000000
01000000
00000000
00100000
00000000
00000000
00000000
10010000
00000000
00000000
00000000
,  // measure 6
10000000
01000000
10000000
00000000
00010000
01000000
00010000
00000000
,  // measure 7
00100000
00001000
00010000
00000100
,  // measure 8
00001000
00000010
00000001
00000000
00000001
00000010
00001000
00000000
,  // measure 9
00000010
00000100
00000001
00001000
,  // measure 10
00000100
00001000
00000100
00000000
00010000
00001000
00010000
00000000
,  // measure 11
00001000
01000000
00100000
10000000
,  // measure 12
00010000
00100000
10000000
00000000
10000000
00100000
00010000
00000000
,  // measure 13
00110000
00011000
00001010
00000110
,  // measure 14
00001001
00000000
00000000
00000000
00000000
00000000
00000000
00000100
,  // measure 15
00000100
00000000
00000000
00000000
00000000
00000000
00000000
00001001
,  // measure 16
00001001
00000000
00000000
00000000
00000000
00000000
00000000
00000010
,  // measure 17
00000010
00000000
00000010
00000000
00000010
00000000
00000010
00001001
,  // measure 18
00001001
00000000
00000001
00000000
00000100
00000000
00000010
00001010
,  // measure 19
00001010
00000000
00001000
00000000
00000100
00000000
00010000
00001000
,  // measure 20
00011000
00000100
00011000
00011000
01000000
00011000
00011000
00011000
,  // measure 21
00101000
00000000
02000000
00000000
00000000
00000000
03000000
00100000
,  // measure 22
00000000
01000000
00100000
10000000
01000000
00000000
00100000
00001000
,  // measure 23
00000000
00000000
00020000
00000000
00000000
00000000
00030000
00000100
,  // measure 24
00000000
00001000
00000010
00001000
00000000
00000010
00000100
00000000
,  // measure 25
00000101
00000000
00000000
00000100
00000000
00000010
00000000
00001000
,  // measure 26
00000000
00000000
00000100
00000000
00000000
00000000
00010000
00000000
00001000
00000000
00000000
00001000
00000000
00000000
00001000
00000000
,  // measure 27
00100000
00000000
02000000
00000000
00000000
13000000
01000000
00100000
,  // measure 28
00000000
01000000
10000000
00000000
00100000
01000000
00000000
00000000
,  // measure 29
01010000
00110000
00101000
00011000
,  // measure 30
00010100
00000000
00001100
00000000
00001010
00001010
00000000
00000000
,  // measure 31
00000011
00000000
00002000
00000000
00000000
00003001
00001000
00000100
,  // measure 32
00000000
00000100
00001000
00000000
00000100
00010000
00000000
00000000
,  // measure 33
00001000
00000000
01000000
00100000
00000000
10000000
00000000
00000000
01000000
10000000
00000000
10000000
,  // measure 34
01000000
00000000
01000000
00100000
00000000
00010000
00000000
00000000
01000000
00001000
00000000
00000000
,  // measure 35
00011000
00000000
00000000
00000000
,  // measure 36
00000000
00000000
00001100
00000011
,  // measure 37
00000101
00000000
00001010
00000000
00000010
00001000
00000001
00000000
,  // measure 38
00000010
00000000
00001001
00000000
00000100
00000010
00001000
00000000
,  // measure 39
00000010
00000000
00010010
00000000
00000010
00010000
00001000
00000000
,  // measure 40
00010000
00000000
00101000
00000000
00001000
01000000
00100000
00000000
,  // measure 41
10100000
00000000
00000000
10000000
00100000
00000000
00000000
00100000
01000000
00000000
00000000
01000000
00010000
00000000
00000000
00010000
,  // measure 42
00100000
00000000
00000000
00100000
00001000
00000000
00000000
00001000
00010000
00000000
00000000
00010000
00000100
00000000
00000000
00000000
,  // measure 43
00002200
00003300
02020000
03030000
,  // measure 44
00022000
00000000
00000000
00000000
00033000
00100000
01000000
10000000
,  // measure 45
00010000
01000000
10000000
01000000
,  // measure 46
00010000
00000000
00001000
00010000
00000000
00202000
00000000
00303000
,  // measure 47
00000000
00010000
00001000
00000000
00010000
00000100
00001000
00000010
,  // measure 48
00000200
00000302
00000023
00000230
,  // measure 49
00001300
00010100
00001000
00101000
,  // measure 50
00011000
00000000
00001000
01000000
00000000
20200000
00000000
00000000
,  // measure 51
30300000
00000000
10000000
00000000
01000000
00000000
00100000
00000000
00010000
00000000
00000000
00010000
00000000
00000000
00100000
00000000
,  // measure 52
00002000
00000000
00000000
00000000
00003000
00010000
00000010
00000100
,  // measure 53
00001001
00000001
00000100
00001000
,  // measure 54
00001100
00000000
00000100
00010000
00000000
00022000
00000000
00033000
,  // measure 55
00100000
00000000
00001000
00000000
00010000
00000000
00000010
00000000
00000100
00000000
00000000
00000100
00000000
00000000
00000010
00000000
,  // measure 56
00020000
00000000
00032000
00000000
02003000
00000000
03100000
10000000
,  // measure 57
11000000
01100000
00110000
00011000
,  // measure 58
00101000
00000000
00000000
00001001
00000000
00001000
00000001
00001000
,  // measure 59
00000000
00000000
00000001
00000000
00001000
00000000
00000000
00000000
00000100
00000000
00000000
00010000
00000000
00000000
00001000
00000000
,  // measure 60
02000000
00100000
00010000
03100000
,  // measure 61
01000000
00000000
00010000
00000000
00100000
00000000
00000000
00000000
00001000
00000000
00000000
00010000
00000000
00000000
00000100
00000000
,  // measure 62
00002000
00000010
00000010
00000010
,  // measure 63
00003002
00000100
00000100
00000103
,  // measure 64
00000220
00000000
00000000
00000000
,  // measure 65
00000330
00000000
00000000
00000000
00000000
00000000
00001000
00100000
,  // measure 66
00001000
00000000
00010000
00100000
00010000
00000000
00100000
01000000
,  // measure 67
10000000
00100000
01000000
00010000
00100000
00000000
01000000
10000000
,  // measure 68
01000000
00000000
10000000
00100000
10000000
00000000
00100000
01000000
,  // measure 69
00010000
00100000
00001000
00010000
00000100
00000000
00001000
00000010
,  // measure 70
00001000
00000000
00000010
00001000
00000010
00000000
00000100
00000010
,  // measure 71
00001000
00000001
00000010
00000100
00001000
00000000
00000100
00010000
,  // measure 72
00000100
00000000
00010000
00001000
00010000
00000000
00001000
00000000
,  // measure 73
00001000
00000000
00001000
00001000
00010000
00010000
00001000
01000000
,  // measure 74
00100000
10000000
00010000
00100000
01000000
00000000
10000000
00000000
,  // measure 75
00100000
00000000
01000000
00000000
01000000
00010000
00100000
00001000
,  // measure 76
00010000
00000100
00001000
00000010
00000100
00000000
00000001
00000000
,  // measure 77
00000100
00000000
00000010
00000000
00001000
00001000
00000100
00010000
,  // measure 78
00001000
00001000
01000000
00100000
10000000
00000000
01000000
00000000
,  // measure 79
00010000
00000000
01000000
00000000
10000000
10000000
01000000
00100000
,  // measure 80
00010000
00010000
00100000
00001000
00011000
00000000
00010100
00000000
,  // measure 81
00001100
00000110
00000011
00000101
,  // measure 82
00001010
00001001
00001100
01010000
,  // measure 83
00022000
00000000
00000000
00000000
,  // measure 84
00033000
00000000
00000000
00000000
;

//---------------dance-double - ----------------
#NOTEDATA:;
#CHARTNAME:;
#STEPSTYPE:dance-double;
#DESCRIPTION:;
#CHARTSTYLE:;
#DIFFICULTY:Hard;
#METER:14;
#RADARVALUES:0.630784,0.766900,0.456488,0.190895,0.261443,532.000000,477.000000,55.000000,23.000000,0.000000,0.000000,0.000000,0.000000,0.000000,0.630784,0.766900,0.456488,0.190895,0.261443,532.000000,477.000000,55.000000,23.000000,0.000000,0.000000,0.000000,0.000000,0.000000;
#CREDIT:Pandemonium X;
#NOTES:
// measure 0
00000000
00000000
00000000
00000000
,  // measure 1
00000000
00000000
00000000
00000000
,  // measure 2
10000000
01000000
00100000
00010000
,  // measure 3
00100000
00001000
00010000
00000100
,  // measure 4
00010000
00001000
00010000
00001000
00010000
00001000
00010000
00001000
,  // measure 5
00010000
00000100
00000000
00000100
00001000
00000000
00000010
00000000
00000101
00000000
00000000
00000000
00000021
00000000
00000000
00000000
,  // measure 6
00000130
00000100
00000010
00000001
00001000
00000010
00001000
00000100
,  // measure 7
00010000
00001000
01000000
00100000
10000000
01000000
00100000
00010000
,  // measure 8
00210000
00000000
00000000
00000000
,  // measure 9
01000000
02000000
00000000
00000000
00000000
00000000
03300000
00000000
,  // measure 10
10010000
10000000
00010000
00100000
00001000
00010000
00000100
00001000
,  // measure 11
00000010
00000100
00000001
00000010
00000100
00001000
00000100
00010000
,  // measure 12
00001000
01000000
00100000
10000000
01000000
00100000
00010000
00100000
,  // measure 13
00001000
00000000
00000000
00010000
00001000
00000000
00000000
00001000
01000000
00000000
00000000
01000000
00100000
00000000
00000000
00100000
,  // measure 14
10000000
00000000
01000000
00000000
10000000
00000000
00100000
01000000
,  // measure 15
00010000
00000000
00100000
00000000
00001000
00000000
00010000
00011000
,  // measure 16
00011000
00010000
00000100
00001000
,  // measure 17
00001100
00000000
00000110
00000000
00000101
00000000
00000010
00001010
,  // measure 18
00001001
00000000
00000001
00000000
00000100
00000000
00000010
00001010
,  // measure 19
00001100
00000000
00000100
00000000
00010000
00000000
00001000
00010000
,  // measure 20
00011000
00001000
00010000
00001000
01000000
00100000
10000000
01000000
,  // measure 21
00110000
00000000
20000000
00000000
00000000
00000000
30000000
00010000
,  // measure 22
00000000
01000000
00100000
10000000
00010000
00000000
00010000
10000000
,  // measure 23
00000000
00000000
00200000
00000000
00000000
00000000
00300000
01000000
,  // measure 24
00000000
00001000
00010000
00001000
00000000
00010000
00000100
00000000
,  // measure 25
00010100
00000000
00000000
00001100
00000000
00000011
00000000
00000101
,  // measure 26
00000000
00000000
00000110
00000000
00000000
00000000
00001010
00000000
00001010
00000000
00000000
00010100
00000000
00000000
00011000
00000000
,  // measure 27
00011000
00000000
00000200
00000000
00000000
00001300
00000100
00010000
,  // measure 28
00000000
00010000
00001000
00000000
00001000
01000000
00000000
00000000
,  // measure 29
01100000
01010000
00110000
00101000
,  // measure 30
00011000
00010100
00001100
00000000
,  // measure 31
00001001
00000000
00002000
00000000
00000000
00003001
00000010
00000100
,  // measure 32
00000000
00000100
00001000
00000000
00001000
00000010
00000000
00000000
,  // measure 33
00000100
00000000
00000010
00001000
00000000
00000100
00000000
00000000
00010000
00000100
00000000
00000100
,  // measure 34
00010000
00000000
00010000
00001000
00000000
01000000
00000000
00000000
00100000
10000000
00000000
00000000
,  // measure 35
01010000
00000000
00000000
00000000
,  // measure 36
20020000
30030000
11000000
00110000
,  // measure 37
00100000
00000000
00101000
00000000
00100000
00001000
00010000
00000000
,  // measure 38
00000100
00000000
00001100
00000000
00001000
00000010
00000100
00000000
,  // measure 39
00000001
00000000
00000011
00000000
00000010
00000100
00001000
00000000
,  // measure 40
00000100
00000000
00010100
00000000
00010000
00000100
00001000
00000000
,  // measure 41
00000001
00001000
00000001
00001000
00000001
00001000
00000001
00000100
,  // measure 42
00000010
00000000
00001000
00000000
00000100
00000000
00010000
00000000
00001000
00000000
00100000
00000000
00001000
00100000
00001000
00100000
,  // measure 43
00010000
00000000
00000000
00000000
00000000
00000000
00000000
00000000
00010000
00100000
01000000
10000000
00010000
00000000
00000000
00000000
,  // measure 44
01100000
01010000
00000000
00201000
00000000
00301000
01000000
00001000
,  // measure 45
01000000
00000000
00000000
00100000
10000000
00000000
00000000
10000000
01000000
00000000
00000000
01000000
00100000
00000000
00000000
00100000
,  // measure 46
00002000
00000000
00010000
00020000
00000000
00000000
00033000
00000000
,  // measure 47
00000000
00010000
00000100
00000000
00001000
00000010
00000001
00000010
,  // measure 48
00001000
00000000
00000001
00000100
00000010
00000000
00000010
00000100
00000001
00000000
00000001
00001000
00000100
00000000
00000100
00000010
,  // measure 49
00000001
00000000
00000000
00000001
00000010
00000000
00000000
00000010
00000100
00000000
00000000
00000100
00001000
00000000
00000000
00000100
,  // measure 50
00020000
00000000
00001000
00002000
00000000
00000000
00033000
00000000
,  // measure 51
00000000
00000000
00001000
00000000
00100000
00000000
10000000
00000000
00100000
00000000
00000000
00010000
00000000
00000000
10000000
00000000
,  // measure 52
00020000
00000000
00000000
00000000
00030000
10000000
00010000
00010000
,  // measure 53
00100000
00000000
00000000
00100000
00001000
00000000
00000000
00001000
00010000
00000000
00000000
00010000
00000100
00000000
00000000
00000100
,  // measure 54
00002000
00000000
00000001
00000002
00000000
00000000
00003003
00000000
,  // measure 55
00000000
00000000
00000001
00000000
00000100
00000000
00001000
00000000
00000100
00000000
00000000
00000100
00000000
00000000
00000010
00000000
,  // measure 56
00002000
00000000
00000000
00000000
00003000
00000100
00010000
00001000
,  // measure 57
01000000
10000000
01000000
00001000
,  // measure 58
00011000
00000000
00000000
00100010
00000000
00010000
00001000
00010000
,  // measure 59
00000000
00000000
00000100
00000000
00010000
00000000
00001000
00000000
01000000
00000000
00000000
01000000
00000000
00000000
00100000
00000000
,  // measure 60
20020000
00000000
00000000
30030000
,  // measure 61
00000000
00000000
10000000
00000000
01000000
00000000
00100000
00000000
00010000
00000000
00000000
00100000
00000000
00000000
00001000
00000000
,  // measure 62
00010000
00000010
00010000
00000010
00000100
00000010
00000100
00000010
,  // measure 63
00001000
00000000
00000001
00000000
00001000
00000000
00000001
00000000
00000010
00000100
00001000
00000100
00001000
00000001
00000100
00000001
,  // measure 64
00000020
00000000
00000000
00000000
,  // measure 65
00000030
00000000
00000000
00000000
00000000
00000000
00010000
00010000
,  // measure 66
00001000
01000000
10000000
00100000
10000000
00010000
00100000
10000000
,  // measure 67
00100000
00010000
01000000
00001000
00010000
00000100
00001000
00001000
,  // measure 68
00000010
00000100
00000001
00000001
00000010
00000100
00001000
00000100
,  // measure 69
00000001
00000100
00001000
00000010
00001000
00000001
00000010
00000010
,  // measure 70
00000100
00001000
00000100
00000100
00001000
00000100
00010000
00001000
,  // measure 71
00100000
00010000
01000000
00100000
10000000
00010000
00100000
00100000
,  // measure 72
00001000
00010000
00000100
00000100
00001000
00000010
00001010
00000000
,  // measure 73
00001001
00000000
00000000
00000000
00001001
00000000
00001001
00000000
00001001
00000000
00001001
00000000
00001001
00000000
00000000
00000001
,  // measure 74
00000100
00000000
00000000
00000100
00000010
00000000
00000000
00000010
00001000
00000000
00000000
00001000
00000100
00000000
00000000
00000100
,  // measure 75
00010000
00000000
00000000
00010000
00001000
00000000
00010000
00000000
00001000
00000000
00000000
01000000
00100000
00000000
00000000
00100000
,  // measure 76
10000000
00000000
00000000
10000000
00010000
00000000
00000000
00010000
00100000
00000000
00000000
00100000
00001000
00000000
00000000
00001000
,  // measure 77
00010000
00000000
00000000
00010000
00000100
00000000
00001000
00000000
00000010
00000000
00000010
00000000
00000100
00000000
00000001
00000000
,  // measure 78
00000010
00000010
00001000
00000010
00000100
00001000
00000100
00010000
,  // measure 79
00001000
01000000
00100000
10000000
00010000
00010000
00100000
01000000
,  // measure 80
10000000
00000000
10000000
00000000
01000000
00000000
00100000
00000000
00010000
00000000
00000000
00100000
00001000
00000000
00000000
00001000
,  // measure 81
00010000
00000000
00000000
00010000
00000010
00000000
00000000
00000010
00000100
00000000
00000000
00000100
00000001
00000000
00000000
00000001
,  // measure 82
00000010
00000000
00000000
00000010
00000100
00000000
00000000
00000100
00010000
00000000
00000000
00000000
00001000
00000000
00000000
00000000
,  // measure 83
00022000
00000000
00000000
00000000
,  // measure 84
00033000
00000000
00000000
00000000
;

//---------------dance-double - ----------------
#NOTEDATA:;
#CHARTNAME:;
#STEPSTYPE:dance-double;
#DESCRIPTION:;
#CHARTSTYLE:;
#DIFFICULTY:Challenge;
#METER:16;
#RADARVALUES:0.710225,1.010914,0.572685,0.132797,0.294642,599.000000,530.000000,69.000000,16.000000,0.000000,0.000000,0.000000,0.000000,0.000000,0.710225,1.010914,0.572685,0.132797,0.294642,599.000000,530.000000,69.000000,16.000000,0.000000,0.000000,0.000000,0.000000,0.000000;
#CREDIT:HANGMAN;
#NOTES:
// measure 0
00000000
00000000
00000000
00000000
,  // measure 1
00000000
00000000
00000000
00000000
,  // measure 2
00000000
00000000
00000000
00000000
,  // measure 3
00000000
00000000
00000000
00000000
,  // measure 4
10000000
00010000
10000000
00010000
10000000
00010000
10000000
00010000
10000000
00010000
10000000
00010000
10000000
00010000
10000000
00010000
,  // measure 5
00100000
00001000
00000000
00010000
00000100
00000000
00001000
00000000
00000101
00000000
00000000
00000000
00000020
00000000
00000000
00000000
,  // measure 6
00000130
00000100
00000010
00001000
00000100
00000100
00001000
00000100
,  // measure 7
00010000
00001000
00100000
01000000
00100000
00010000
01000000
00100000
,  // measure 8
10000000
10000000
00100000
01000000
01000000
00100000
10000000
00010000
,  // measure 9
00100000
10000000
00100000
00010000
00100000
00001000
00010000
00000100
,  // measure 10
00001000
00001000
00000010
00000100
00000100
00000010
00001000
00000001
,  // measure 11
00000010
00000100
00001000
00000100
00010000
00001000
00100000
00010000
,  // measure 12
01000000
01000000
00010000
00100000
00001000
00001000
00010000
00000100
,  // measure 13
00001000
00000000
00000100
00010000
00001000
00000000
00001000
00010000
00000100
00000000
00000100
00010000
00001000
00000000
00001000
01000000
,  // measure 14
00100000
00000000
00000000
00000000
00000000
00000000
00000000
01000000
,  // measure 15
01000000
00000000
00000000
00000000
00000000
00000000
00000000
01010000
,  // measure 16
00110000
00000000
00000000
00000000
00000000
00000000
00000000
00100000
,  // measure 17
00010000
00000000
00010000
00000000
00010000
00000000
00010000
00011000
,  // measure 18
00010100
00000000
00000100
00000000
00001000
00000000
00000010
00001010
,  // measure 19
00000101
00000000
00000001
00000000
00001000
00000000
00000100
00010000
,  // measure 20
00011000
00101000
00011000
00010100
00001100
00000110
00000011
00001100
,  // measure 21
00001001
00000000
00000020
00000000
00001000
00000000
00000130
00000010
,  // measure 22
00000000
00001000
00000100
00010000
00001000
00000000
00010000
00001000
,  // measure 23
01000000
00000000
00200000
00000000
10000000
00000000
01300000
00010000
,  // measure 24
00000000
00100000
00010000
00100000
00000000
01000000
10000000
00000000
,  // measure 25
10010000
00000000
00000000
00110000
00000000
00001010
00000000
00011000
,  // measure 26
00000000
00110000
00000000
00011000
00010100
00000000
00001100
00000000
,  // measure 27
00000011
00000000
00000020
00000000
00000031
00000100
00000010
00001000
,  // measure 28
00000000
00000100
00001000
00000000
00000100
00010000
00000000
00000000
,  // measure 29
00011000
00000000
00000000
00000000
00011000
00000000
00000000
00000000
00011000
00000000
00000000
00000000
00011000
00000000
00010000
00001000
,  // measure 30
00011000
00000000
00000000
00000000
00011000
00000000
00001000
00010000
00011000
00000000
00011000
00000000
00000000
00000000
00000000
00000000
,  // measure 31
00001000
00000000
00200000
00000000
01000000
00000000
00310000
00100000
,  // measure 32
01000000
10000000
00010000
00000000
00100000
01000000
00000000
00000000
,  // measure 33
10000000
00000000
10000000
00010000
00000000
00100000
00000000
00000000
00100000
00001000
00000000
00001000
,  // measure 34
00010000
00000000
00000100
00001000
00000000
00000010
00000000
00000000
00000100
00000001
00000000
00000000
,  // measure 35
00000101
00000000
00000000
00000000
00000001
00000100
00001000
00010000
01000000
10000000
00000000
10000000
,  // measure 36
00020000
00030000
10010000
01100000
,  // measure 37
20100000
00000000
01000000
00000000
00100000
00100000
00000000
00010000
,  // measure 38
00000000
30010000
10000000
00100000
10000000
00000000
00000000
00000000
,  // measure 39
00120000
00000000
01000000
00000000
00100000
00100000
00000000
10000000
,  // measure 40
00000000
01030000
00010000
00100000
01000000
00000000
00100000
00000000
,  // measure 41
00010000
00100000
00001000
00010000
00000010
00000100
00000001
00001000
,  // measure 42
00000100
00010000
00000100
00000000
00010000
00001000
00010000
00000000
00001000
01000000
00001000
00000000
00010000
00100000
00010000
00000000
,  // measure 43
11000000
00000000
00000000
00000000
00000000
00000000
00000000
00000000
10000000
01000000
00100000
00010000
10000000
00100000
01000000
00010000
,  // measure 44
00100000
01000000
00000000
10020000
00000000
00130000
00100000
00100000
,  // measure 45
00101000
00110000
00011000
00001100
,  // measure 46
00000110
00000000
00000010
00000020
00000000
00000030
00000000
00000000
,  // measure 47
00000000
00000100
00001000
00000000
00000100
00010000
00001000
01000000
,  // measure 48
00100000
00000000
10000000
00100000
01000000
00000000
01000000
00100000
10000000
00000000
10000000
00010000
00100000
00000000
00100000
01000000
,  // measure 49
10000000
11000000
01100000
00110000
,  // measure 50
01010000
00000000
00001000
00002000
00000000
00003000
00000000
00000000
,  // measure 51
00000000
00000000
00010000
00000000
00000100
00000000
00001000
00000000
00000010
00000000
00000000
00000100
00000000
00000000
00000001
00000000
,  // measure 52
00000010
00001000
00000010
00000001
00000100
00000010
00000010
00000010
,  // measure 53
00001010
00001100
00010100
00011000
,  // measure 54
01001000
00000000
00100000
00200000
00000000
00300000
00000000
00000000
,  // measure 55
10000000
00000000
01000000
00000000
00100000
00000000
00010000
00000000
00010000
00000000
00000000
00100000
00000000
00000000
01000000
00000000
,  // measure 56
10000000
00000000
00010000
00100000
00001000
00000000
00010000
00000100
00001000
00000000
00000100
00001000
00000010
00000000
00000010
00000000
,  // measure 57
00000110
00000110
00001010
00001010
,  // measure 58
00000101
00000000
00000000
00011000
00000000
00001000
00100000
00001000
,  // measure 59
00000000
00000000
00010000
00000000
00000100
00000000
00000000
00000000
00001000
00000000
00000000
00000010
00000000
00000000
00000100
00000000
,  // measure 60
00000002
00000100
00000100
00000103
,  // measure 61
00000010
00000000
00010000
00000000
00001000
00000000
00000000
00000000
01000000
00000000
00000000
00100000
00000000
00000000
10000000
00000000
,  // measure 62
00010000
00100000
00010000
00100000
00001000
00010000
00001000
00010000
,  // measure 63
00000100
00010000
00000100
00010000
00000100
00010000
00000100
00010000
00000100
00010000
00000100
00010000
00000100
00010000
00000100
00010000
,  // measure 64
00002000
00000000
00000000
00000000
,  // measure 65
00003000
00000000
00000000
00000000
00000000
00000000
00010000
00010000
,  // measure 66
10000000
00010000
10000000
10000000
00010000
10000000
00010000
00100000
,  // measure 67
00001000
00010000
00000100
00001000
00000010
00000100
00000001
00000001
,  // measure 68
00000010
00000001
00000001
00000010
00000100
00001000
00000100
00010000
,  // measure 69
00001000
01000000
00001000
00010000
00000100
00010000
00001000
00001000
,  // measure 70
01000000
00001000
00001000
00010000
00000100
00001000
00000010
00000100
,  // measure 71
00000001
00000010
00000100
00001000
00000100
00010000
00000100
00000100
,  // measure 72
00010000
00000100
00000100
00010000
00001000
00100000
00110000
00000000
,  // measure 73
11000000
00000000
00110000
11000000
00110000
11000000
10000000
01000000
,  // measure 74
00010000
01000000
10000000
00100000
01000000
00010000
00100000
00001000
,  // measure 75
00010000
00000100
00001000
00000001
00001000
00000010
00000001
00000010
,  // measure 76
00001000
00000100
00001000
00000010
00010000
00001000
00100000
00001000
,  // measure 77
00010000
00000100
00010000
00001000
01000000
10000000
01000000
00010000
,  // measure 78
10000000
01000000
00100000
00010000
00100000
00001000
00010000
00000100
,  // measure 79
00001000
00000000
00000010
00000000
00000100
00000000
00000001
00000000
00001000
00000010
00001000
00000010
00000100
00000010
00000100
00000010
,  // measure 80
00000100
00000001
00000100
00000001
00001000
00000010
00001000
00000010
00010000
00000000
00001000
00100000
00010000
00000000
00100000
01000000
,  // measure 81
10000000
00000000
01000000
10000000
00100000
00000000
01000000
00010000
00100000
00000000
00001000
00010000
00000100
00000000
00000100
00001000
,  // measure 82
00000010
00000000
00000010
00001000
00000100
00000000
00000100
00010000
00011000
00000000
00000000
00000000
00110000
00000000
00000000
00000000
,  // measure 83
00002020
00000000
00000000
00000000
,  // measure 84
00003030
00000000
00000000
00000000
;
