#VERSION:0.83;
#TITLE:Kailua -xac tropical ocean mix-;
#SUBTITLE:;
#ARTIST:Remixed by xac;
#TITLETRANSLIT:;
#SUBTITLETRANSLIT:;
#ARTISTTRANSLIT:;
#GENRE:;
#ORIGIN:;
#CREDIT:;
#BANNER:Kailua -xac tropical ocean mix-.png;
#BACKGROUND:Kailua -xac tropical ocean mix--bg.png;
#PREVIEWVID:;
#JACKET:Kailua -xac tropical ocean mix--jacket.png;
#CDIMAGE:;
#DISCIMAGE:;
#LYRICSPATH:;
#CDTITLE:cdtitle.png;
#MUSIC:Kailua -xac tropical ocean mix-.ogg;
#OFFSET:-0.080000;
#SAMPLESTART:46.957001;
#SAMPLELENGTH:30.000000;
#SELECTABLE:YES;
#BPMS:0.000=128.000;
#STOPS:;
#DELAYS:;
#WARPS:;
#TIMESIGNATURES:0.000=4=4;
#TICKCOUNTS:0.000=4;
#COMBOS:0.000=1;
#SPEEDS:0.000=1.000=0.000=0;
#SCROLLS:0.000=1.000;
#FAKES:;
#LABELS:0.000=Song Start;
#BGCHANGES:;
#KEYSOUNDS:;
#ATTACKS:
;

//---------------dance-single - ----------------
#NOTEDATA:;
#CHARTNAME:;
#STEPSTYPE:dance-single;
#DESCRIPTION:;
#CHARTSTYLE:;
#DIFFICULTY:Beginner;
#METER:3;
#RADARVALUES:0.104295,0.177649,0.041718,0.000000,0.000000,105.000000,99.000000,6.000000,0.000000,0.000000,0.000000,0.000000,0.000000,0.000000,0.104295,0.177649,0.041718,0.000000,0.000000,105.000000,99.000000,6.000000,0.000000,0.000000,0.000000,0.000000,0.000000,0.000000;
#CREDIT:Pandemonium X;
#NOTES:
// measure 0
0000
0000
0000
0000
,  // measure 1
0000
0000
0000
0000
,  // measure 2
0000
0000
0000
0000
,  // measure 3
0000
0000
0000
0000
,  // measure 4
0000
0000
0000
0000
,  // measure 5
0000
0000
0000
0000
,  // measure 6
0000
0000
0000
0000
,  // measure 7
0000
0000
0000
0000
,  // measure 8
0000
0000
0000
0000
,  // measure 9
0001
0000
0000
0000
,  // measure 10
0000
0000
0000
0000
,  // measure 11
1000
0000
0000
0000
,  // measure 12
0000
0000
0000
0000
,  // measure 13
0001
0000
0000
0000
,  // measure 14
1000
0000
0000
0000
,  // measure 15
0010
0000
0000
0000
,  // measure 16
0000
0000
0000
0000
,  // measure 17
0110
0000
0001
0000
,  // measure 18
1000
0000
0001
0000
,  // measure 19
1000
0000
0100
0000
,  // measure 20
1000
0000
0010
0000
,  // measure 21
0100
0000
0001
0000
,  // measure 22
0010
0000
0100
0000
,  // measure 23
1000
0000
0001
0000
,  // measure 24
0100
0000
0010
1001
,  // measure 25
0001
0000
0000
0001
0000
0000
0001
0000
,  // measure 26
0000
0000
0000
0000
,  // measure 27
1000
0000
0000
1000
0000
0000
1000
0000
,  // measure 28
0000
0000
0000
0000
,  // measure 29
0010
0000
0000
0010
0000
0000
0010
0000
,  // measure 30
0000
0000
0000
0000
,  // measure 31
0100
0000
0000
0100
0000
0000
0100
0000
,  // measure 32
0000
0000
0010
0000
,  // measure 33
0100
0000
0000
0100
0000
0000
0100
0000
,  // measure 34
0000
0000
0000
0000
,  // measure 35
0001
0000
0000
0001
0000
0000
0001
0000
,  // measure 36
0000
0000
1000
0000
,  // measure 37
0001
0000
0000
0000
,  // measure 38
1000
0000
0000
0010
,  // measure 39
1001
0000
0000
0000
,  // measure 40
0000
0000
0000
0000
,  // measure 41
0001
0000
1000
0000
,  // measure 42
0010
0000
0100
0100
,  // measure 43
0010
0000
1000
0000
,  // measure 44
0100
0000
0010
0010
,  // measure 45
0001
0000
1000
0000
,  // measure 46
0001
0000
0100
0100
,  // measure 47
0010
0000
0100
0000
,  // measure 48
0001
0000
1000
0001
,  // measure 49
1001
0000
1000
0000
,  // measure 50
0001
0000
0100
0100
,  // measure 51
0010
0000
1000
0000
,  // measure 52
0100
0000
0010
0010
,  // measure 53
0001
0000
0100
0000
,  // measure 54
0010
0000
1000
0001
,  // measure 55
1000
0000
0001
0000
,  // measure 56
0100
0000
0010
0100
,  // measure 57
1001
0000
0000
0001
0000
0000
0001
0000
,  // measure 58
0000
0000
0000
0000
,  // measure 59
0000
0000
0000
0000
,  // measure 60
0000
0000
0000
0000
,  // measure 61
1000
0000
0000
1000
0000
0000
1000
0000
,  // measure 62
0000
0000
0000
0000
,  // measure 63
0000
0000
0000
0000
,  // measure 64
0000
0000
0000
0000
,  // measure 65
0010
0000
0000
0010
0000
0000
0010
0000
,  // measure 66
0000
0000
0000
0000
,  // measure 67
0000
0000
0000
0000
,  // measure 68
0000
0000
0000
0000
,  // measure 69
0100
0000
0000
0100
0000
0000
0100
0000
,  // measure 70
0000
0000
0000
0000
,  // measure 71
0000
0000
0000
0000
,  // measure 72
0000
0000
0000
0000
,  // measure 73
1001
0000
0000
0000
;

//---------------dance-single - ----------------
#NOTEDATA:;
#CHARTNAME:;
#STEPSTYPE:dance-single;
#DESCRIPTION:;
#CHARTSTYLE:;
#DIFFICULTY:Easy;
#METER:5;
#RADARVALUES:0.164885,0.329919,0.139060,0.354603,0.000000,166.000000,146.000000,20.000000,51.000000,0.000000,0.000000,0.000000,0.000000,0.000000,0.164885,0.329919,0.139060,0.354603,0.000000,166.000000,146.000000,20.000000,51.000000,0.000000,0.000000,0.000000,0.000000,0.000000;
#CREDIT:Pandemonium X;
#NOTES:
// measure 0
0000
0000
0000
0000
,  // measure 1
0000
0000
0000
0000
,  // measure 2
0000
0000
0000
0000
,  // measure 3
0000
0000
0000
0000
,  // measure 4
0000
0000
0000
0000
,  // measure 5
0000
0000
0000
0000
,  // measure 6
0000
0000
0000
0000
,  // measure 7
0000
0000
0000
0000
,  // measure 8
0000
0000
0000
0000
,  // measure 9
1000
0000
0000
1000
0000
0000
2000
0000
,  // measure 10
0000
0000
0000
0000
,  // measure 11
3001
0000
0000
0001
0000
0000
0002
0000
,  // measure 12
0000
0000
0103
0010
,  // measure 13
0100
0000
0000
0200
0000
0000
0000
0000
,  // measure 14
0320
0000
0000
2030
,  // measure 15
0002
0000
0000
0000
,  // measure 16
0000
0000
0000
3003
,  // measure 17
1000
0001
0010
0001
,  // measure 18
0100
0001
0010
0001
,  // measure 19
1000
0001
0100
0001
,  // measure 20
1000
0010
0100
0010
,  // measure 21
1000
1000
0001
0001
,  // measure 22
0010
0010
0100
0100
,  // measure 23
1000
0100
0010
0001
,  // measure 24
1000
0000
0001
0000
0100
0010
1001
0000
,  // measure 25
0002
0000
0000
0203
0000
0000
0020
0000
,  // measure 26
0000
0000
0000
0330
,  // measure 27
0200
0000
0000
0302
0000
0000
2000
0000
,  // measure 28
0000
0000
0000
3003
,  // measure 29
0200
0000
0000
0320
0000
0000
0002
0000
,  // measure 30
0000
0000
0000
0033
,  // measure 31
0020
0000
0000
0032
0000
0000
0200
0000
,  // measure 32
0000
0303
0020
2030
,  // measure 33
3002
0000
0000
2003
0000
0000
0020
0000
,  // measure 34
0000
0000
0000
0000
0000
0000
3030
0100
,  // measure 35
0002
0000
0000
0023
0000
0000
0200
0000
,  // measure 36
0000
0330
2000
3200
,  // measure 37
0320
0000
0000
0032
0000
0000
0000
0000
,  // measure 38
0203
0000
0000
0302
,  // measure 39
2000
0000
0000
0000
,  // measure 40
0000
0000
0000
3003
,  // measure 41
0110
0000
1001
0000
,  // measure 42
0001
1000
0010
1000
,  // measure 43
1100
0000
0101
0000
,  // measure 44
0001
0010
0100
0010
,  // measure 45
0011
0000
1010
0000
,  // measure 46
1000
0010
0100
0001
,  // measure 47
1001
0000
0110
0000
,  // measure 48
1001
1001
0110
0110
,  // measure 49
0001
0100
0010
1000
,  // measure 50
0010
0000
0100
0000
0001
0010
0001
0000
,  // measure 51
0010
0100
1000
0100
,  // measure 52
1000
0000
0001
0000
0100
0010
0100
0000
,  // measure 53
0010
1000
0001
0010
,  // measure 54
0100
0000
1000
0000
0100
1000
0100
0000
,  // measure 55
1000
0001
0100
0001
,  // measure 56
0010
0100
1000
0100
,  // measure 57
0020
0000
0000
0032
0000
0000
0203
0000
,  // measure 58
0000
0000
0000
0000
,  // measure 59
0000
0000
0000
0000
,  // measure 60
0000
0000
0000
0300
,  // measure 61
0020
0000
0000
2030
0000
0000
3002
0000
,  // measure 62
0000
0000
0000
0000
,  // measure 63
0000
0000
0000
0000
,  // measure 64
0000
0000
0000
0003
,  // measure 65
2200
0000
3300
0022
0000
0033
2002
0000
,  // measure 66
0000
0000
0000
0000
,  // measure 67
0000
0000
0000
0000
,  // measure 68
0000
0000
0000
3003
,  // measure 69
0202
0000
0303
2020
0000
3030
2002
0000
,  // measure 70
0000
0000
0000
0000
,  // measure 71
0000
0000
0000
0000
,  // measure 72
0000
0000
0000
3003
,  // measure 73
0110
0000
0000
0000
;

//---------------dance-single - ----------------
#NOTEDATA:;
#CHARTNAME:;
#STEPSTYPE:dance-single;
#DESCRIPTION:;
#CHARTSTYLE:;
#DIFFICULTY:Medium;
#METER:10;
#RADARVALUES:0.302952,0.431433,0.111248,0.361556,0.159919,305.000000,289.000000,16.000000,52.000000,0.000000,0.000000,0.000000,0.000000,0.000000,0.302952,0.431433,0.111248,0.361556,0.159919,305.000000,289.000000,16.000000,52.000000,0.000000,0.000000,0.000000,0.000000,0.000000;
#CREDIT:Pandemonium X;
#NOTES:
// measure 0
0000
0000
0000
0000
,  // measure 1
0000
0000
0000
0000
,  // measure 2
0000
0000
0000
0000
,  // measure 3
0000
0000
0000
0000
,  // measure 4
0000
0000
0000
0000
,  // measure 5
0000
0000
0000
0000
,  // measure 6
0000
0000
0000
0000
,  // measure 7
0000
0000
0000
0000
,  // measure 8
0000
0000
0000
0000
,  // measure 9
0002
0000
0000
0203
0000
0000
0020
0000
,  // measure 10
0000
0000
0000
0000
0300
0000
0000
0230
,  // measure 11
0302
0000
0000
2003
0000
0000
3002
0000
,  // measure 12
0000
0000
0000
0000
0023
0032
2003
3200
,  // measure 13
0320
0000
0000
0230
0000
0000
0000
0000
,  // measure 14
2300
0000
0000
3020
,  // measure 15
0200
0000
0000
0000
,  // measure 16
0000
0000
0330
1001
,  // measure 17
0001
0000
1000
0000
0100
0010
0001
0000
,  // measure 18
0010
0000
0100
0000
1000
0010
0100
0001
,  // measure 19
0010
0000
0001
0000
1000
0001
0100
0000
,  // measure 20
0010
0000
1000
0000
0100
1000
0001
1000
,  // measure 21
0010
0000
0100
0000
0001
0010
0100
0000
,  // measure 22
1000
0000
0100
0000
1000
0010
0100
0000
,  // measure 23
0001
0100
0010
1000
0001
0010
0100
1000
,  // measure 24
0001
0100
1000
0100
0001
1000
1001
0000
,  // measure 25
0002
0000
0013
0200
0000
1300
0020
0000
,  // measure 26
1000
1000
0100
0100
,  // measure 27
2030
0000
3001
0020
0000
0130
0020
0000
,  // measure 28
0001
0001
0100
0100
,  // measure 29
0032
0000
0013
0002
0000
0103
0020
0000
,  // measure 30
1000
1000
0100
0100
,  // measure 31
2030
0000
3001
0020
0000
0130
2000
0000
,  // measure 32
0001
0000
0001
0000
3200
2300
3002
0203
,  // measure 33
0320
0000
1030
2010
0000
3001
0201
0000
,  // measure 34
0010
0000
0001
0000
0010
0000
0301
0100
,  // measure 35
0201
0000
0301
0021
0000
0130
1200
0000
,  // measure 36
1000
0000
1000
0000
2300
3020
0230
0302
,  // measure 37
2003
0000
0000
0002
0000
0000
3003
0000
,  // measure 38
0202
0000
0000
0000
0000
0303
0022
0033
,  // measure 39
2002
0000
0000
3003
,  // measure 40
1000
0010
0001
0010
1000
0001
1001
0000
,  // measure 41
0101
0000
0000
0100
0000
0000
0001
0000
0010
0000
0000
0100
0000
0000
1000
0000
,  // measure 42
0100
0000
0000
1000
0000
1000
0000
0000
0001
0000
1000
0000
1001
0000
0000
0000
,  // measure 43
1000
0000
0000
0001
0000
0000
0010
0000
0001
0000
0000
0100
0000
0000
0010
0000
,  // measure 44
1000
0000
0000
0010
0000
0100
0000
0000
0001
0000
1000
0000
0100
0000
0010
0000
,  // measure 45
0001
0000
0000
0010
0000
0000
0001
0000
0100
0000
0000
0010
0000
0000
1000
0000
,  // measure 46
0001
0000
0000
0010
0000
0000
0100
0000
0010
0000
0001
0000
0101
0000
0000
0000
,  // measure 47
0001
0000
0000
0100
0000
0000
0001
0000
1000
0000
0000
0100
0000
0000
1000
0000
,  // measure 48
0001
0100
0001
0100
0010
1000
0010
0000
,  // measure 49
1000
0000
0000
0001
0000
0001
0000
0000
0010
0000
0000
0100
0000
0100
0000
0000
,  // measure 50
0010
0000
0000
0001
0000
0100
0000
0000
0010
0000
1000
0000
1001
0000
0000
0000
,  // measure 51
1000
0000
0000
0100
0000
0100
0000
0000
1000
0000
0000
0010
0000
0010
0000
0000
,  // measure 52
0100
0000
0000
0001
0000
0001
0000
0000
0010
0000
0100
0000
1000
0000
0001
0000
,  // measure 53
0100
0000
0000
0001
0000
0010
0000
0000
0100
0000
0000
1000
0000
0000
0100
0000
,  // measure 54
1000
0000
0000
0010
0000
0000
0100
0000
0001
0000
0010
0000
0100
0000
1000
0000
,  // measure 55
0001
0000
0000
1000
0000
0000
0010
0000
1000
0000
0000
0001
0000
0000
0010
0000
,  // measure 56
0001
0010
0100
1000
0100
0010
0001
0000
,  // measure 57
1000
0000
0000
1000
0000
0000
0001
0000
0000
0001
0000
0000
0100
0000
0000
0100
,  // measure 58
0000
0000
0100
0000
0000
0100
0000
0000
0100
0000
0000
0000
0000
0000
0000
0000
,  // measure 59
0010
0000
1000
0000
,  // measure 60
0001
0000
0010
0000
,  // measure 61
0100
0000
0000
0100
0000
0000
1000
0000
0000
1000
0000
0000
0001
0000
0000
0001
,  // measure 62
0000
0000
0001
0000
0000
0001
0000
0000
0001
0000
0000
0000
0000
0000
0000
0000
,  // measure 63
1000
0000
0001
0000
,  // measure 64
0100
0000
0010
0000
,  // measure 65
1000
0000
0000
1000
0000
0000
0001
0000
0000
0001
0000
0000
0010
0000
0000
0100
,  // measure 66
0000
0000
1000
0000
0000
0002
0000
0000
0100
0000
0000
0000
0000
0000
0000
0000
,  // measure 67
0100
0000
0100
0000
,  // measure 68
0100
0000
0103
0000
,  // measure 69
0010
0000
0000
1000
0000
0000
0010
0000
0000
0100
0000
0000
0001
0000
0000
0200
,  // measure 70
0000
0000
0010
0000
,  // measure 71
0010
0000
0010
0000
,  // measure 72
0310
1000
0001
0100
,  // measure 73
1001
0000
0000
0000
;

//---------------dance-single - ----------------
#NOTEDATA:;
#CHARTNAME:;
#STEPSTYPE:dance-single;
#DESCRIPTION:;
#CHARTSTYLE:;
#DIFFICULTY:Hard;
#METER:14;
#RADARVALUES:0.453931,0.677917,0.361556,0.639675,0.451944,457.000000,405.000000,52.000000,92.000000,0.000000,11.000000,0.000000,0.000000,0.000000,0.453931,0.677917,0.361556,0.639675,0.451944,457.000000,405.000000,52.000000,92.000000,0.000000,11.000000,0.000000,0.000000,0.000000;
#CREDIT:Pandemonium X;
#NOTES:
// measure 0
0000
0000
0000
0000
,  // measure 1
0000
0000
0000
0000
,  // measure 2
0000
0000
0000
0000
,  // measure 3
0000
0000
0000
0000
,  // measure 4
0000
0000
0000
0000
,  // measure 5
0000
0000
0000
0000
,  // measure 6
0000
0000
0000
0000
,  // measure 7
0000
0000
0000
0000
,  // measure 8
0000
0000
0000
0000
,  // measure 9
0202
0000
0303
0022
0000
0033
2200
0000
,  // measure 10
0000
0000
0000
0000
0000
0000
3300
0200
,  // measure 11
2000
0000
3300
2020
0000
3030
0202
0000
,  // measure 12
0000
0000
0000
0003
0302
0023
2030
3020
,  // measure 13
0032
0000
0003
2200
0000
0000
0000
3300
,  // measure 14
2020
0000
0000
0000
0000
3030
0202
0303
,  // measure 15
2002
0000
0000
0000
,  // measure 16
0000
0000
0000
3003
,  // measure 17
0001
1000
0000
0100
0000
0000
0010
0000
0001
0010
0000
0001
0000
1000
0001
0000
,  // measure 18
0100
0010
0000
0100
0000
0000
0010
0000
1000
0100
0000
1000
0000
0001
0010
0000
,  // measure 19
0100
1000
0000
0010
0000
0000
0100
0000
0001
1000
0000
0100
0000
1000
0010
0000
,  // measure 20
0100
0010
0000
1000
0000
0000
0001
0000
0010
0001
0000
0100
0000
0001
0010
0000
,  // measure 21
0001
1000
0001
1000
0001
0010
0100
1000
,  // measure 22
0001
1000
0001
1000
0010
0100
0001
1000
,  // measure 23
0100
1000
0100
0000
1000
0010
1000
0000
0010
0100
0010
0000
0100
0001
0100
0000
,  // measure 24
0001
1000
0001
1000
0010
0100
0010
0100
0001
0000
1000
0000
0110
0000
0000
0000
,  // measure 25
2001
0000
3001
0201
0000
0301
0021
0000
,  // measure 26
0001
0100
0001
0130
,  // measure 27
1200
0000
1300
1020
0000
0130
0102
0000
,  // measure 28
0010
0100
0010
0103
,  // measure 29
2001
0000
3001
2010
0000
3010
1200
0000
,  // measure 30
0010
0001
0010
0301
,  // measure 31
1002
0000
1003
1020
0000
0130
0120
0000
,  // measure 32
1000
0000
0100
0000
2030
3020
0230
0302
,  // measure 33
0023
0000
0130
2200
0000
3310
0022
0003
,  // measure 34
0100
0000
0001
0000
0100
0000
0031
0100
,  // measure 35
0220
0000
1330
2200
0000
3301
0202
0300
,  // measure 36
0010
0000
0100
0000
0023
2030
3020
0032
,  // measure 37
1003
0010
0100
0001
0010
1000
0010
0001
,  // measure 38
1000
0010
1000
0001
0100
1000
0100
0001
,  // measure 39
1000
0100
1000
0000
0001
0100
0001
0000
0010
0001
0010
0000
0100
1000
0100
0000
,  // measure 40
1000
0100
1000
0100
0010
0001
0010
0001
1000
0000
0001
0000
1001
0000
0000
0000
,  // measure 41
0001
0100
0000
0010
0000
0100
0001
0000
1000
0100
0000
0010
0000
0100
1000
0000
,  // measure 42
0001
1000
0000
0010
0000
1010
0000
0000
0100
0001
0100
0000
0011
0000
0000
0000
,  // measure 43
0010
0100
0000
0010
0000
0001
1000
0000
0010
0100
0000
0001
0000
0010
0100
0000
,  // measure 44
1000
0001
0000
0100
0000
0001
0000
0000
1000
0100
0010
0000
0011
0000
0010
0000
,  // measure 45
0100
1000
0000
0010
0000
0100
0010
0000
0100
0001
0000
0010
0000
0100
1000
0000
,  // measure 46
0001
1000
0000
0010
0000
1000
0000
1000
0001
0010
0100
0000
1100
0000
1000
0000
,  // measure 47
0001
1000
0000
0001
0000
0010
0100
0000
0010
0001
0000
1000
0000
0100
0010
0000
,  // measure 48
0100
1000
0010
1000
0001
0100
0001
1000
0010
0100
0001
0000
1001
0000
0000
0000
,  // measure 49
0001
0010
0000
0100
0000
0100
0000
0000
0010
0001
0000
1000
0000
0001
1000
0000
,  // measure 50
0010
0100
0000
0001
0000
0010
0000
0000
0100
0000
1000
0000
1001
0000
0001
0000
,  // measure 51
0100
0001
0000
0010
0000
0001
0000
0000
1000
0100
0000
0010
0000
0100
0000
0000
,  // measure 52
1000
0100
0000
0010
0000
0100
0000
0000
1000
0001
0100
0000
0110
0000
0010
0000
,  // measure 53
1000
0010
0000
1000
0000
0001
0010
0000
0100
1000
0000
0100
0000
1000
0010
0000
,  // measure 54
0100
0000
0000
0001
0000
0010
0100
0000
1000
0000
0100
0000
1000
0000
0010
0000
,  // measure 55
0100
0001
0000
0010
0000
0100
1000
0000
0100
1000
0000
0010
0000
0100
0010
0000
,  // measure 56
1000
0001
0000
0010
0000
0100
0000
0010
0001
0100
0010
0000
0110
0000
1001
0000
,  // measure 57
0210
0000
0000
0320
0000
0000
2030
0000
0000
3002
0000
0000
2003
0000
0000
3020
,  // measure 58
0000
0000
0230
0000
0000
0302
0000
0000
0023
0000
0000
0032
0000
0000
2003
0000
,  // measure 59
3100
0010
0001
0010
,  // measure 60
0001
0100
0010
1000
,  // measure 61
1002
0000
0000
0103
0000
0000
2001
0000
0000
3100
0000
0000
1002
0000
0000
0010
,  // measure 62
0000
0000
1000
0000
0000
0100
0000
0000
1000
0000
0000
1000
0000
0000
0103
0000
,  // measure 63
0010
0100
0001
0010
,  // measure 64
0100
1000
0010
0100
,  // measure 65
2002
0000
0000
3223
0000
0000
2332
0000
0000
3223
0000
0000
2332
0000
0000
0000
,  // measure 66
0000
0000
0000
3003
,  // measure 67
0001
1000
0010
1000
,  // measure 68
0100
0010
0001
0010
,  // measure 69
0220
0000
0000
2332
0000
0000
3223
0000
0000
2332
0000
0000
3223
0000
0000
0000
,  // measure 70
0000
0000
0000
0330
,  // measure 71
0001
0010
0100
1000
,  // measure 72
0010
0100
0001
1000
,  // measure 73
2002
0000
0000
0000
,  // measure 74
0000
0000
0000
0000
,  // measure 75
3003
0000
0000
0000
;
