#VERSION:0.83;
#TITLE:It's The Day After The Party;
#SUBTITLE:;
#ARTIST:DJ Zuul;
#TITLETRANSLIT:;
#SUBTITLETRANSLIT:;
#ARTISTTRANSLIT:;
#GENRE:;
#ORIGIN:;
#CREDIT:;
#BANNER:It's The Day After The Party.png;
#BACKGROUND:It's The Day After The Party-bg.png;
#PREVIEWVID:;
#JACKET:It's The Day After The Party-jacket.png;
#CDIMAGE:;
#DISCIMAGE:;
#LYRICSPATH:;
#CDTITLE:cdtitle.png;
#MUSIC:It's The Day After The Party.ogg;
#OFFSET:-0.006000;
#SAMPLESTART:78.242996;
#SAMPLELENGTH:15.000000;
#SELECTABLE:YES;
#BPMS:0.000=138.000;
#STOPS:52.000=3.043,
165.000=3.026;
#DELAYS:;
#WARPS:;
#TIMESIGNATURES:0.000=4=4;
#TICKCOUNTS:0.000=4;
#COMBOS:0.000=1;
#SPEEDS:0.000=1.000=0.000=0;
#SCROLLS:0.000=1.000;
#FAKES:;
#LABELS:0.000=Song Start;
#BGCHANGES:;
#KEYSOUNDS:;
#ATTACKS:
;

//---------------dance-single - ----------------
#NOTEDATA:;
#CHARTNAME:;
#STEPSTYPE:dance-single;
#DESCRIPTION:;
#CHARTSTYLE:;
#DIFFICULTY:Beginner;
#METER:2;
#RADARVALUES:0.103871,0.187290,0.089866,0.000000,0.000000,89.000000,78.000000,11.000000,0.000000,0.000000,0.000000,0.000000,0.000000,0.000000,0.103871,0.187290,0.089866,0.000000,0.000000,89.000000,78.000000,11.000000,0.000000,0.000000,0.000000,0.000000,0.000000,0.000000;
#CREDIT:RaverAce;
#NOTES:
// measure 0
0000
0000
0000
0000
,  // measure 1
0000
0000
0000
0000
,  // measure 2
0000
0000
0000
0000
,  // measure 3
0000
0000
0000
0000
,  // measure 4
0000
0000
0000
0000
,  // measure 5
0001
0000
0000
0000
,  // measure 6
0001
0000
0000
0000
,  // measure 7
1000
0000
0000
0000
,  // measure 8
1000
0000
0000
0000
,  // measure 9
0010
0000
0000
0000
,  // measure 10
0010
0000
0000
0000
,  // measure 11
0100
0000
0000
0000
,  // measure 12
0100
0000
0000
0000
,  // measure 13
1001
0000
0000
0000
,  // measure 14
0000
0000
0000
0000
,  // measure 15
0000
0000
0000
0000
,  // measure 16
0000
0000
0000
0000
,  // measure 17
0000
0110
0000
0000
,  // measure 18
0000
0000
0000
0000
,  // measure 19
0000
1000
0000
0001
,  // measure 20
0000
1001
0000
0000
,  // measure 21
0000
1001
0000
1000
,  // measure 22
0000
0100
0000
0010
,  // measure 23
0000
0001
0000
0100
,  // measure 24
0000
0010
0000
1000
,  // measure 25
0000
0010
0000
0100
,  // measure 26
0000
0001
0000
1000
,  // measure 27
0000
0100
0000
0010
,  // measure 28
0000
0110
0000
0000
,  // measure 29
0000
1000
0000
0000
,  // measure 30
0000
0001
0000
0000
,  // measure 31
0000
1000
0000
0000
,  // measure 32
0000
0001
0000
0000
,  // measure 33
0000
1001
0000
0000
,  // measure 34
0000
1000
0000
0000
,  // measure 35
0000
0010
0000
0000
,  // measure 36
0000
0100
0000
0000
,  // measure 37
0000
0001
0000
0000
,  // measure 38
0000
0010
0000
0000
,  // measure 39
0000
0100
0000
0000
,  // measure 40
0000
1000
0000
0001
,  // measure 41
0000
1001
1001
0000
,  // measure 42
0001
0000
0010
0000
,  // measure 43
0100
0000
1000
0000
,  // measure 44
0010
0000
0100
0000
,  // measure 45
0001
0000
1000
0000
,  // measure 46
1000
0000
0001
0000
,  // measure 47
0001
0000
1000
0000
,  // measure 48
0100
0000
0010
0000
,  // measure 49
0001
0000
1001
0000
,  // measure 50
1000
0000
0010
0000
,  // measure 51
0100
0000
0001
0000
,  // measure 52
0010
0000
0100
0000
,  // measure 53
1000
0000
0001
0000
,  // measure 54
0001
0000
1000
0000
,  // measure 55
1000
0000
0001
0000
,  // measure 56
0100
0000
0010
0000
,  // measure 57
1000
0000
1001
0000
,  // measure 58
0000
0000
0000
0000
,  // measure 59
0000
0000
0000
0000
,  // measure 60
0000
0000
0000
0000
,  // measure 61
0000
0000
0000
0000
,  // measure 62
0000
0000
0000
0000
,  // measure 63
0000
0000
0000
0000
,  // measure 64
0000
0000
0010
0000
,  // measure 65
0100
0000
1001
0000
;

//---------------dance-single - ----------------
#NOTEDATA:;
#CHARTNAME:;
#STEPSTYPE:dance-single;
#DESCRIPTION:;
#CHARTSTYLE:;
#DIFFICULTY:Easy;
#METER:5;
#RADARVALUES:0.207743,0.294312,0.081697,0.000000,0.000000,178.000000,168.000000,10.000000,0.000000,0.000000,0.000000,0.000000,0.000000,0.000000,0.207743,0.294312,0.081697,0.000000,0.000000,178.000000,168.000000,10.000000,0.000000,0.000000,0.000000,0.000000,0.000000,0.000000;
#CREDIT:Pandemonium X;
#NOTES:
0000
0000
0000
0000
,
0000
0000
0000
0000
,
0000
0000
0000
0000
,
0000
0000
0000
0000
,
0000
0000
0000
0000
,
1000
0000
0001
0000
,
0100
0000
0001
0010
,
0100
0000
0010
0000
,
0001
0000
1000
0001
,
0100
0000
0001
0000
,
0010
0001
0010
0000
,
0100
0000
1000
0000
,
0010
0100
0010
0100
,
1001
0001
0000
0000
,
0000
1000
0000
0000
,
0000
0010
0000
0000
,
0000
0100
0000
0000
,
0000
1001
0001
1000
,
0000
0010
0100
0010
,
0000
1000
0010
0100
,
0000
0001
0010
0100
,
1001
0110
0001
0100
,
0010
0100
0001
0100
,
0010
1000
0010
0100
,
0010
1000
0010
0100
,
0001
1000
0100
0010
,
0001
0010
0100
0010
,
0001
1000
0010
0100
,
0001
1001
0000
0000
,
0000
1000
0000
0000
,
0000
0001
0000
0000
,
0000
1000
0000
0000
,
0000
0001
0000
0000
,
0000
0001
0000
0010
,
0000
0100
0000
0010
,
0001
0100
0000
0010
,
0000
1000
0000
0010
,
0100
1001
0000
1000
,
0000
0001
0000
0010
,
0000
0100
0000
0010
,
0000
0001
0000
1000
,
0001
0110
0001
1000
,
0010
0000
1000
0001
,
0100
0000
0001
1000
,
0100
0000
0010
0100
,
1000
0010
0100
0001
,
0010
0000
0100
0010
,
0001
0000
1000
0001
,
0100
0000
0110
0000
,
1001
0000
0001
1000
,
0010
1000
1000
0001
,
0010
0100
0100
0010
,
0001
1000
1000
0100
,
1000
0010
0010
0100
,
0001
1000
1000
0001
,
0010
0100
0100
0010
,
0001
1000
0010
0100
,
0001
1000
1001
0000
,
0001
0000
1000
0000
,
0001
0000
1000
0000
,
0001
0000
1000
0000
,
0001
0000
1000
0000
,
0001
0000
1000
0000
,
0001
0000
1000
0000
,
0001
0000
1000
0100
,
0010
0000
0001
0100
0010
0000
0000
0000
;

//---------------dance-single - ----------------
#NOTEDATA:;
#CHARTNAME:;
#STEPSTYPE:dance-single;
#DESCRIPTION:;
#CHARTSTYLE:;
#DIFFICULTY:Medium;
#METER:9;
#RADARVALUES:0.313949,0.374579,0.163393,0.236920,0.000000,269.000000,249.000000,20.000000,29.000000,0.000000,0.000000,0.000000,0.000000,0.000000,0.313949,0.374579,0.163393,0.236920,0.000000,269.000000,249.000000,20.000000,29.000000,0.000000,0.000000,0.000000,0.000000,0.000000;
#CREDIT:RaverAce;
#NOTES:
0000
0000
0000
0000
,
0000
0000
0000
0000
,
0000
0000
0000
0000
,
0000
0000
0000
0000
,
0000
0000
0000
0000
,
0001
0101
0001
0011
,
0010
0110
0100
1100
,
1000
1010
1000
1100
,
1000
0000
1010
0000
1000
0000
0001
1000
,
0100
0000
0001
0000
0100
1000
0010
0000
,
0100
0000
0001
0000
0010
0100
1000
0000
,
0010
0000
0001
0000
0010
0100
0001
0000
,
2002
0000
0000
0000
3003
0000
0001
0100
,
0120
0000
0000
2030
0000
0000
0000
0000
,
0000
3200
0000
0000
,
0000
0320
0000
0000
,
0000
0032
0000
0000
,
0003
1002
0000
0000
,
0003
0200
0000
0000
,
0000
0020
0000
0000
,
0330
2002
0000
3003
,
1000
0001
1001
0000
1000
0000
0100
0000
,
1000
0010
0100
0000
0001
0000
1000
0000
,
0100
0001
0100
0000
1000
0000
0010
0000
,
0100
0010
0100
0000
0001
0000
0010
0000
,
0100
0100
1000
0000
0001
0000
0100
0000
,
0001
0010
0100
0000
1000
0000
0001
0000
,
0100
1000
0100
0000
0001
0000
0010
0000
,
0100
0010
0012
0000
0203
0000
2300
0000
,
3100
0010
2000
0000
0000
0000
3010
0000
,
1000
0002
0000
0013
,
0001
2000
0000
3100
,
0010
0002
0000
0000
,
1003
1000
1001
0000
0001
0000
0010
0000
,
1000
0010
0001
0100
,
0010
1000
0001
0000
1000
0000
0010
0000
,
0001
0010
1000
0100
,
0010
0001
2001
0000
0010
0000
0010
0000
,
3020
0100
0100
0100
,
0230
0001
0001
0001
,
0302
0023
0230
2300
,
3001
1000
1001
0000
1001
0000
0001
0000
,
0100
0000
1000
0100
0001
0000
0010
0000
,
0100
0000
1000
0100
0001
0000
0100
0000
,
1000
0000
0010
0100
0001
0000
1000
0000
,
0100
0000
0010
0100
0010
0000
0100
0000
,
1000
0000
0001
0100
0001
0000
0010
0000
,
0100
0000
1000
0010
0100
0000
0001
0000
,
0010
0000
1000
0010
0100
0000
1000
0000
,
0001
0100
0001
0001
1001
0000
1000
0000
,
0100
0000
0001
0100
1000
0000
0010
0000
,
0100
0000
0001
0100
1000
0000
0100
0000
,
0001
0000
0010
0100
1000
0000
0001
0000
,
0100
0000
0010
0100
0010
0000
0100
0000
,
0001
0000
1000
0100
1000
0000
0010
0000
,
0100
0000
0001
0010
0100
0000
1000
0000
,
0010
0000
0001
0010
0200
0000
2300
0000
,
3020
0000
0130
0001
1001
0000
1000
0000
,
0001
1000
0010
0100
,
0010
0100
0001
0010
,
0001
0010
0100
1000
,
0100
0100
1000
0001
,
1000
0001
0010
0100
,
0010
0100
1000
0010
,
1000
0010
0100
0001
,
1000
0000
0001
1000
1001
0000
0000
0000
;

//---------------dance-single - ----------------
#NOTEDATA:;
#CHARTNAME:;
#STEPSTYPE:dance-single;
#DESCRIPTION:;
#CHARTSTYLE:;
#DIFFICULTY:Hard;
#METER:12;
#RADARVALUES:0.429491,0.481602,0.130715,0.000000,0.200157,368.000000,352.000000,16.000000,0.000000,0.000000,0.000000,0.000000,0.000000,0.000000,0.429491,0.481602,0.130715,0.000000,0.200157,368.000000,352.000000,16.000000,0.000000,0.000000,0.000000,0.000000,0.000000,0.000000;
#CREDIT:Pandemonium X;
#NOTES:
0000
0000
0000
0000
,
0000
0000
0000
0000
,
0000
0000
0000
0000
,
0000
0000
0000
0000
,
0000
0000
0000
0000
,
1000
1000
0001
0001
,
0010
0010
0100
0100
,
0010
0010
0001
0001
,
0100
0100
0010
0010
,
1000
0000
1000
0000
0000
0000
0001
1000
0000
0000
0000
0000
0000
0000
0100
0000
,
0010
0000
0010
0000
0000
0000
0100
1000
0000
0000
0000
0000
0000
0000
0001
0000
,
0000
0000
1000
0000
0000
0000
0010
0100
0000
0000
0000
0000
0000
0000
0010
0000
,
0010
0000
1000
0000
0001
0010
1000
0000
,
0011
0000
0000
1000
0010
0000
0010
0000
,
0010
0000
0000
0100
0000
0000
0010
0000
1000
0000
0000
0000
1000
0000
0000
0000
,
0001
0000
0000
0010
0000
0000
0100
0000
0010
0000
0000
0000
0010
0000
0000
0000
,
0001
0000
0000
1000
0000
0000
0100
0000
0010
0000
0000
0000
0001
0000
0000
0000
,
1000
0000
0000
0010
0100
0000
0000
0000
0010
0000
0000
0000
1000
0000
0000
0000
,
0001
0000
0000
0001
0000
0000
1000
0000
0001
0000
0000
0000
0100
0000
0000
0000
,
0010
0000
0000
0010
1000
0000
0000
0000
0001
0000
0000
0000
0010
0000
0000
0000
,
1000
0000
0000
0010
0000
0000
0000
0000
0001
0000
0000
0000
1000
0000
0000
0000
,
0110
0000
0001
1000
0010
1000
0001
1000
,
0100
0010
0000
0010
0000
0000
0100
0000
0010
0000
0001
0000
1000
0000
0010
0000
,
0100
0001
0000
0010
0000
0000
0100
0000
0010
0000
0100
0000
0010
0000
0001
0000
,
1000
0010
0000
1000
0000
0000
0001
0000
0010
0000
0100
0000
1000
0000
0010
0000
,
0100
0001
0000
1000
0000
0000
0100
0000
0100
0000
0010
0000
0100
0000
1000
0000
,
0010
1000
0000
0001
0000
0000
0010
0000
0010
0000
0001
0000
0100
0000
0010
0000
,
1000
0001
0000
0010
0000
0000
0100
0000
0100
0000
0010
0000
0100
0000
1000
0000
,
0001
1000
0000
0010
0100
0000
0000
0000
0100
0000
0000
0000
0100
0000
0000
0000
,
0100
1010
0010
1001
,
0010
0011
0001
1001
,
0001
1100
0001
1001
,
1000
0101
0000
0000
,
1001
0000
0001
0100
0010
0000
0100
0000
,
0110
0000
0010
1000
0100
0000
0010
0000
,
0011
0000
0001
1000
0100
0000
0010
0000
,
1100
0000
0001
0100
0010
0100
0001
0100
,
0010
1001
1000
0001
,
0001
0100
0100
0010
,
0010
0000
1000
0010
0000
0100
0001
0010
,
0000
0100
0010
0001
0000
0010
0100
1000
,
0010
0000
1001
0000
0001
0100
0010
1000
,
0001
0000
0100
0000
0010
0000
0000
0010
0000
0000
1000
0000
0100
0000
0010
0000
,
0001
0000
1000
0000
0100
0000
0000
1000
0000
0000
0001
0000
0010
0000
0100
0000
,
1000
0000
0100
0000
0010
0000
0000
0010
0000
0000
0100
0000
1000
0000
0010
0000
,
0100
0000
0001
0000
0010
0000
0000
0001
0000
0000
1000
0000
0001
0000
0100
0000
,
0010
0000
1000
0000
0001
0000
0000
0001
0000
0000
1000
0000
0100
0000
0010
0000
,
0001
0000
0010
0000
0100
0000
0000
0100
0000
0000
0010
0000
0001
0000
1000
0000
,
0100
0000
1000
0000
0010
0000
0000
0010
0000
0000
1000
0000
0100
0000
0010
0000
,
0001
0000
1000
0000
0010
0100
0000
0001
1000
0000
0010
0000
0100
0000
0001
0000
,
1000
0000
0010
0000
0100
0001
0000
0100
0000
0000
0010
0000
1000
0000
0010
0000
,
0100
0000
0010
0000
1000
0001
0000
0010
0000
0000
0100
0000
0010
0000
0001
0000
,
1000
0000
0010
0000
0100
0001
0000
0010
0000
0000
0100
0000
0010
0000
0001
0000
,
0010
0000
0100
0000
1000
0001
0000
0100
0000
0000
0010
0000
0010
0000
1000
0000
,
0010
0000
0010
0000
0010
1000
0000
0100
0000
0000
0010
0000
0010
0000
0001
0000
,
0010
0000
0010
0000
0100
0010
0000
0001
0000
0000
0100
0000
0100
0000
0010
0000
,
0100
0000
0100
0000
0100
0010
0000
1000
0000
0000
0001
0000
0010
0000
0100
0000
,
1000
0000
0100
0000
0010
0001
0000
0100
0010
0000
0000
0000
1000
0000
0000
0000
,
0001
0010
0001
1000
,
0100
0010
0100
1000
,
0001
0100
0010
0100
,
0001
1000
0100
0010
,
0100
1000
0001
0100
,
0001
1000
0100
1000
,
0001
0000
0100
0000
0001
0100
0001
0010
,
0001
0100
0010
1000
1001
0000
0000
0000
;

//---------------dance-single - ----------------
#NOTEDATA:;
#CHARTNAME:;
#STEPSTYPE:dance-single;
#DESCRIPTION:;
#CHARTSTYLE:;
#DIFFICULTY:Challenge;
#METER:14;
#RADARVALUES:0.545034,0.588625,0.236920,0.359465,0.482010,467.000000,438.000000,29.000000,44.000000,41.000000,0.000000,0.000000,0.000000,0.000000,0.545034,0.588625,0.236920,0.359465,0.482010,467.000000,438.000000,29.000000,44.000000,41.000000,0.000000,0.000000,0.000000,0.000000;
#CREDIT:RaverAce VS Pandemonium X;
#NOTES:
0000
0000
0000
0000
,
0000
0000
0000
0000
,
0000
0000
0000
0000
,
0000
0000
0000
0000
,
0000
0000
0000
0000
,
1000
0100
0010
0000
0000
0000
0001
0000
0100
0010
1000
0000
0000
0000
1000
0000
,
0001
0100
0010
0000
0000
0000
1000
0000
0100
0010
0001
0000
0000
0000
0001
0000
,
1000
0000
0000
0000
0000
0000
1010
0000
0000
0000
0000
0000
0010
0000
0000
0000
0000
0000
0100
0000
0000
0002
0000
0000
0000
0000
0000
0000
0000
0000
0000
0000
0000
0000
0000
0000
0013
0000
0000
0000
0000
0000
0100
0000
0010
0000
0100
0000
,
0010
0000
0000
0000
0000
0000
0001
0000
0000
0000
0000
0000
1000
0000
0000
0000
0000
0000
0010
0000
0000
2000
0000
0000
0000
0000
0000
0000
0000
0000
0000
0000
0000
0000
0000
0000
3100
0000
0000
0000
0000
0000
0010
0000
0100
0000
0010
0000
,
0100
0000
0000
0000
0000
0000
1000
0000
0000
0000
0000
0000
0001
0000
0000
0000
0000
0000
0100
0000
0000
2000
0000
0000
0000
0000
0000
0000
0000
0000
0000
0000
0000
0000
0000
0000
3100
0000
0000
0000
0000
0000
0010
0000
0100
0000
0010
0000
,
0100
0000
0000
0000
0000
0000
0001
0000
0000
0000
0000
0000
0010
0000
0000
0000
0000
0000
1000
0000
0000
0020
0000
0000
0000
0000
0000
0000
0000
0000
0000
0000
0000
0000
0000
0000
0031
0000
0000
0000
0000
0000
0010
0000
0100
0000
0010
0000
,
0100
0000
0000
0000
0000
0000
1000
0000
0000
0000
0000
0000
0001
0000
0000
0000
0000
0000
0100
0000
0000
0002
0000
0000
0000
0000
0000
0000
0000
0000
0000
0000
0000
0000
0000
0000
1003
0000
0000
0000
0000
0000
0010
0000
0100
0000
0010
0000
,
0200
0000
0000
0000
0000
0000
0000
0000
0000
0000
0000
0000
0000
0000
0000
0000
0000
0000
0310
0000
0100
0000
0010
0000
0100
0000
0000
0000
0000
0000
0001
0000
0000
0010
0000
0000
0100
0000
0000
0000
0000
0000
1000
0000
0000
0000
0000
0000
,
1002
0000
0000
0010
0010
0010
0010
0010
,
0013
0000
0100
0000
0000
2000
0000
0000
0000
0100
0000
0000
3200
0000
0000
0310
0000
0000
0020
0000
0000
0031
0000
0000
,
0100
0000
0010
0000
0000
0200
0000
0000
0000
0001
0000
0000
0001
0000
0000
0001
0000
0000
0001
0000
0000
0301
0000
0000
,
0010
0000
0100
0000
0000
2000
0000
0000
0000
3010
0000
0000
1000
0000
0000
1000
0000
0000
0100
0000
0000
0100
0000
0000
,
0010
0000
0001
0000
0000
0001
2000
0000
0000
0010
0000
0000
0010
0000
0000
0010
0000
0000
0010
0000
0000
0010
0000
0000
,
3010
0000
0100
0000
0000
0002
0000
0000
0000
0100
0000
0000
0203
0000
0000
0310
0000
0000
0020
0000
0000
1030
0000
0000
,
0100
0000
0010
0000
0000
0200
0000
0000
0000
1000
0000
0000
1000
0000
0000
1000
0000
0000
1000
0000
0000
1300
0000
0000
,
0010
0000
0100
0000
0000
0002
2000
0000
0000
0000
0000
0000
0000
0000
0000
0000
0000
0000
0003
0000
0000
0000
0000
0000
,
0001
3001
1001
1000
0010
0001
1000
0100
,
0001
0000
0010
0000
0000
2000
0000
0000
0000
3010
0000
0000
0100
0000
0000
0100
0000
0000
1000
0000
0000
1000
0000
0000
,
0001
0000
0100
0000
0000
2000
0000
0000
0000
3100
0000
0000
0010
0000
0000
0010
0000
0000
0100
0000
0000
0100
0000
0000
,
0001
0000
0010
0000
0000
0200
0000
0000
0000
0301
0000
0000
0010
0000
0000
1000
0000
0000
0010
0000
0000
0100
0000
0000
,
1000
0000
0010
0000
0000
0010
1000
0000
0000
0001
0000
0000
0010
0000
0000
1000
0000
0000
0001
0000
0000
0100
0000
0000
,
1000
0000
0010
0000
0000
0002
0000
0000
0000
0013
0000
0000
0100
0000
0000
0100
0000
0000
0001
0000
0000
0001
0000
0000
,
1000
0000
0100
0000
0000
0002
0000
0000
0000
0103
0000
0000
0010
0000
0000
0010
0000
0000
0100
0000
0000
0100
0000
0000
,
1000
0000
0010
0000
0000
0100
0001
0000
0000
0010
0000
0000
1000
0000
0000
0010
0000
0000
0200
0000
0000
0000
0000
0000
,
0310
0000
0000
0000
0001
0000
0000
0000
0000
0000
0000
0000
200M
0000
0000
00M0
0000
0000
0000
0000
0000
0MMM
0000
0000
0000
0000
0000
00M0
0000
0000
000M
0000
0000
0000
0000
0000
3MMM
0000
0000
0000
0000
0000
0000
0000
0000
0000
0000
0000
,
0110
0000
0000
0000
M002
0M00
0000
MMM0
0000
0M00
M000
0000
MMM3
0000
0000
0000
,
0110
0000
0000
0000
200M
00M0
0000
0MMM
0000
00M0
000M
0000
3MMM
0000
0000
0000
,
0110
0000
0000
0000
M002
0M00
0000
MMM0
0000
0M00
M000
0000
0000
0000
0000
0000
,
MMM3
0000
0000
0000
1000
0001
0020
0000
0000
0000
0130
0000
0010
0001
2000
0000
,
0000
0000
3100
0000
0010
0001
0200
0000
0000
0000
0310
0000
0100
0001
2000
0000
,
0000
3100
0010
0001
0100
0010
2000
0000
0000
0000
3100
0000
1000
0010
0200
0000
,
0000
0000
0310
0000
1000
0100
0010
0000
0001
0000
1000
0010
M000
0010
0001
0000
,
0101
0000
0010
0000
1001
0000
1000
0000
0000
0000
0001
1000
0000
0000
0000
0000
,
0000
0000
0000
0000
0000
0000
0100
0000
0010
0000
0100
0000
0000
0000
0000
0000
0000
0000
0010
0000
0000
0000
0000
0000
0000
0000
0000
0000
0000
0000
0000
0000
0000
0100
0000
0000
0000
0000
0000
0000
0000
0000
0000
0000
0000
0000
0000
0000
,
0000
0000
1000
0000
0001
0100
0020
0000
0000
0000
0130
0000
0010
1000
0200
0000
,
0000
0000
0000
0000
0000
0000
0310
0000
0000
0000
0000
0000
0100
0000
0000
1000
0000
0000
0002
0000
0000
0000
0000
0000
0000
0000
0000
0000
0000
0000
0103
0000
0000
0000
0000
0000
0010
0000
0000
1000
0000
0000
0001
0000
1000
0000
0001
0000
,
1000
0001
0110
0000
2010
0001
0001
0001
,
0001
0000
0000
0001
0000
0000
3001
0000
1000
0000
0000
0100
0000
0000
0000
0020
0000
0000
0100
0000
0000
0100
0000
0000
,
0001
0000
0000
0130
0000
0000
0010
0000
0100
0000
0000
1000
0000
0000
0000
2100
0000
0000
0100
0000
0000
0100
0000
0000
,
0100
0000
0000
0100
0000
0000
3100
0000
0010
0000
0000
0001
0000
0000
0000
1000
0000
0000
0010
0000
0000
0001
0000
0000
,
0010
0000
0000
1000
0000
0000
0001
0000
1000
0000
0000
0100
0000
0000
0000
0210
0000
0000
0010
0000
0000
0010
0000
0000
,
0010
0000
0000
0010
0000
0000
0310
0000
0100
0000
0000
1000
0000
0000
0000
2001
0000
0000
0001
0000
0000
0001
0000
0000
,
0010
0000
0000
3001
0000
0000
1000
0000
0100
0000
0000
0010
0000
0000
0000
0120
0000
0000
0100
0000
0000
0100
0000
0000
,
0100
0000
0000
0100
0000
0000
0130
0000
1000
0000
0000
0010
0000
0000
0000
0100
0000
0000
1000
0000
0000
0100
0000
0000
,
0001
0000
0000
1000
0000
0000
0010
0000
1000
0000
0000
0001
1000
0000
0000
1000
0000
0000
1100
0000
0000
1000
0000
0000
,
1000
0000
0000
1000
0000
0000
1100
0000
0100
0000
0000
0010
0000
0000
0000
0001
0000
0000
0011
0000
0000
0001
0000
0000
,
0010
0000
0000
0100
0000
0000
1100
0000
0100
0000
0000
0010
0000
0000
0000
0100
0000
0000
0110
0000
0000
0100
0000
0000
,
0100
0000
0000
0100
0000
0000
0110
0000
0010
0000
0000
0001
0000
0000
0000
1000
0000
0000
1010
0000
0000
0010
0000
0000
,
0001
0000
0000
0010
0000
0000
0110
0000
0010
0000
0000
0100
0000
0000
0000
0001
0000
0000
1001
0000
0000
0001
0000
0000
,
0001
0000
0000
0001
0000
0000
1001
0000
1000
0000
0000
0010
0000
0000
0000
1000
0000
0000
1100
0000
0000
1000
0000
0000
,
1000
0000
0000
0100
0000
0000
0110
0000
0010
0000
0000
0001
0000
0000
0000
0100
0000
0000
0110
0000
0000
0100
0000
0000
,
0100
0000
0000
0100
0000
0000
0110
0000
0010
0000
0000
1000
0000
0000
0000
0001
0000
0000
0100
0000
0000
1000
0000
0000
,
0100
0000
0000
0000
0000
0000
0001
0000
0000
0000
0000
0000
1000
0000
0000
0000
0010
0000
0000
0000
0000
0100
0000
0000
0001
0000
0000
0000
0000
0000
0000
0000
0000
0000
0000
0000
1000
0000
0000
0000
0000
0000
0000
0000
0000
0000
0000
0000
,
0010
0100
0001
1000
,
0010
0100
0001
0010
,
0100
1000
0001
0010
,
0100
1000
0001
0010
,
0001
1000
0010
1000
,
0001
1000
0001
0100
,
0001
0000
1000
0000
0001
0100
1000
0010
,
0001
0000
0000
1000
0001
1000
0001
0000
0000
0010
0000
0000
0110
0000
0000
0000
0000
0000
0000
0000
0000
0000
0000
0000
;
