#TITLE:Flash Back 90's;
#SUBTITLE:;
#ARTIST:kors k as disconation;
#TITLETRANSLIT:;
#SUBTITLETRANSLIT:;
#ARTISTTRANSLIT:;
#GENRE:;
#CREDIT:;
#BANNER:Flash Back 90's-bn.png;
#BACKGROUND:Flash Back 90's-background.png;
#LYRICSPATH:;
#CDTITLE:cdtitle.png;
#MUSIC:Flash Back 90's.ogg;
#OFFSET:-0.048000;
#SAMPLESTART:25.209000;
#SAMPLELENGTH:11.565000;
#SELECTABLE:YES;
#BPMS:0.000000=155.000000
;
#STOPS:165.000000=1.161000
;
#BGCHANGES:1.000=Flash Back 90's.avi=1.000=1=0=1===CrossFade==,
99999=-nosongbg-=1.000=0=0=0 // don't automatically add -songbackground-
;
#KEYSOUNDS:;
#ATTACKS:;

//---------------dance-single - Pandemonium X----------------
#NOTES:
     dance-single:
     :
     Beginner:
     5:
     0.171295,0.336085,0.107609,0.000000,0.000000,156.000000,142.000000,14.000000,0.000000,0.000000,0.000000,0.171295,0.336085,0.107609,0.000000,0.000000,156.000000,142.000000,14.000000,0.000000,0.000000,0.000000:
0000
0000
0000
0000
,
0000
0000
0000
0000
,
0000
0000
0000
0000
,
0000
0000
0000
0000
,
0000
0001
0000
0000
,
1000
1000
0000
0000
,
0010
0010
0000
0100
,
0000
0001
0000
1000
,
0000
0110
0000
0000
,
0000
1001
0000
0000
,
0000
0001
0000
1000
,
0000
0100
0000
0000
,
0000
0010
0000
0000
,
0000
0001
0000
0000
,
0000
0100
0000
0000
,
0000
1001
0000
0100
,
0010
1001
0000
1000
,
0000
0001
0000
0000
,
0000
0010
0000
0100
,
0000
0010
0000
0000
,
0000
0100
0000
1000
,
0000
0001
0000
0100
,
0000
0010
0000
1000
,
0000
1001
0000
0110
,
0000
1001
0110
1001
,
0000
0001
0100
0010
,
0000
1000
0010
0100
,
0000
0010
1000
0001
,
0000
0010
0100
1000
,
0000
0100
0100
0100
,
0000
0010
0001
0100
,
0000
0010
1000
0100
,
0000
0010
0001
0100
,
0000
0010
0010
0010
,
0000
1000
0000
0001
,
0000
0010
0000
0001
,
0000
0100
0000
0010
,
0000
1000
0000
0001
,
0000
1000
0000
0000
,
0000
0001
0000
0000
,
0000
0100
0000
0010
,
0000
1001
0001
0000
,
0000
0000
1000
0000
,
0000
0000
0010
0000
,
0000
0000
1000
0000
,
0001
0000
0100
0000
,
0000
0110
0010
0000
,
1000
0000
0001
1000
,
0001
0001
1000
0000
,
0010
0010
1001
0000
,
0000
0000
0001
0000
,
0000
0000
1000
0000
,
0000
0000
0010
0000
,
0000
0000
0100
0000
,
0000
0000
0010
0000
,
0000
0000
1000
0000
,
0000
0000
0001
0000
,
0000
0000
0110
0000
,
0000
0000
0000
0000
,
0000
0000
0100
0000
,
1000
0000
0010
0000
,
0100
0000
0001
0000
,
0010
0000
0100
0000
,
1000
0000
0001
0000
,
0100
0000
0010
0000
,
1000
0000
0001
0000
,
1000
0000
0010
0000
,
0100
0000
0001
0000
,
0001
0000
0001
0000
,
0001
0000
1000
0000
,
1000
0000
1000
0000
,
1000
0000
0010
0000
,
0010
0000
0100
0000
,
0100
0000
0010
0000
,
0100
0000
0001
0000
,
1000
0000
1001
0000
,
0001
0000
0001
0000
,
0001
0000
1000
0000
,
1000
0000
1000
0000
,
1000
0000
0010
0000
;

//---------------dance-single - Pandemonium X----------------
#NOTES:
     dance-single:
     :
     Easy:
     9:
     0.337101,0.458298,0.238276,0.053804,0.007686,307.000000,276.000000,31.000000,7.000000,0.000000,0.000000,0.337101,0.458298,0.238276,0.053804,0.007686,307.000000,276.000000,31.000000,7.000000,0.000000,0.000000:
0000
0000
0000
0000
,
0000
0000
0000
0000
,
0000
0000
0000
0000
,
0000
0000
0000
0000
,
0000
0001
0000
0000
,
1000
0010
0000
0000
,
0100
0001
0010
1000
,
0010
0001
0100
0010
,
1000
1001
0000
0000
,
0000
0110
0000
0000
,
0000
0010
0100
0001
,
1000
0001
0010
0100
,
1000
0100
0100
0010
,
0010
0001
0010
0100
,
1000
0010
0100
0010
,
0000
2002
0000
3000
,
0003
0100
0010
1000
,
0001
0010
0001
0100
,
0010
1000
0100
0010
,
0001
1000
0001
0100
,
0001
1000
0100
0010
,
0100
1000
0010
0100
,
0000
0010
1000
0001
,
0010
0000
1000
0100
0000
0000
0010
0001
,
0000
0000
0000
0000
0100
0000
0000
0100
0000
0000
0100
0000
0000
0000
0000
0000
,
0000
0010
0100
0010
,
2001
0000
3100
0000
1000
0000
0010
0100
,
0001
0000
0010
0000
0100
0000
1000
0010
,
0100
0000
0010
0000
1000
0000
0001
1000
,
0100
0000
0000
0000
0010
0000
0000
0010
0000
0000
0001
0000
0000
0000
0000
0000
,
0000
0000
1000
0000
0001
0000
0100
0010
,
1000
0000
0001
0000
0010
0000
0100
0010
,
0001
0000
0010
0000
0100
0000
1000
0010
,
0100
0000
0001
1000
0001
1000
0000
0000
,
0000
0010
1000
0100
,
1000
0010
0100
0001
,
0010
0001
0100
0010
,
1000
0000
0001
1000
0000
1000
0001
1000
,
0000
0000
0000
0001
0000
0001
0000
1000
,
0000
1000
0000
0010
0000
0010
0000
0100
,
0000
0100
0000
0010
0000
1000
0000
0001
,
0000
0100
1001
0000
0001
0000
1000
0000
,
0100
0110
0100
1000
,
0010
0101
0001
0010
,
0100
0110
0010
0001
,
1000
1000
1001
0000
0001
0100
0000
0100
,
0010
2010
3100
0011
,
0000
1100
1000
0100
,
0010
0010
0001
0001
0100
0000
0010
0000
,
0100
0001
0020
0000
0130
0000
0000
0000
,
1000
0000
0010
0000
,
0100
0000
0001
0000
,
0010
0000
0100
0000
,
1000
0000
0010
0000
,
0100
0000
0001
0000
,
1000
0000
0100
0000
,
0010
0000
0001
0000
,
0100
0000
2002
0000
,
0000
0000
3003
0000
,
0000
0000
1000
0010
,
1000
0001
0010
0001
,
1000
0000
0001
0100
0001
0000
0100
0000
,
0010
1000
0010
0100
,
0010
0000
1000
0001
0100
0000
0001
0000
,
0010
0001
0100
0001
,
0010
0000
0001
0100
0010
0000
1000
0000
,
0001
0100
0001
1000
,
0100
1000
1001
0001
,
1001
1000
1001
0001
,
1001
1000
0110
0010
,
0110
0100
0110
0010
,
0110
0100
0101
0100
,
0110
0010
1010
1000
,
1100
0100
0110
0010
,
0011
0001
0101
1010
,
0101
1010
0001
1000
,
0010
1000
0001
0010
,
0001
1000
0010
1000
,
0001
0010
0001
1000
,
0010
1000
0001
0000
;

//---------------dance-single - Pandemonium X----------------
#NOTES:
     dance-single:
     :
     Medium:
     12:
     0.434827,0.580510,0.161413,0.146040,0.257492,396.000000,375.000000,21.000000,19.000000,0.000000,0.000000,0.434827,0.580510,0.161413,0.146040,0.257492,396.000000,375.000000,21.000000,19.000000,0.000000,0.000000:
0000
0000
0000
0000
,
0000
0000
0000
0000
,
0000
0000
0000
0000
,
0000
0000
0000
0000
,
0000
0000
1000
0000
0000
0010
0000
0000
,
1000
0000
0010
0100
0000
0000
0000
0100
,
0010
1000
0001
0000
0010
0000
0100
0000
,
1000
0000
1000
0100
0010
0001
0010
0100
,
1000
0010
1001
0000
0000
0000
0000
0000
,
0000
0000
1100
0000
0000
0000
0000
1000
,
0000
0100
0000
0000
0010
0000
0000
0100
0000
0000
1000
0000
0100
0000
0010
0000
,
0001
0100
0010
0000
0100
0000
0001
0000
,
1000
0000
0001
0100
0010
1000
0001
0100
,
0010
1000
0001
0000
1000
0000
0100
0000
,
0010
0100
1000
0001
,
0000
0220
0000
0300
,
0030
0000
1000
0010
1000
0000
0001
0010
,
0001
1000
0001
0100
,
0010
0000
1000
0010
1000
0000
0001
0010
,
0001
0000
0000
0000
0100
0000
0010
0000
1000
0000
0001
1000
0000
1000
0001
0000
,
0010
0100
0010
0001
0100
0000
0010
1000
,
0100
1000
0100
1000
0100
0000
0000
0000
1000
0000
0000
0001
0100
0000
0100
0010
,
0000
0010
1000
0000
0001
0000
0000
0000
1000
0000
0100
0000
0010
0000
0000
0000
,
0100
0000
0000
0000
1001
0000
1001
0000
0000
0000
0000
0000
0001
1000
0001
1000
,
0001
0000
0000
0000
0100
0000
0000
0010
0000
0000
1000
0000
0000
0000
0001
0000
,
0010
0100
1000
0000
0100
0000
0010
0000
,
1100
0000
0001
0000
0100
0001
0010
0000
,
0100
0000
0010
0000
0001
0010
0100
0000
,
1000
0000
0100
0000
1000
0010
0100
0000
,
0001
0000
0000
0000
1000
0001
0000
1000
0001
0000
0001
1000
0000
0000
0000
0000
,
0000
0000
0001
0000
0100
0010
1000
0000
,
0100
0000
0010
0000
0100
1000
0010
0000
,
0100
0000
0001
0000
0010
0100
0010
0000
,
0001
0000
0000
0000
1000
0000
1000
0000
0001
0000
1000
0001
0000
0000
0000
0000
,
0000
0000
0100
0000
0010
0000
1000
0010
,
0100
0000
0001
0000
0010
0000
0100
0010
,
0001
0000
0010
0000
0001
0000
0100
0010
,
1000
0000
0001
1000
0000
0100
0010
0001
,
0000
0000
0000
0011
0000
0011
0000
0011
,
0000
0011
0000
1100
0000
1100
0000
1100
,
0000
1100
0000
1010
0000
1010
0000
0101
,
0000
0000
0101
0000
1001
0000
0000
0000
0001
0000
0100
0000
0000
0001
0000
0000
,
0010
0000
0100
0000
0110
0000
0000
0000
0000
0000
0100
0000
0000
1000
0000
0000
,
0010
0000
0000
0100
0000
0000
0001
0000
0000
0000
1000
0000
0000
0001
0000
0000
,
1000
0000
0100
0000
1100
0000
0000
0000
0000
0000
1000
0000
0000
0001
0000
0000
,
0100
0000
0010
0100
0010
0000
0000
0000
0100
0000
0001
0000
0000
0000
0001
0000
,
0010
0000
0100
0000
1000
0100
1000
0100
0010
0000
0100
0000
1000
0000
0000
0000
,
1000
0100
0010
0000
0001
0000
1000
0000
,
0010
0000
0010
0000
0100
0000
0100
0000
0000
0000
0010
0000
0000
0100
0000
0000
,
0001
1000
0001
1000
0001
0000
0000
0000
2000
0000
0000
0000
0000
0000
0000
0000
,
3002
0000
0203
0000
,
0320
0000
2030
0000
,
3200
0000
0320
0000
,
0230
0000
2300
0000
,
3002
0000
0203
0000
,
2300
0000
3200
0000
,
0302
0000
2003
0000
,
3020
0000
0230
0000
,
0300
0000
0000
0000
,
0000
0000
0000
0000
0000
0000
0000
0000
0000
0000
0001
0000
0000
1000
0000
0000
,
0010
0000
0000
1000
0000
0000
0001
0000
0000
0010
0000
0000
0100
0000
0000
0010
,
0000
0000
0001
0000
0000
0100
0000
0100
0000
0000
0010
0000
0000
1000
0000
0000
,
0001
0000
0000
0010
0000
0000
0100
0000
0000
0010
0000
0000
0001
0000
0000
0100
,
0000
0000
0010
0000
0000
1000
0000
0001
0000
0000
0010
0000
0000
0100
0000
0000
,
0010
0000
0000
0001
0000
0000
1000
0000
0000
0010
0000
0000
0100
0000
0000
0001
,
0000
0000
0010
0000
0000
0100
0000
0100
0000
0000
0010
0000
0000
0001
0000
0000
,
1000
0000
0000
0100
0000
0000
0010
0000
0000
0100
0000
0000
1000
0000
0000
0001
,
0000
0000
0100
0000
0000
0010
0000
1000
0100
0000
0000
0100
0000
0000
0100
0000
,
0010
0000
0000
0010
0000
0000
0010
0000
0001
0000
0000
0001
0000
0000
0001
0000
,
1000
0000
0000
1000
0000
0000
1000
0000
0010
0000
0000
0010
0000
0000
0010
0000
,
0100
0000
0000
0100
0000
0000
0100
0000
0001
0000
0000
0001
0000
0000
0001
0000
,
1000
0000
0000
1000
0000
0000
1000
0000
0001
0000
0000
0100
0000
0000
0010
0000
,
1000
0000
0000
0001
0000
0000
0010
0000
0100
0000
0000
0010
0000
0000
0001
0000
,
0100
0000
0000
0010
0000
0000
1000
0000
0100
0000
0000
0001
0000
0000
0100
0000
,
1000
0000
0000
0010
0000
0000
0001
0000
0010
0000
0000
0100
0000
0000
0001
0000
,
1000
0000
0000
0100
0000
0000
0010
0000
0100
0000
1000
0000
0100
0000
0000
0000
,
1000
0010
1000
0000
0010
0100
0010
0000
,
0100
0001
0100
0000
0001
0010
0001
0000
,
0010
0100
0010
0000
0100
1000
0010
0100
,
0001
0010
0100
1000
0001
0000
0000
0000
;

//---------------dance-single - Pandemonium X----------------
#NOTES:
     dance-single:
     :
     Hard:
     16:
     0.655535,0.916596,0.222904,0.253649,0.676398,597.000000,568.000000,29.000000,33.000000,0.000000,0.000000,0.655535,0.916596,0.222904,0.253649,0.676398,597.000000,568.000000,29.000000,33.000000,0.000000,0.000000:
// measure 0
0000
0000
0000
0000
,  // measure 1
0000
0000
0000
0000
,  // measure 2
0000
0000
0000
0000
,  // measure 3
0000
0000
0000
0000
,  // measure 4
0000
0000
0001
0000
0000
0010
0000
0000
,  // measure 5
0001
0100
0010
1000
0000
0000
0000
0100
,  // measure 6
0010
0010
0001
0001
0100
0010
1000
1000
,  // measure 7
0001
0010
0100
0100
0010
0001
1000
1000
,  // measure 8
0001
0100
1001
0000
0000
0000
0000
0000
,  // measure 9
0000
0000
1000
0001
0010
0000
0000
0000
0000
0000
0000
0000
0000
0000
0100
0000
,  // measure 10
0000
0010
0000
0000
0001
0000
0000
0010
0000
0000
0100
0000
1000
0000
0100
0000
,  // measure 11
0010
0000
0000
0001
0000
0000
1000
0000
0100
0000
0010
0000
0001
0000
0010
0000
0100
0000
1000
0000
0010
0000
0100
0000
,  // measure 12
0001
0000
0000
0000
1000
0000
0000
0000
0010
0000
0000
0000
0100
0000
0000
0001
0000
0000
0100
0000
0000
0001
0000
0000
1000
0000
0000
0010
0000
0000
1000
0000
0000
0010
0000
0000
1000
0000
0000
0001
0000
0000
1000
0000
0000
0001
0000
0000
,  // measure 13
0010
0000
0000
0100
0000
0000
0010
0000
0000
0100
0000
0000
1000
0000
0000
0000
0100
0000
0000
0000
0010
0000
0000
0000
0001
0000
0000
0000
0010
0000
0000
0000
0100
0000
0000
0000
1000
0000
0000
0000
0010
0000
0000
0000
0100
0000
0000
0000
,  // measure 14
0001
0010
0100
1000
0100
0010
0100
1000
0001
0100
0000
0000
,  // measure 15
1002
0000
0000
0000
0013
0000
0000
0000
0000
0000
0000
0000
0100
1000
0010
0100
,  // measure 16
0001
1000
0000
0001
0100
0010
0100
0000
0010
1000
0000
0001
0010
0000
0100
0000
,  // measure 17
0010
0001
1000
0000
0001
1000
0000
0010
0000
1000
0001
1000
0100
0000
1000
0100
,  // measure 18
0000
0100
0000
0010
0001
0100
0010
0100
0001
1000
0010
1000
0100
0010
0100
1000
,  // measure 19
0001
0000
0000
1000
0000
0000
0010
0000
0100
0000
0010
0000
0100
0000
0000
0010
0000
0000
0100
0000
0000
0010
0000
0000
0100
0000
0000
0000
0000
0000
0010
0000
0000
0100
0000
0000
0000
0000
0000
0100
0000
0000
0010
0000
0000
0000
0000
0000
,  // measure 20
0100
0000
0100
0000
0001
1000
0010
1000
0001
0010
0000
0100
0010
0000
0001
0000
,  // measure 21
1000
0010
1000
0010
1000
0100
0000
0010
0000
0100
0010
0001
1000
0000
0001
0100
,  // measure 22
0000
0010
1000
0000
0100
0010
0001
0010
0100
1000
0010
0100
0001
0000
0000
0000
,  // measure 23
1000
0100
0010
0001
1001
0000
1001
0000
0000
0000
0000
0000
0220
0000
0000
0000
,  // measure 24
0330
0000
0000
0000
1000
0010
0000
0010
0001
0000
0001
0010
0000
0010
1000
0000
,  // measure 25
0010
0100
0010
1000
0100
0010
0001
0000
,  // measure 26
2001
0000
0000
0000
3010
0000
0100
0000
0010
0000
1000
0000
0100
0000
0000
0100
,  // measure 27
0000
0000
0100
0000
0010
0001
0010
0000
0001
0000
0100
0000
0001
1000
0000
0001
,  // measure 28
0000
0000
1000
0000
0001
0000
0010
0000
0001
0000
0100
0000
0010
0000
0000
0010
,  // measure 29
0000
0000
0010
0000
1000
0100
0000
1000
0100
0000
1000
0001
0000
0000
0000
0000
,  // measure 30
0000
0000
0000
0000
0001
0000
0100
0000
0010
0000
0100
0000
0001
0000
0000
0001
,  // measure 31
0000
0000
0001
0000
0010
0100
0010
0000
0100
0000
1000
0000
0010
1000
0000
0010
,  // measure 32
0000
0000
1000
0000
0001
0000
1000
0000
0100
0000
1000
0000
0010
0000
0000
0010
,  // measure 33
0000
0000
0010
0000
0110
0000
0110
0000
0110
0000
0001
1000
0020
0230
0320
0230
,  // measure 34
0320
0030
0000
0000
1000
0000
0100
0000
0000
0010
0000
0000
0100
0000
1000
0000
,  // measure 35
0001
0000
0100
0000
0000
0000
0010
0000
0000
1000
0000
0000
0100
0000
0000
1000
,  // measure 36
0000
0000
0001
0000
0100
0000
0010
0000
0000
1000
0000
0000
0100
0000
1000
0000
,  // measure 37
0010
0000
0100
0000
0000
0000
0010
0000
0000
0100
0000
0000
0001
0000
0000
1000
,  // measure 38
0001
0010
0100
1000
0100
1000
0100
0010
,  // measure 39
0001
0100
0010
1000
0010
1000
0010
0100
,  // measure 40
0001
0010
0100
1000
0100
1000
0100
0010
,  // measure 41
0001
0000
1000
0000
0010
0000
0000
0000
0100
0000
0010
0000
0000
1000
0000
0001
,  // measure 42
1000
0000
1000
0001
0010
0001
0100
0000
0000
0000
0010
0000
0000
0100
0000
0010
,  // measure 43
1000
0000
0000
1000
0000
0000
0001
0000
0000
0000
1000
0000
0000
1000
0000
0000
,  // measure 44
0010
0000
0100
0010
0100
0000
0010
0000
0000
0000
0100
0000
0000
0001
0000
0000
,  // measure 45
0010
0000
0100
1000
0010
0000
0000
0000
0201
0000
0001
0000
0000
0000
0010
0000
,  // measure 46
0310
0000
0000
0000
0000
0000
1000
0001
1000
0001
1000
0001
1000
0000
0000
0100
0000
0000
0002
0000
0000
0000
0000
0000
,  // measure 47
0103
1000
0020
0000
0130
0100
0010
1000
,  // measure 48
1001
0000
0010
0000
1001
0000
0100
0000
0001
0000
1000
0000
0001
0100
0000
0010
,  // measure 49
1000
0001
1000
0001
0020
0000
0000
0000
0130
0000
0100
0000
0010
0000
0001
0000
,  // measure 50
0000
0001
0010
0100
0000
0100
1000
0010
,  // measure 51
0000
0010
1000
0100
0000
1000
0001
0100
,  // measure 52
0000
0100
0001
0010
0000
0100
0010
0001
,  // measure 53
0000
0001
1000
0100
0000
1000
0100
0001
,  // measure 54
0000
0001
0100
1000
0000
1000
0010
0001
,  // measure 55
0000
0001
0010
1000
0000
1000
0010
0100
,  // measure 56
0000
0100
0010
1000
0000
0001
0010
0100
,  // measure 57
0000
0100
1000
0001
1001
0000
0000
0000
,  // measure 58
0000
0000
2000
3200
,  // measure 59
0320
0000
0000
0000
0032
0000
0000
0000
1003
0000
0001
0000
0000
0100
0000
0000
,  // measure 60
0010
0000
0000
1000
0000
0000
0001
0000
0000
0010
0000
0000
0100
0000
0000
0010
,  // measure 61
0000
0000
0001
0000
0000
0100
0000
0100
0000
0000
0010
0000
0000
1000
0000
0000
,  // measure 62
0001
0000
0000
0010
0000
0000
0100
0000
0000
1000
0000
0000
0100
0000
0000
1000
,  // measure 63
0000
0000
0010
0000
0000
0100
0000
0001
0000
0000
1000
0000
0000
0001
0000
0000
,  // measure 64
1000
0000
0000
0100
0000
0000
1000
0000
0000
0010
0000
0000
0100
0000
0000
0001
,  // measure 65
0000
0000
1000
0000
0000
0001
0000
0001
0000
0000
1000
0000
0000
0100
0000
0000
,  // measure 66
0010
0000
0000
0100
0000
0000
1000
0000
0000
0001
0000
0000
0100
0000
0000
0010
,  // measure 67
0000
0000
1000
0000
0000
0001
0000
0000
1020
0000
0000
0130
0000
0000
0010
0000
,  // measure 68
2100
0000
0000
3100
0000
0000
0010
0000
0012
0000
0000
0103
0000
0000
0010
0000
,  // measure 69
2001
0000
0000
3100
0000
0000
0010
0000
0021
0000
0000
0130
0000
0000
1000
0000
,  // measure 70
1020
0000
0000
0130
0000
0000
0010
0000
0210
0000
0000
0301
0000
0000
0010
0000
,  // measure 71
0210
0000
0000
1300
0000
0000
0100
0000
1002
0000
0000
1000
0000
0000
0103
0000
,  // measure 72
2001
0000
0000
0100
0000
0000
3001
0000
1002
0000
0000
0010
0000
0000
1003
0000
,  // measure 73
2001
0000
0000
0010
0000
0000
3001
0000
0201
0000
0000
0001
0000
0000
0301
0000
,  // measure 74
1020
0000
0000
1000
0000
0000
1030
0000
1200
0000
0000
0310
0000
0000
0001
0000
,  // measure 75
0021
0000
0000
0130
0000
0000
1000
0000
0001
0000
1000
0000
0010
0000
0100
0001
,  // measure 76
1000
0000
0001
0000
0010
0000
0100
1000
0001
0000
1000
0000
0010
0000
0100
0001
,  // measure 77
1000
0000
0001
0000
0100
0000
0010
1000
0001
0000
1000
0000
0100
0000
0010
0001
,  // measure 78
0100
0000
0010
0000
1000
0000
0100
0010
0001
1000
0001
1000
0001
1000
0001
1000
,  // measure 79
0001
1000
0001
1000
0001
1000
0001
1000
0001
0000
0000
0000
0000
0000
0000
0000
;
