#VERSION:0.83;
#TITLE:EXTRASPEED x68k'd;
#SUBTITLE:;
#ARTIST:plrusek;
#TITLETRANSLIT:;
#SUBTITLETRANSLIT:;
#ARTISTTRANSLIT:;
#GENRE:;
#ORIGIN:;
#CREDIT:;
#BANNER:EXTRASPEED x68k'd.png;
#BACKGROUND:EXTRASPEED x68k'd-bg.png;
#PREVIEWVID:;
#JACKET:EXTRASPEED x68k'd-jacket.png;
#CDIMAGE:;
#DISCIMAGE:;
#LYRICSPATH:;
#CDTITLE:cdtitle.png;
#MUSIC:EXTRASPEED x68k'd.ogg;
#OFFSET:-0.038000;
#SAMPLESTART:10.147000;
#SAMPLELENGTH:21.497000;
#SELECTABLE:YES;
#BPMS:0.000=380.000;
#STOPS:;
#DELAYS:;
#WARPS:;
#TIMESIGNATURES:0.000=4=4;
#TICKCOUNTS:0.000=4;
#COMBOS:0.000=1;
#SPEEDS:0.000=1.000=0.000=0;
#SCROLLS:0.000=1.000;
#FAKES:;
#LABELS:0.000=Song Start;
#BGCHANGES:;
#KEYSOUNDS:;
#ATTACKS:
;

//---------------dance-single - Pandemonium X----------------
#NOTEDATA:;
#CHARTNAME:;
#STEPSTYPE:dance-single;
#DESCRIPTION:Pandemonium X;
#CHARTSTYLE:;
#DIFFICULTY:Easy;
#METER:10;
#RADARVALUES:0.399042,0.507628,0.098482,0.000000,0.000000,312.000000,301.000000,11.000000,0.000000,0.000000,0.000000,0.000000,0.000000,0.000000,0.399042,0.507628,0.098482,0.000000,0.000000,312.000000,301.000000,11.000000,0.000000,0.000000,0.000000,0.000000,0.000000,0.000000;
#CREDIT:Pandemonium X;
#NOTES:
0000
0000
0000
0000
,
0000
0000
0000
0000
,
0000
0000
0000
0000
,
0000
0000
0000
0000
,
0000
0000
0000
0000
,
0000
0000
0000
0000
,
0000
0000
0000
0000
,
0000
0000
0000
0000
,
0000
0000
0000
0000
,
0000
0000
0000
0000
,
0001
0000
1000
0000
,
0010
1000
0000
0100
,
0000
0000
0010
0000
,
0001
0000
0100
0000
,
0010
0000
1000
0000
,
0001
0000
0010
0000
,
0001
0100
0000
0110
,
0000
0010
0100
0000
,
0001
1000
0000
0001
,
0000
0000
0010
0000
,
0100
0010
0001
1000
,
0000
0000
0001
0000
,
1000
0001
0000
0100
,
0000
0000
0010
0000
,
0010
0100
0001
0100
,
0000
0010
1000
0000
,
0100
1000
0000
0001
,
0000
0000
1000
0000
,
0001
0010
0100
1000
,
0000
0000
0100
0000
,
1000
0000
0010
0000
,
0100
0000
0001
0000
,
0010
0000
0100
0000
,
0010
0000
0001
0000
,
1000
0000
1000
0000
,
0001
0000
0001
0000
,
1000
0100
0010
0001
,
1000
0000
0001
0000
,
0100
0000
0000
0010
,
0000
0000
1000
0000
,
0000
0001
1000
1001
,
0000
0000
0000
0000
,
1000
0000
0000
0010
,
0000
0000
0100
0000
,
0010
0000
1000
1001
,
0000
0000
0000
0000
,
0001
0000
0010
0000
,
0100
0000
1000
0000
,
0100
0000
0100
0000
,
1000
0000
1000
0000
,
0001
0000
0000
1000
,
0000
0000
0010
0000
,
0000
1000
0000
0000
,
0100
0000
1000
0000
,
0001
0000
0000
0001
,
0000
0000
0100
0000
,
0000
0010
0000
0000
,
1000
0000
0010
0000
,
0100
0000
0000
0100
,
0000
0000
0010
0000
,
0000
0100
0000
0000
,
0010
0000
1000
0000
,
0001
0000
0000
1000
,
0000
0000
0100
0000
,
0000
1000
0000
0000
,
0010
0000
1000
0000
,
0001
0000
0010
0000
,
0100
0000
0010
0000
,
0001
0000
0100
0000
,
0010
0000
1000
0000
,
0001
0000
0010
0000
,
0001
0000
0100
0000
,
0010
0000
1000
0000
,
0100
0000
0010
0000
,
0001
0000
0010
0000
,
0100
0000
1000
0000
,
0001
0000
0100
0000
,
0010
0000
0100
0000
,
0010
0000
1000
0000
,
1001
0000
0000
0000
,
0001
0000
1000
0000
,
0100
0000
0000
0000
,
0010
0001
0000
0100
,
0000
0000
0010
0000
,
0100
0001
1000
0100
,
0000
0000
0010
0000
,
0100
1000
0000
0010
,
0000
0000
0100
0000
,
0010
0100
0001
1000
,
0000
0001
0001
0000
,
1000
0100
0000
0010
,
0000
0000
0100
0000
,
0010
0001
0100
0010
,
0000
0000
0100
0000
,
0010
0000
1000
0000
,
0001
0000
0010
0000
,
0110
0000
0010
0000
,
1001
0000
1000
0000
,
0100
1000
0000
0001
,
0000
0000
0100
0000
,
0001
0000
0000
0010
,
0000
0000
0100
0000
,
0010
0001
0000
0100
,
0000
0000
0010
0000
,
0000
0100
0010
1000
,
0000
0000
0000
0000
,
0001
1000
0000
0100
,
0000
0000
0010
0000
,
0100
0010
0001
1000
,
0000
0000
0000
0000
,
0001
0000
0000
0100
,
0000
0000
0010
0000
,
1000
0000
1000
0000
,
0001
0000
0001
0000
,
1000
0000
0010
0000
,
0100
0001
0000
0010
,
0000
0100
0010
0000
,
0001
0000
1000
0000
,
0010
0000
1000
0000
,
0001
0000
0010
0000
,
0011
0000
0000
1100
,
0000
0000
0000
0000
,
0100
0000
1000
0000
,
0010
1000
0000
0001
,
0000
0000
0010
0000
,
0001
0000
0100
0000
,
0010
0000
1000
0000
,
0001
0000
0010
0000
,
0100
0010
0000
0001
,
0000
0100
0010
0000
,
1000
0001
0000
1000
,
0000
0000
0010
0000
,
0100
0010
1000
0001
,
0000
0000
1000
0000
,
0001
1000
0000
0100
,
0000
0000
0010
0000
,
0010
0100
1000
0100
,
0000
0010
0001
0000
,
0100
0001
0000
1000
,
0000
0000
0001
0000
,
1000
0010
0100
0001
,
0000
0000
0100
0000
,
0001
0000
0010
0000
,
0100
0000
1000
0000
,
0010
0000
0100
0000
,
0010
0000
1000
0000
,
0001
0000
0001
0000
,
1000
0000
1000
0000
,
0001
0100
0010
1000
,
0001
0000
1000
0000
,
0100
0000
0000
0010
,
0000
0000
0001
0000
,
0000
1000
0001
1001
,
0000
0000
0000
0000
,
0001
0000
0000
0010
,
0000
0000
0100
0000
,
0010
0000
0001
1001
,
0000
0000
0000
0000
,
1000
0000
0010
0000
,
0100
0000
0001
0000
,
0100
0000
0100
0000
,
0001
0000
0001
0000
,
1001
0000
0000
0000
;

//---------------dance-single - Pandemonium X----------------
#NOTEDATA:;
#CHARTNAME:;
#STEPSTYPE:dance-single;
#DESCRIPTION:Pandemonium X;
#CHARTSTYLE:;
#DIFFICULTY:Medium;
#METER:13;
#RADARVALUES:0.594727,0.734136,0.196963,0.340209,0.000000,465.000000,443.000000,22.000000,38.000000,0.000000,0.000000,0.000000,0.000000,0.000000,0.594727,0.734136,0.196963,0.340209,0.000000,465.000000,443.000000,22.000000,38.000000,0.000000,0.000000,0.000000,0.000000,0.000000;
#CREDIT:Pandemonium X;
#NOTES:
0000
0000
0000
0000
,
0000
0000
0000
0000
,
0000
0000
0000
0000
,
0000
0000
0000
0000
,
0000
0000
0000
0000
,
0000
0000
0000
0000
,
0000
0000
0000
0000
,
0000
0000
0000
0000
,
0000
0000
0000
0000
,
0000
0000
0000
0000
,
0001
0000
0100
0000
,
0010
1000
0000
0100
,
0000
0010
0100
0000
,
1000
0000
0001
0000
,
1000
0000
0010
0000
,
0100
0000
0001
0000
,
1000
0100
0000
0011
,
0000
0000
1010
0000
,
0001
0100
0000
0020
,
0000
0000
0130
0000
,
0001
0010
0100
2000
,
0000
0000
3100
0000
,
1000
0001
0000
0020
,
0000
0000
0130
0000
,
0010
0100
1000
0020
,
0000
0130
0200
0000
,
0301
0010
0000
0200
,
0000
0000
0310
0000
,
0001
0010
0100
2000
,
0000
0000
3100
0000
,
1000
0010
1000
0001
,
0010
0001
0100
0001
,
1000
0001
0010
0001
,
1000
0010
1000
0001
,
1000
1000
0001
0100
,
0010
0010
0100
0010
,
1000
0100
0010
0001
,
1000
0000
0001
0000
,
0100
0001
0000
0010
,
0000
0001
0100
0000
,
0010
1000
0100
0022
,
0000
0000
0033
0000
,
0100
1000
0001
0100
,
0000
0010
0010
0100
,
0001
1000
0100
2002
,
0000
0000
0000
3003
,
1000
0001
0010
0001
,
1000
0010
1000
0001
,
0010
0100
1000
0001
,
0010
0100
0010
0001
,
2000
0000
0000
0001
,
0000
0000
3100
0000
,
0000
1000
0000
0100
,
0010
0001
0010
0100
,
2000
0000
0000
0010
,
0000
0000
0001
0000
,
0000
3100
0000
0010
,
0001
0001
1000
1000
,
1001
0000
0001
1000
,
0000
0100
0010
0010
,
0000
0100
0000
0010
,
0001
0010
0100
1000
,
0100
0000
1000
0001
,
0000
0010
0100
0100
,
0000
1000
0010
0100
,
0001
0010
0100
1000
,
0001
1000
1000
0010
,
0000
0100
0001
0001
,
0000
0010
0001
0100
,
0010
1000
0100
0010
,
0001
0001
0010
0100
,
0000
0010
0010
0001
,
0100
0010
1000
0001
,
0010
0100
0010
0001
,
1000
0010
0100
0001
,
0010
0100
0100
0010
,
0001
0100
0010
1000
,
0001
0001
0010
0100
,
1000
0010
0100
0001
,
1001
0000
0000
0000
,
0001
0100
0010
0000
,
0100
0010
1000
0000
,
1001
0001
0000
1000
,
0000
0000
0001
0000
,
1000
0100
0010
0002
,
0000
0000
0013
0000
,
1001
1000
0000
0001
,
0000
0000
1000
0000
,
0001
0010
0100
2000
,
0000
0100
3100
0000
,
1000
0100
0000
0021
,
0000
0000
0130
0000
,
0010
0010
0001
1000
,
0000
0010
0100
0000
,
0001
0100
0001
0100
,
0010
0100
0010
0100
,
0010
1000
0010
1000
,
0100
0010
0001
0010
,
0100
0010
0000
0012
,
0000
0000
0103
0000
,
0020
0000
0000
2030
,
0000
0000
3002
0000
,
1003
0100
0000
0100
,
0000
0100
1000
0000
,
0001
0000
1000
0001
1000
0000
2002
0000
,
0000
0000
0000
3003
,
0001
0100
0010
1000
,
0000
0100
1000
0010
,
0100
0001
0010
2002
,
0000
0000
0000
0003
0000
0000
0000
0000
,
3001
0001
1000
0010
,
0100
0001
0010
0000
,
0110
0000
1001
0000
,
0110
0000
1001
0000
,
0001
1000
0001
1000
,
0001
1000
0000
0110
,
0000
0100
0010
0100
,
0010
1000
0001
0100
,
0001
1000
0001
1000
,
0001
1000
0001
0000
,
2000
0000
0000
3002
,
0000
0000
0103
0000
,
0010
1000
0010
1000
,
0010
1000
0000
0101
,
0000
0001
0010
0001
,
1000
0001
1000
0001
,
1000
0100
0010
0001
,
0010
0100
1000
0001
,
1000
0010
0001
0010
,
0000
0010
1000
0000
,
1001
1000
0000
0200
,
0000
0000
0310
0000
,
0001
0100
0010
2000
,
0000
0000
3010
0000
,
1000
0001
0000
0200
,
0000
0000
0310
0000
,
0100
0010
1000
0200
,
0000
0310
0020
0000
,
0031
0100
0000
0020
,
0000
0000
0130
0000
,
0001
0100
0010
2000
,
0000
0000
3010
0000
,
1000
0100
1000
0001
,
0100
0001
0010
0001
,
1000
0001
0100
0001
,
1000
0100
1000
0001
,
1000
1000
0001
0010
,
0100
0100
0010
0100
,
1000
0010
0100
0001
,
1000
0000
1001
0000
,
1000
0001
0000
0100
,
0000
0001
0010
0000
,
0100
0000
1000
0100
1000
0000
2200
0000
,
0000
0000
3300
0000
,
0001
1000
0001
0010
,
0000
0100
0100
0010
,
0001
0000
1000
0010
1000
0000
2002
0000
,
0000
0000
0000
3003
,
1000
0001
0100
0001
,
1000
0100
1000
0001
,
0100
0010
1000
0001
,
0100
0010
0100
0001
,
2000
0000
0000
0000
,
0000
0000
0000
0000
,
3000
0000
0000
0000
;

//---------------dance-single - Pandemonium X----------------
#NOTEDATA:;
#CHARTNAME:;
#STEPSTYPE:dance-single;
#DESCRIPTION:Pandemonium X;
#CHARTSTYLE:;
#DIFFICULTY:Hard;
#METER:15;
#RADARVALUES:0.693208,1.027790,0.393926,0.402879,0.000000,542.000000,498.000000,44.000000,45.000000,0.000000,0.000000,0.000000,0.000000,0.000000,0.693208,1.027790,0.393926,0.402879,0.000000,542.000000,498.000000,44.000000,45.000000,0.000000,0.000000,0.000000,0.000000,0.000000;
#CREDIT:Pandemonium X;
#NOTES:
0000
0000
0000
0000
,
0000
0000
0000
0000
,
0000
0000
0000
0000
,
0000
0000
0000
0000
,
0000
0000
0000
0000
,
0000
0000
0000
0000
,
0000
0000
0000
0000
,
0000
0000
0000
0000
,
0000
0000
0000
0000
,
0000
0000
0000
0000
,
0001
1000
0010
0010
,
0010
0100
0000
1001
,
0000
1000
0100
0100
,
0100
0000
0010
0000
,
0100
0100
1000
0001
,
0100
0010
1000
0100
,
0110
0000
0001
1000
0001
0000
1001
0000
,
0010
0100
0010
0000
1000
0000
0000
0000
,
0001
0100
0001
2000
,
0000
0000
3001
0000
,
0010
0100
0010
0001
,
0000
0000
2000
0000
,
3010
0100
0000
0201
,
0000
0000
0302
0000
,
0013
0000
0100
1000
0100
0000
2000
0000
,
0000
0010
3010
0000
,
0100
0001
0000
2010
,
0000
0000
3001
0000
,
1000
0100
1000
0010
,
0000
0000
1000
0000
,
0100
0100
0010
0001
,
0100
0100
0010
1000
,
0001
0001
1000
0100
,
0010
0010
0001
0010
,
0100
0100
1000
0010
,
0100
0100
0010
1000
,
0001
0010
0100
1000
,
0001
0000
1001
0000
,
1000
0010
0000
0200
,
0000
0001
0301
0000
,
1000
0000
1000
0100
0010
0000
0022
0000
,
0000
0000
0033
0000
,
0010
0100
0000
1001
,
0000
0001
0010
0100
,
0010
0000
0001
1000
0001
0000
0201
0000
,
0000
0000
0300
0000
,
0010
1000
0001
0010
,
0001
1000
0010
1000
,
0001
0010
0100
1000
,
0100
0010
0100
1000
,
1002
0000
0000
1000
,
0000
0100
0103
0000
,
0000
0010
0000
0100
,
0010
0010
1000
0001
,
2001
0000
0000
0010
,
0000
0001
3001
0000
,
0000
0100
0000
0010
,
0100
0100
0001
1000
,
1002
0000
0010
0010
,
0000
1000
1000
1003
,
0000
0001
0000
0010
,
0100
0000
1000
0001
1000
0000
0001
0000
,
2001
0000
0001
0001
,
0000
0100
0100
3100
,
0000
0010
0001
1000
,
0001
0010
0001
0010
0001
0000
0100
0000
,
1001
0000
1000
0010
1000
0000
1100
0000
,
0000
0000
0100
0000
1000
0000
0010
0100
,
0010
0100
0000
0010
,
1000
0000
0001
1000
0001
0000
1000
0000
,
0100
0000
0100
0010
0100
0000
0010
0000
,
0000
0000
0010
0100
1000
0001
1000
0001
,
0100
0010
1000
0010
,
0100
0000
0001
0000
1000
0100
1000
0000
,
1001
0000
0001
0100
0001
0000
1000
0000
,
0001
0010
1000
0010
,
1001
0000
1000
0010
1000
0000
0001
0000
,
1000
0100
0001
0100
,
1000
0100
1000
0000
0001
0000
1000
0000
,
0101
0000
0100
0010
,
1001
1000
0100
0010
,
1001
0001
0010
0100
,
0001
1000
0200
0000
0000
0000
0320
0000
,
0000
0000
0130
0000
,
0010
0001
0100
0020
,
0000
0000
1030
0000
,
1000
0001
0020
0000
0000
0000
0230
0000
,
0000
0000
0310
0000
,
0100
0000
1000
0010
0100
0000
0201
0000
,
0000
0010
0320
0000
,
1030
0001
0010
0000
0000
0000
1200
0000
,
0000
0000
0310
0000
,
0100
1000
0010
0200
,
0000
0010
0310
0000
,
1000
0000
0001
1000
0001
0000
0100
0000
,
0010
1000
0010
0100
,
0001
0101
0101
0000
,
1000
1100
1100
0000
,
0001
0010
0000
2100
,
0000
0000
3010
0000
,
0210
0000
0000
0302
,
0000
0000
2003
0000
,
3001
0010
0000
0100
,
0000
1000
0010
0000
,
0100
0000
0010
0100
0010
0000
2001
0000
,
0000
3001
0010
0100
,
0010
0001
0000
0200
,
0000
0310
1000
0001
,
0010
0000
0100
0010
0001
0000
2100
0000
,
0000
0000
3002
0000
,
0103
0000
0010
1000
,
0000
0001
0010
0100
,
2000
0010
3010
0000
,
0200
0001
0301
0000
,
0001
1000
0010
0010
,
0010
0110
0000
1001
,
0000
0001
0001
0001
,
0001
0001
0010
0100
,
1000
0010
0010
0010
,
0010
0100
0001
0010
,
0110
0000
0100
0000
1000
0000
0100
1000
,
0100
0000
0010
0000
0001
0100
0001
0000
,
1000
0010
0010
0010
,
0100
0010
0000
0110
,
0000
0100
0001
0001
,
0010
0100
0010
0001
,
1000
0010
0001
0010
,
0100
0010
1000
0001
,
0011
0000
0001
0010
0100
0000
0110
0000
,
0010
0100
1000
0000
1001
0000
0000
0000
,
0001
0010
0001
2000
,
0000
0000
3001
0000
,
0001
1000
0100
0010
,
0000
0000
0200
0000
,
0310
0001
0000
0201
,
0000
0000
0302
0000
,
0103
0000
0010
1000
0010
0000
2000
0000
,
0000
0100
3100
0000
,
0010
0001
0000
2100
,
0000
0000
3001
0000
,
1000
0100
0010
0100
,
0000
0000
1000
0000
,
0010
0010
0100
0001
,
0010
0010
0100
1000
,
0001
0001
1000
0010
,
0100
0100
0001
0100
,
0010
0010
1000
0100
,
0010
0010
0100
1000
,
0001
0010
0100
1000
,
0001
0000
1001
0000
,
1000
0100
0000
0020
,
0000
0001
0031
0000
,
1000
0000
1000
0010
0100
0000
0202
0000
,
0000
0000
0303
0000
,
0100
0010
0000
1001
,
0000
0001
0100
0010
,
0100
0000
0001
1000
0001
0000
0021
0000
,
0000
0000
0030
0000
,
0100
1000
0001
0100
,
0001
1000
0100
1000
,
0001
0100
0010
1000
,
0010
0100
0010
1000
,
2002
0000
0000
0000
,
0000
0000
0000
0000
,
3003
0000
0000
0000
;

//---------------dance-single - Pandemonium X----------------
#NOTEDATA:;
#CHARTNAME:;
#STEPSTYPE:dance-single;
#DESCRIPTION:Pandemonium X;
#CHARTSTYLE:;
#DIFFICULTY:Beginner;
#METER:6;
#RADARVALUES:0.173942,0.290073,0.044764,0.000000,0.000000,136.000000,131.000000,5.000000,0.000000,0.000000,0.000000,0.000000,0.000000,0.000000,0.173942,0.290073,0.044764,0.000000,0.000000,136.000000,131.000000,5.000000,0.000000,0.000000,0.000000,0.000000,0.000000,0.000000;
#CREDIT:Pandemonium X;
#NOTES:
// measure 0
0000
0000
0000
0000
,  // measure 1
0000
0000
0000
0000
,  // measure 2
0000
0000
0000
0000
,  // measure 3
0000
0000
0000
0000
,  // measure 4
0000
0000
0000
0000
,  // measure 5
0000
0000
0000
0000
,  // measure 6
0000
0000
0000
0000
,  // measure 7
0000
0000
0000
0000
,  // measure 8
0000
0000
0000
0000
,  // measure 9
0000
0000
0000
0000
,  // measure 10
0001
0000
0000
0000
,  // measure 11
0000
0000
0000
1000
,  // measure 12
0000
0000
0000
0000
,  // measure 13
0000
0000
0000
0000
,  // measure 14
0010
0000
0000
0000
,  // measure 15
0000
0000
0000
0000
,  // measure 16
0100
0000
0000
0010
,  // measure 17
0000
0000
1000
0000
,  // measure 18
0001
0000
0000
0001
,  // measure 19
0000
0000
0001
0000
,  // measure 20
1000
0000
0000
0000
,  // measure 21
0000
0000
0000
0000
,  // measure 22
0010
0000
0000
0010
,  // measure 23
0000
0000
0010
0000
,  // measure 24
0100
0000
0000
0000
,  // measure 25
0000
0000
0000
0000
,  // measure 26
0001
0000
0000
0001
,  // measure 27
0000
0000
0010
0000
,  // measure 28
0100
0000
0000
0000
,  // measure 29
0000
0000
0000
0000
,  // measure 30
0010
0000
0000
0000
,  // measure 31
0001
0000
0000
0000
,  // measure 32
0100
0000
0000
0000
,  // measure 33
0010
0000
0000
0000
,  // measure 34
1000
0000
0000
0000
,  // measure 35
1000
0000
0000
0000
,  // measure 36
1000
0000
1000
0000
,  // measure 37
1000
0000
0000
0000
,  // measure 38
0001
0000
0000
0000
,  // measure 39
1000
0000
0000
0000
,  // measure 40
0000
0000
0000
0110
,  // measure 41
0000
0000
0000
0000
,  // measure 42
0010
0000
0000
0000
,  // measure 43
0000
0000
0000
0000
,  // measure 44
0100
0000
0000
0010
,  // measure 45
0000
0000
0000
0000
,  // measure 46
1000
0000
0000
0000
,  // measure 47
1000
0000
0000
0000
,  // measure 48
0001
0000
0000
0000
,  // measure 49
0001
0000
0000
0000
,  // measure 50
0110
0000
0000
0000
,  // measure 51
0000
0000
0000
0000
,  // measure 52
0000
0000
0000
0000
,  // measure 53
0000
0000
0000
0000
,  // measure 54
0001
0000
0000
0000
,  // measure 55
0000
0000
0000
0000
,  // measure 56
0000
0000
0000
0000
,  // measure 57
0000
0000
0000
0000
,  // measure 58
1000
0000
0000
0000
,  // measure 59
0000
0000
0000
0000
,  // measure 60
0000
0000
0000
0000
,  // measure 61
0000
0000
0000
0000
,  // measure 62
0100
0000
0000
0000
,  // measure 63
0000
0000
0000
0000
,  // measure 64
0000
0000
0000
0000
,  // measure 65
0000
0000
0000
0000
,  // measure 66
0010
0000
0000
0000
,  // measure 67
0001
0000
0000
0000
,  // measure 68
0100
0000
0000
0000
,  // measure 69
0000
0000
0000
0000
,  // measure 70
0010
0000
0000
0000
,  // measure 71
1000
0000
0000
0000
,  // measure 72
0100
0000
0000
0000
,  // measure 73
0000
0000
0000
0000
,  // measure 74
0010
0000
0000
0000
,  // measure 75
0100
0000
0000
0000
,  // measure 76
1000
0000
0000
0000
,  // measure 77
0000
0000
0000
0000
,  // measure 78
0001
0000
0000
0000
,  // measure 79
0010
0000
0000
0000
,  // measure 80
0100
0000
0000
0000
,  // measure 81
0010
0000
0000
0000
,  // measure 82
0001
0000
0000
0000
,  // measure 83
1000
0000
0000
0000
,  // measure 84
0010
0000
0010
0000
,  // measure 85
0010
0000
0000
0000
,  // measure 86
1000
0000
0000
0000
,  // measure 87
0001
0000
0000
0000
,  // measure 88
0100
0000
0000
0010
,  // measure 89
0000
0000
0100
0000
,  // measure 90
0001
0000
0000
0000
,  // measure 91
1000
0000
0000
0000
,  // measure 92
0100
0000
0100
0000
,  // measure 93
0100
0000
0000
0000
,  // measure 94
0010
0000
0000
0000
,  // measure 95
0001
0000
0000
0000
,  // measure 96
0100
0000
0000
0000
,  // measure 97
0010
0000
0010
0000
,  // measure 98
1000
0000
0000
0000
,  // measure 99
0001
0000
0000
0000
,  // measure 100
1000
0000
0000
0000
,  // measure 101
0100
0000
0000
0000
,  // measure 102
1000
0000
0000
0000
,  // measure 103
0010
0000
0000
0000
,  // measure 104
0000
0000
0000
0110
,  // measure 105
0000
0000
0000
0000
,  // measure 106
0100
0000
0000
0000
,  // measure 107
0000
0000
0000
0000
,  // measure 108
0010
0000
0000
0100
,  // measure 109
0000
0000
0000
0000
,  // measure 110
0010
0000
0000
0000
,  // measure 111
1000
0000
0000
0000
,  // measure 112
0001
0000
0000
0000
,  // measure 113
1000
0000
0000
0000
,  // measure 114
0100
0000
0000
0000
,  // measure 115
0000
0000
0000
0010
,  // measure 116
0000
0000
0000
0000
,  // measure 117
0000
0000
0000
0000
,  // measure 118
0001
0000
0000
0000
,  // measure 119
0000
0000
0000
0000
,  // measure 120
1000
0000
0000
0001
,  // measure 121
0000
0000
0000
0000
,  // measure 122
0100
0000
0000
0000
,  // measure 123
0000
0000
0000
0010
,  // measure 124
0000
0000
0000
0000
,  // measure 125
0000
0000
0000
0000
,  // measure 126
1000
0000
0000
0000
,  // measure 127
0000
0000
0000
0000
,  // measure 128
0001
0000
0000
1000
,  // measure 129
0000
0000
0010
0000
,  // measure 130
1000
0000
0000
1000
,  // measure 131
0000
0000
1000
0000
,  // measure 132
0001
0000
0000
0000
,  // measure 133
0000
0000
0000
0000
,  // measure 134
0100
0000
0000
0100
,  // measure 135
0000
0000
0100
0000
,  // measure 136
0010
0000
0000
0000
,  // measure 137
0000
0000
0000
0000
,  // measure 138
1000
0000
0000
1000
,  // measure 139
0000
0000
0100
0000
,  // measure 140
0010
0000
0000
0000
,  // measure 141
0000
0000
0000
0000
,  // measure 142
0100
0000
0000
0000
,  // measure 143
1000
0000
0000
0000
,  // measure 144
0010
0000
0000
0000
,  // measure 145
0100
0000
0000
0000
,  // measure 146
0001
0000
0000
0000
,  // measure 147
0001
0000
0000
0000
,  // measure 148
0001
0000
0001
0000
,  // measure 149
0001
0000
0000
0000
,  // measure 150
1000
0000
0000
0000
,  // measure 151
0001
0000
0000
0000
,  // measure 152
0000
0000
0000
0110
,  // measure 153
0000
0000
0000
0000
,  // measure 154
0100
0000
0000
0000
,  // measure 155
0000
0000
0000
0000
,  // measure 156
0010
0000
0000
0100
,  // measure 157
0000
0000
0000
0000
,  // measure 158
0001
0000
0000
0000
,  // measure 159
0001
0000
0000
0000
,  // measure 160
1000
0000
0000
0000
,  // measure 161
1000
0000
0000
0000
,  // measure 162
0110
0000
0000
0000
;
