#VERSION:0.83;
#TITLE:Disco Body Parts (feat. AWOLNATION);
#SUBTITLE:;
#ARTIST:Yung Bae;
#TITLETRANSLIT:;
#SUBTITLETRANSLIT:;
#ARTISTTRANSLIT:;
#GENRE:;
#ORIGIN:;
#CREDIT:;
#BANNER:Disco Body Parts (feat. AWOLNATION).png;
#BACKGROUND:Disco Body Parts (feat. AWOLNATION)-bg.png;
#PREVIEWVID:;
#JACKET:Disco Body Parts (feat. AWOLNATION)-jacket.png;
#CDIMAGE:;
#DISCIMAGE:;
#LYRICSPATH:;
#CDTITLE:cdtitle.png;
#MUSIC:Disco Body Parts (feat. AWOLNATION).ogg;
#OFFSET:-0.006000;
#SAMPLESTART:22.931000;
#SAMPLELENGTH:16.100000;
#SELECTABLE:YES;
#BPMS:0.000=122.984;
#STOPS:;
#DELAYS:;
#WARPS:;
#TIMESIGNATURES:0.000=4=4;
#TICKCOUNTS:0.000=4;
#COMBOS:0.000=1;
#SPEEDS:0.000=1.000=0.000=0;
#SCROLLS:0.000=1.000;
#FAKES:;
#LABELS:0.000=Song Start;
#BGCHANGES:0.000=Disco Body Parts (feat. AWOLNATION).avi=1.000=0=0=1=====,
99999=-nosongbg-=1.000=0=0=0 // don't automatically add -songbackground-
;
#KEYSOUNDS:;
#ATTACKS:
;

//---------------dance-single - ----------------
#NOTEDATA:;
#CHARTNAME:;
#STEPSTYPE:dance-single;
#DESCRIPTION:;
#CHARTSTYLE:;
#DIFFICULTY:Beginner;
#METER:3;
#RADARVALUES:0.133653,0.241822,0.063429,0.055500,0.000000,118.000000,110.000000,8.000000,7.000000,0.000000,0.000000,0.000000,0.000000,0.000000,0.133653,0.241822,0.063429,0.055500,0.000000,118.000000,110.000000,8.000000,7.000000,0.000000,0.000000,0.000000,0.000000,0.000000;
#CREDIT:Pandemonium X;
#NOTES:
0000
0000
0000
0000
,
0000
0000
0000
0000
,
0000
0000
0000
0000
,
0000
0000
0000
0000
,
0000
1000
0000
0000
,
0001
0000
0000
0000
,
0100
0010
0000
0000
,
0100
0000
0000
0000
,
0001
0000
0000
0000
,
0000
0000
0000
0000
,
1000
0000
0001
0000
,
0110
0000
0000
0001
,
1000
0000
0001
0000
,
0100
0000
0010
0000
,
1000
0000
0100
0000
,
0010
0010
0010
0000
,
0100
0000
1000
0000
,
0001
0000
0100
0000
,
0010
0000
1000
0000
,
0001
0001
0001
0000
,
1000
0000
0000
0000
,
0001
0000
0000
0100
,
0100
0000
0000
0000
,
0010
0000
0000
1000
,
1000
0000
0000
0000
,
0001
0000
0000
0010
,
0010
0000
0100
0000
,
1000
0001
1000
0000
,
0000
0020
0000
0000
,
0130
0000
0000
0000
,
0000
0002
0000
0000
,
1003
0000
0000
0000
,
0000
0200
0000
0000
,
0310
0000
0000
0000
,
0000
1001
0000
0000
,
0020
0000
0000
0030
,
1000
0002
0000
0000
,
0013
0001
0010
0000
,
0100
2000
0000
0000
,
3010
1000
0010
0000
,
0100
0000
0010
0000
,
1000
0000
0001
0000
,
0010
0100
0000
0000
,
0010
0001
1000
0000
,
0110
0000
0000
0000
,
0001
0000
1000
0000
,
0001
1000
0001
0000
,
0100
0000
0010
0000
,
0100
0010
0100
0000
,
0010
0000
1000
0000
,
0100
0010
0100
0000
,
0010
0000
0001
0000
,
1000
1000
1000
0000
,
0001
0000
0010
0000
,
0100
0000
0001
1000
,
0001
0000
1001
0110
,
1001
0000
0000
0000
,
1000
0000
0001
0000
,
0100
0000
0010
0100
,
0010
0000
1001
0110
,
1000
0001
0200
0000
,
0300
0000
0000
0000
;

//---------------dance-single - ----------------
#NOTEDATA:;
#CHARTNAME:;
#STEPSTYPE:dance-single;
#DESCRIPTION:;
#CHARTSTYLE:;
#DIFFICULTY:Easy;
#METER:5;
#RADARVALUES:0.181225,0.290186,0.087214,0.055500,0.000000,160.000000,149.000000,11.000000,7.000000,0.000000,0.000000,0.000000,0.000000,0.000000,0.181225,0.290186,0.087214,0.055500,0.000000,160.000000,149.000000,11.000000,7.000000,0.000000,0.000000,0.000000,0.000000,0.000000;
#CREDIT:Pandemonium X;
#NOTES:
0000
0000
0000
0000
,
0000
0000
0000
0000
,
0000
0000
0000
0000
,
0000
0000
0000
0000
,
0000
0000
0000
0000
,
0000
0000
0000
0000
,
0000
0000
0000
0000
,
0000
0000
0000
0000
,
0001
0000
0000
0000
0000
1000
0000
0001
,
0000
0000
0000
1000
,
0001
0000
0000
0000
1000
0001
0000
0000
,
0100
0000
0000
0010
,
1000
1000
1000
0001
,
0100
0100
0100
0010
,
1000
0001
0010
0001
,
0100
0100
0100
0010
,
1000
1000
1000
0100
,
0010
0010
0010
0100
,
1000
0001
0100
0001
,
0010
0010
0010
0000
,
0100
0000
1000
0000
,
0010
0100
0010
0000
,
1000
0000
0001
0000
,
0010
0100
0010
0000
,
0100
0000
1000
0000
,
0010
1000
0010
0000
,
0100
0000
0001
0000
,
1000
1000
1000
0000
,
0001
0020
0000
0000
,
0130
0000
0000
0000
,
1000
0002
0000
0000
,
0103
0000
0000
0000
,
0010
2000
0000
0000
,
3100
0000
0000
0000
,
0010
0100
0000
0000
,
0010
0010
0010
0000
,
0001
2000
0000
3001
,
0000
0100
0000
0010
,
0000
2000
0000
3100
,
0000
0010
0000
0100
,
0000
2000
0000
3001
,
0000
0100
0000
0001
,
0000
0010
0000
0100
,
0000
0010
0000
0001
,
1000
1000
1000
1001
,
0110
0100
0100
0010
,
1000
1000
1000
0001
,
0010
0001
0100
0001
,
1000
0001
1001
0001
,
1000
1000
1000
0001
,
0010
0010
0010
0001
,
0100
0001
1000
0100
,
0110
0110
0110
0000
,
0100
1000
0010
0000
,
0100
0000
0001
1000
,
0001
0000
1001
0110
,
1001
0000
0001
0000
,
1000
0001
0010
0000
,
0100
0000
0010
0001
,
1000
0000
1001
0110
,
1000
0001
0200
0000
,
0300
0000
0000
0000
;

//---------------dance-single - ----------------
#NOTEDATA:;
#CHARTNAME:;
#STEPSTYPE:dance-single;
#DESCRIPTION:;
#CHARTSTYLE:;
#DIFFICULTY:Medium;
#METER:8;
#RADARVALUES:0.312613,0.411097,0.459858,0.150643,0.000000,276.000000,218.000000,58.000000,19.000000,0.000000,0.000000,0.000000,0.000000,0.000000,0.312613,0.411097,0.459858,0.150643,0.000000,276.000000,218.000000,58.000000,19.000000,0.000000,0.000000,0.000000,0.000000,0.000000;
#CREDIT:Pandemonium X;
#NOTES:
0000
0000
0000
0000
,
0000
0000
0000
0000
,
0000
0000
0000
0000
,
0000
0000
0000
0000
,
0000
0000
0000
0000
,
0000
0000
0000
0000
,
0000
0000
0000
0000
,
0000
0000
0000
0000
,
0001
0000
0000
0000
0000
0010
0000
0001
,
0000
0000
0000
0100
,
0010
0000
0000
0000
1000
0001
0000
0000
,
0100
0010
0100
0010
0100
0010
0100
0001
,
0011
1001
0101
0001
,
1100
0110
0011
1000
,
1010
0001
0011
0001
,
1001
0110
1001
0001
,
1001
0101
1001
0001
,
1001
1100
1001
1000
,
1010
1001
0011
1001
,
0110
0000
1001
0000
0110
0000
0001
1000
,
0200
0000
1300
0000
0100
1000
0010
0000
,
0200
0000
0301
0000
0010
0000
0100
0010
,
0002
0000
1003
0000
0001
0100
0010
0000
,
1010
0000
0011
0000
1010
0000
1000
0001
,
0020
0000
0130
0000
0010
0001
1000
0000
,
0100
0000
1000
0000
0010
0000
0100
0001
,
0020
0000
0130
0000
0010
0001
0100
0000
,
0001
0100
1000
0100
0001
0000
0000
0000
,
2000
0100
0000
0100
,
0000
0001
0000
3001
,
0002
0010
0000
0010
,
0000
1000
0000
1003
,
0200
0001
0000
0001
,
0000
0010
0000
0010
,
0320
0100
0000
0100
,
0000
1000
0000
1030
,
0001
0020
0100
0130
,
0010
0001
0010
0001
0100
0000
1001
0000
,
2000
0010
0010
3010
,
0100
0001
1000
0002
0000
0000
0000
0000
,
2003
0100
0100
0010
,
3020
1030
0002
0103
,
0001
0000
1000
0001
0010
0000
0100
0000
,
0010
0001
1000
0200
0000
0000
0000
0000
,
0310
0010
0010
0010
,
1001
1010
1001
0010
,
1001
0011
1001
0010
,
0101
1100
0101
1100
,
1001
0110
1001
1000
,
1001
0011
1001
0001
,
1001
1010
1001
1000
,
1001
1100
0110
0011
,
1001
0000
0110
0000
1001
0000
0001
1000
,
0010
0000
1000
0000
0100
0000
0001
0100
,
1000
0000
0100
0000
1000
0010
0100
0000
,
0001
1000
1001
0101
,
0002
0013
2000
3100
,
1000
0000
0001
0000
0010
0000
0001
0100
,
1000
0000
0100
0000
0001
0100
0010
1000
,
0001
1000
1010
0011
,
1000
0100
0010
0001
2000
0000
0000
0000
,
3000
0000
0000
0000
;

//---------------dance-single - ----------------
#NOTEDATA:;
#CHARTNAME:;
#STEPSTYPE:dance-single;
#DESCRIPTION:;
#CHARTSTYLE:;
#DIFFICULTY:Hard;
#METER:10;
#RADARVALUES:0.371511,0.411097,0.198214,0.190286,0.011893,328.000000,303.000000,25.000000,24.000000,0.000000,0.000000,0.000000,0.000000,0.000000,0.371511,0.411097,0.198214,0.190286,0.011893,328.000000,303.000000,25.000000,24.000000,0.000000,0.000000,0.000000,0.000000,0.000000;
#CREDIT:Pandemonium X;
#NOTES:
// measure 0
0000
0000
0000
0000
,  // measure 1
0000
0000
0000
0000
,  // measure 2
0000
0000
0000
0000
,  // measure 3
0000
0000
0000
0000
,  // measure 4
1000
0200
1000
1300
,  // measure 5
0001
0100
0001
0010
,  // measure 6
0200
0310
0002
0013
,  // measure 7
0001
0100
0010
2000
0000
0000
0000
0000
,  // measure 8
3100
0000
0000
0000
0000
0011
0000
1001
,  // measure 9
0000
0000
0000
1001
,  // measure 10
1020
0000
0000
0000
0100
0130
0000
0000
,  // measure 11
0010
1000
0001
0100
0010
1000
0001
0010
,  // measure 12
0100
1000
0100
1000
0010
0000
0100
0001
,  // measure 13
1000
0010
1000
0010
0100
0000
0010
1000
,  // measure 14
0001
1000
0010
1000
0001
0010
0001
1000
,  // measure 15
0001
0100
0010
1000
0100
0000
0010
0001
,  // measure 16
0100
0010
0100
0010
1000
0000
0001
1000
,  // measure 17
0100
0010
0100
0010
0001
0000
0010
0100
,  // measure 18
1000
0001
0100
0001
1000
0100
1000
0001
,  // measure 19
0010
0100
1000
0010
0100
0000
0010
0010
,  // measure 20
1000
0000
1100
0000
0100
1000
0001
0000
,  // measure 21
1000
0000
1010
0000
0001
0100
0010
0010
,  // measure 22
1000
0000
1001
0000
0001
0010
0100
1000
,  // measure 23
0010
1010
1000
1001
,  // measure 24
0011
0000
0010
0000
0100
1000
0010
0000
,  // measure 25
0100
0000
1010
0000
0010
0000
1000
1000
,  // measure 26
0001
0000
0011
0000
0010
0001
1000
0001
,  // measure 27
1000
0010
0001
0010
1000
0000
0000
0000
,  // measure 28
0011
2000
0000
0000
,  // measure 29
3010
1000
0001
2000
0000
0000
3100
0000
,  // measure 30
1000
1020
0000
0000
,  // measure 31
0130
0001
0100
0020
0000
0000
0000
0000
,  // measure 32
1030
0012
0000
0000
,  // measure 33
0013
0100
1000
0020
0000
0000
0100
0000
,  // measure 34
1030
0000
0001
1001
0000
0000
0000
0000
,  // measure 35
1000
0100
0010
0002
0000
0000
0000
0003
,  // measure 36
0200
0000
0310
0000
0100
0010
1000
0000
,  // measure 37
0001
1000
0100
0020
0000
0000
0130
0000
,  // measure 38
2000
0000
3010
0000
0100
0001
0010
0000
,  // measure 39
0100
0010
0100
2000
0000
0000
0000
0000
,  // measure 40
3002
0000
0103
0000
0001
1000
0010
0000
,  // measure 41
0100
0001
0010
0200
0000
0000
1000
0000
,  // measure 42
1300
0001
1000
0001
0100
0010
0100
0010
,  // measure 43
1000
1000
0001
2000
0000
0000
3010
0000
,  // measure 44
1001
0000
0000
0000
1001
0000
0000
0000
0110
0000
0000
1000
0010
0000
0100
0000
,  // measure 45
0001
0010
0001
0010
0100
0000
0010
0100
,  // measure 46
1000
0001
1000
0001
0010
0000
0001
0100
,  // measure 47
0001
0010
0001
0100
0001
0010
0001
0100
,  // measure 48
0001
1000
0100
0010
0001
0000
1000
0001
,  // measure 49
1000
0100
1000
0100
0010
0000
0100
1000
,  // measure 50
0001
1000
0001
1000
0100
0000
0010
0100
,  // measure 51
1000
0010
0100
0010
1000
0100
0010
0100
,  // measure 52
1000
0100
0010
0001
1000
0000
0010
0010
,  // measure 53
0000
0000
1000
0000
0000
0100
0000
0000
0210
0000
0000
0000
0000
0000
0310
0000
,  // measure 54
0001
0000
0000
0000
1000
0100
1000
0001
,  // measure 55
0200
0301
0101
1100
,  // measure 56
0100
0010
0100
0000
0010
0001
0010
0000
,  // measure 57
0100
0000
0010
0000
0000
0001
0000
0000
2000
0000
0000
0000
0000
0000
3001
0000
,  // measure 58
0200
0000
0010
0000
0301
1000
0100
1000
,  // measure 59
0010
1010
0110
1001
,  // measure 60
0001
0010
1000
0010
0002
0000
0000
0000
,  // measure 61
0003
0000
0000
0000
;

//---------------dance-single - ----------------
#NOTEDATA:;
#CHARTNAME:;
#STEPSTYPE:dance-single;
#DESCRIPTION:;
#CHARTSTYLE:;
#DIFFICULTY:Challenge;
#METER:13;
#RADARVALUES:0.455327,0.701283,0.555001,0.658072,0.134786,402.000000,332.000000,70.000000,83.000000,0.000000,0.000000,1.000000,0.000000,0.000000,0.455327,0.701283,0.555001,0.658072,0.134786,402.000000,332.000000,70.000000,83.000000,0.000000,0.000000,1.000000,0.000000,0.000000;
#CREDIT:Pandemonium X;
#NOTES:
// measure 0
0000
0000
0000
0000
,  // measure 1
0000
0000
0000
0000
,  // measure 2
0000
0000
0000
0000
,  // measure 3
0000
0000
0000
0000
,  // measure 4
0000
0000
0000
0000
,  // measure 5
0000
0000
0000
0000
,  // measure 6
0000
0000
0000
0000
,  // measure 7
0000
0000
0000
0000
,  // measure 8
0101
0000
0000
0000
0000
0011
0000
1010
,  // measure 9
0000
0000
0000
1010
,  // measure 10
1100
0000
0000
0000
0101
0110
0000
0000
,  // measure 11
0001
0000
0100
0000
1000
0000
0010
0000
0001
0000
0000
1000
0010
0100
0001
0010
,  // measure 12
0002
0013
0210
1300
1001
0000
0001
0100
,  // measure 13
1020
0130
0210
0301
1001
0000
0001
0100
,  // measure 14
0201
0310
0102
0013
2001
3010
1020
0130
,  // measure 15
1002
1003
2001
3001
0110
0000
1000
0100
,  // measure 16
0210
1300
2100
3010
1010
0000
1000
0001
,  // measure 17
0021
0130
0210
1300
1001
0000
1000
0001
,  // measure 18
0102
0013
0021
0130
0210
1300
2100
3010
,  // measure 19
1002
0013
2001
3010
0110
0000
0200
0302
,  // measure 20
0013
0000
0110
0000
0100
1000
0010
0001
,  // measure 21
0010
0000
1010
0000
0101
0000
0002
2003
,  // measure 22
3001
0000
0011
0001
0010
0001
0100
0001
,  // measure 23
2000
3010
0002
0013
,  // measure 24
0001
0000
1010
0000
0001
0100
1000
0100
,  // measure 25
0001
0000
1010
0000
1100
0000
0200
0320
,  // measure 26
0031
0000
1001
1000
0001
0010
1000
0010
,  // measure 27
0001
0100
1000
0010
0001
0000
0000
0000
,  // measure 28
0010
2002
0000
3003
,  // measure 29
0001
0001
0010
0200
0000
0000
2000
0000
,  // measure 30
3300
2020
0000
3030
,  // measure 31
0100
0010
2000
0002
0000
0000
3003
0000
,  // measure 32
0010
0220
0000
0330
,  // measure 33
0100
0001
1000
0002
0000
0000
0020
0000
,  // measure 34
0000
0033
0100
1001
0000
0000
0000
0000
,  // measure 35
2000
3200
0302
0020
0000
0000
0033
0000
,  // measure 36
1000
0101
0001
0011
,  // measure 37
0001
0010
1000
0010
0100
1000
0010
0000
,  // measure 38
0001
0101
0100
0110
,  // measure 39
0010
0100
0001
0010
0100
0000
0110
0000
,  // measure 40
0100
1000
0100
1000
0100
0010
0100
0010
,  // measure 41
0001
0010
0001
0010
0100
0010
0100
1000
,  // measure 42
0001
1000
0001
1000
0001
1000
0001
1000
0001
1000
0001
1000
0001
1000
0001
1000
,  // measure 43
0001
0100
0001
0100
0010
0100
0010
0100
0010
0000
0000
0100
0010
0000
1000
0000
,  // measure 44
0002
0000
0000
0000
0003
0000
0002
0000
0000
0000
0000
0000
2000
0000
0000
0000
3000
0000
2000
0000
0000
0000
0003
0000
3010
0000
0000
0000
0000
0000
0000
0000
0000
0100
0000
0000
0001
0000
0000
0010
0000
0000
0100
0000
0000
1000
0000
0000
,  // measure 45
0002
0103
1020
0130
1001
0000
0001
0010
,  // measure 46
0210
1300
2100
3010
0101
0000
0001
0100
,  // measure 47
0210
0001
0310
0100
0002
1000
1003
0001
,  // measure 48
1000
0100
0001
0010
1000
0000
0001
0010
,  // measure 49
0210
1300
2100
3010
0101
0000
0001
0100
,  // measure 50
0210
0301
0021
0130
1100
0000
0100
1000
,  // measure 51
2100
0100
0010
3001
0102
0100
0103
0001
,  // measure 52
1000
0100
0001
0010
1000
0000
0002
0023
,  // measure 53
0130
0000
1000
0000
0100
1000
0000
1000
0020
0000
0000
0000
0130
0000
0010
1000
,  // measure 54
0002
0000
0000
0000
0010
0000
0000
0103
0002
0000
0023
0000
0230
0000
2300
0000
,  // measure 55
3001
0000
0000
0000
1000
0000
0001
0000
0202
0000
0000
0303
2020
0000
0000
3030
,  // measure 56
1001
1000
0100
0000
1001
0001
0100
0000
,  // measure 57
1001
0000
0001
0000
0001
0010
0000
0010
0200
0000
0000
0000
0310
0000
0100
1000
,  // measure 58
0020
0000
0000
0000
0100
0000
0000
1030
0002
0000
2003
0000
3200
0000
0320
0000
,  // measure 59
0031
0000
0000
0000
0100
0000
1000
0000
2020
0000
0000
3030
0202
0000
0000
0303
,  // measure 60
0001
0100
1000
0010
0002
4000
0000
0000
,  // measure 61
3003
0000
0000
0000
;

//---------------dance-double - ----------------
#NOTEDATA:;
#CHARTNAME:;
#STEPSTYPE:dance-double;
#DESCRIPTION:;
#CHARTSTYLE:;
#DIFFICULTY:Easy;
#METER:4;
#RADARVALUES:0.171031,0.217640,0.055500,0.047571,0.000000,151.000000,144.000000,7.000000,6.000000,0.000000,0.000000,0.000000,0.000000,0.000000,0.171031,0.217640,0.055500,0.047571,0.000000,151.000000,144.000000,7.000000,6.000000,0.000000,0.000000,0.000000,0.000000,0.000000;
#CREDIT:Pandemonium X;
#NOTES:
00000000
00000000
00000000
00000000
,
00000000
00000000
00000000
00000000
,
00000000
00000000
00000000
00000000
,
00000000
00000000
00000000
00000000
,
01000000
00100000
00000000
00000000
,
10000000
01000000
00100000
00000000
,
01000000
00000000
10000000
00000000
,
00010000
00010000
00010000
00000000
,
00100000
00000000
00000000
00000000
00000000
00001000
00000000
00010000
,
00000000
00000000
00000000
00000100
,
00001000
00000000
00000010
00000000
,
00000100
00000100
00000100
00000010
,
00001000
00000001
00000010
00000000
,
00000001
00000100
00000010
00000000
,
00000100
00000010
00001000
00000100
,
00010000
00001000
00011000
00000000
,
00001000
01000000
00100000
00000000
,
01000000
00010000
00100000
00000000
,
01000000
00000000
10000000
00000000
,
00010000
00100000
00011000
00000000
,
00010000
00000000
00000100
00001000
,
00000010
00000000
00000100
00000000
,
00000010
00000000
00000100
00000001
,
00001000
00000000
00000100
00001000
,
00000100
00000000
00010000
00000000
,
00001000
00000000
01000000
00100000
,
10000000
00000000
01000000
00000000
,
00100000
00001000
00011000
00000000
,
00010000
00000200
00000000
00000000
,
00001300
00000000
00000000
00000000
,
00000010
00000200
00000000
00000000
,
00000301
00000000
00000000
00000000
,
00000010
00000200
00000000
00000000
,
00001300
00000000
00000000
00000000
,
00000100
00000010
00000000
00000000
,
00000001
00000001
00000001
00000000
,
00000100
00000020
00000000
00001030
,
00000000
00000100
00000000
00010000
,
00000000
00002000
00000000
00103000
,
00000000
00010000
00000000
01000000
,
00100000
10000000
01000000
00000000
,
00100000
00001000
00010000
00000000
,
00000100
00000000
00001000
00000000
,
00000010
00000010
00000010
00000000
,
00000100
00000010
00001000
00000100
,
00001100
00001000
00000100
00000000
,
00010000
00001000
00010000
00000000
,
00001000
00000000
01000000
00000000
,
00100000
10000000
01010000
00000000
,
00010000
00000000
00100000
00000000
,
00001000
00010000
00001000
00000000
,
00010000
00000000
00000100
00000000
,
00001000
00000010
00000101
00000000
,
00000001
00000000
00000010
00000000
,
00000100
00000000
00001000
00010000
,
00100000
00000000
01000000
01000000
,
10010000
00000000
00000000
00000000
,
10000000
00000000
01000000
00000000
,
00100000
00000000
00010000
00001000
,
00000100
00000000
00000010
00000010
,
00000001
00000100
00000020
00000000
,
00000030
00000000
00000000
00000000
;

//---------------dance-double - ----------------
#NOTEDATA:;
#CHARTNAME:;
#STEPSTYPE:dance-double;
#DESCRIPTION:;
#CHARTSTYLE:;
#DIFFICULTY:Medium;
#METER:8;
#RADARVALUES:0.319408,0.435279,0.404358,0.095143,0.007929,282.000000,231.000000,51.000000,12.000000,0.000000,0.000000,0.000000,0.000000,0.000000,0.319408,0.435279,0.404358,0.095143,0.007929,282.000000,231.000000,51.000000,12.000000,0.000000,0.000000,0.000000,0.000000,0.000000;
#CREDIT:Pandemonium X;
#NOTES:
00000000
00000000
00000000
00000000
,
00000000
00000000
00000000
00000000
,
00000000
00000000
00000000
00000000
,
00000000
00000000
00000000
00000000
,
10000000
00210000
00000000
00000000
,
01300000
00010000
00200000
01300000
,
10000000
00000000
00010000
10010000
00000000
00000000
00000000
00000000
,
01000000
00010000
00100000
00002000
00000000
00000000
00000000
00000000
,
00013000
00000000
00000000
00000000
00000000
00001000
00000000
00010000
,
00000000
00000000
00000000
00001000
,
00010000
00000000
00000000
00000000
00000100
00010000
00000000
00000000
,
00000100
00000000
00010000
00000000
00001000
00000000
00010000
00100000
,
01000000
10000000
11000000
10000000
,
00100000
01000000
01010000
01000000
,
01001000
00001000
00011000
00010000
,
00010100
00000100
00001000
00000010
00000100
00000000
00000010
00000100
,
00000010
00001000
00001010
00001000
,
00000100
00010000
00011000
00001000
,
01000000
00100000
11000000
01100000
,
01000000
10000000
00010000
00100000
00001000
00000000
00010000
00001000
,
00010000
00000100
00001000
00000010
,
00000100
00000000
00000001
00000000
00000010
00000000
00000100
00001000
,
00000100
00001000
00000100
00010000
,
00001000
00101000
00100000
00110000
,
00100000
01000000
10000000
01000000
,
10000000
00000000
00100000
00000000
01000000
00000000
00010000
00100000
,
00001000
00010000
00000100
00001000
,
00000010
00000001
00000010
00001000
00000001
00000000
00000000
00000000
,
00001001
00002000
00000000
00000000
,
00003100
00000000
00001000
00000020
00000000
00000000
00000130
00000000
,
00000001
00000020
00000000
00000000
,
00000130
00001000
00000100
00020000
00000000
00000000
00000000
00000000
,
00031000
02000000
00000000
00000000
,
03100000
00000000
10000000
02000000
00000000
00000000
03100000
00000000
,
00000000
00000000
01000000
01100000
00000000
00000000
00000000
00000000
,
01000000
10000000
00010000
00200000
00000000
00000000
00000000
00000000
,
00301000
00000000
00010000
00000000
00000010
00000100
00000001
00000000
,
00000010
00000000
00000100
00000000
00000010
00000001
00000100
00000000
,
00000010
00000000
00001000
00000000
00000100
00010000
00001000
00000000
,
00010000
00000000
00001000
00000000
01000000
00100000
10000000
00000000
,
01000000
00000000
01100000
00000000
01000000
10000000
00100000
00000000
,
01000000
00000000
01010000
00000000
01000000
00010000
00100000
00000000
,
00001000
00101000
00010000
00011000
,
00010000
00000100
00010000
00002000
00000000
00000000
00000000
00000000
,
01003000
00000000
01000000
00000000
01000000
00000000
01000000
00100000
,
10010000
00110000
00101000
00011000
,
00010100
00001100
00000110
00000011
,
00000101
00001010
00000101
00001010
,
00001000
00000100
00010000
00001000
00011000
00000000
00010000
00000100
,
00001100
00000110
00000011
00000101
,
00000110
00001010
00001100
00010100
,
00011000
00110000
00011000
00110000
,
00001000
00100000
00010000
01000000
00100000
00000000
00000000
00000000
,
10000000
00000000
01000000
00000000
00000000
00100000
00000000
00000000
01000000
00000000
00000000
00000000
00000000
00000000
10000000
00000000
,
00100000
00000000
01000000
00001000
,
00011000
00000000
00010100
00001100
,
00000110
00000000
00000100
00000000
,
00000010
00000000
00000001
00000000
00000000
00000100
00000000
00000000
00000010
00000000
00000000
00000000
00000000
00000000
00001000
00000000
,
00000001
00000000
00000001
00000100
,
00000110
00000000
00001010
00001100
,
00000100
00010000
00001000
01000000
00100000
20000000
00000000
00000000
,
30000000
00000000
00000000
00000000
;

//---------------dance-double - ----------------
#NOTEDATA:;
#CHARTNAME:;
#STEPSTYPE:dance-double;
#DESCRIPTION:;
#CHARTSTYLE:;
#DIFFICULTY:Hard;
#METER:11;
#RADARVALUES:0.352255,0.435279,0.182357,0.222000,0.015857,311.000000,288.000000,23.000000,28.000000,0.000000,0.000000,0.000000,0.000000,0.000000,0.352255,0.435279,0.182357,0.222000,0.015857,311.000000,288.000000,23.000000,28.000000,0.000000,0.000000,0.000000,0.000000,0.000000;
#CREDIT:Pandemonium X;
#NOTES:
00000000
00000000
00000000
00000000
,
00000000
00000000
00000000
00000000
,
00000000
00000000
00000000
00000000
,
00000000
00000000
00000000
00000000
,
00100000
21000000
00000000
00000000
,
30010000
00100000
00001000
00010000
,
00000100
00000000
00001000
00000001
00000000
00000000
00000000
00000000
,
00000100
00000100
00000010
00000200
00000000
00000000
00000300
00000000
,
00000120
00000000
00000000
00000000
00000030
00001010
00000000
00001200
,
00000000
00000000
00000300
00011000
,
02001000
00000000
00000000
00000000
00100000
03200000
00000000
00000000
,
10300000
00000000
01000000
00000000
00100000
00000000
00010000
00000000
00100000
00000000
00000000
01000000
10000000
00000000
00010000
00000000
,
10000000
00010000
00100000
00001000
00010000
00000000
00001000
00010000
,
00000100
00001000
00000010
00000100
00000001
00000000
00000010
00000001
,
00000100
00000010
00001000
00000100
00010000
00001000
00100000
01000000
,
10000000
01000000
00010000
01000000
10000000
00000000
00100000
10000000
,
00010000
00100000
00001000
00010000
00000100
00000000
00001000
00000010
,
00000100
00000001
00000010
00000100
00001000
00000000
00000100
00010000
,
00000010
00000100
00000001
00000010
00000100
00010000
00000100
00000010
,
00000001
00000010
00001000
00000010
00000001
00000000
00000100
00000100
,
00000010
00000000
00001000
00000000
00000100
00010000
00001000
00000000
,
00100000
00000000
01000000
00000000
10000000
00000000
01000000
01000000
,
10000000
00000000
00100000
00000000
01000000
00100000
01000000
00000000
,
00010000
00100000
00001000
00011000
,
00000100
00000000
00001000
00000000
00000010
00001000
00000001
00000000
,
00001000
00000000
00000100
00000000
00010100
00000000
00010000
00010000
,
00001000
00010000
00000100
00001000
,
00000001
00000100
00001000
00000100
00000001
00000000
00000000
00000000
,
00001010
00000200
00000000
00000000
,
00000310
00001000
00000100
00020000
00000000
00000000
00032000
00000000
,
01003000
10200000
00000000
00000000
,
01300000
00010000
00100000
02000000
00000000
00000000
00000000
00000000
,
03100000
00102000
00000000
00000000
,
00013000
00000100
00010000
00002000
00000000
00000000
01003000
00000000
,
00000000
00000000
00100000
10010000
00000000
00000000
00000000
00000000
,
00100000
00100000
00002000
00020000
00000000
00000000
00000000
00033000
,
00020000
00000100
00001000
00000100
,
00031000
00010000
00000100
00002000
00000000
00000000
00003010
00000000
,
00000200
00000301
00000200
00000310
,
00000010
00010000
00001000
02000000
00000000
00000000
00000000
00000000
,
03200000
00000000
10300000
00000000
01000000
00100000
00010000
00000000
,
00200000
00000000
00310000
00000000
00100000
00001000
00010000
00000000
,
00000100
00011000
01000000
00011000
,
00001000
00001000
00100000
00020000
00000000
00000000
00000000
00000000
,
01030000
00000000
00100000
00000000
01000000
00000000
00100000
00000000
10010000
00000000
00000000
10000000
01000000
00000000
10000000
00000000
,
01000000
00100000
00010000
00100000
00001000
00000000
00010000
00000100
,
00001000
00000010
00000100
00000010
00001000
00000000
00000001
00001000
,
00000010
00001000
00000100
00010000
00001000
00100000
00001000
00010000
,
00100000
10000000
00100000
00010000
10010000
00000000
10000000
01000000
,
00100000
00010000
00100000
00001000
00010000
00000000
00001000
00010000
,
00001000
00010000
00000100
00001000
00000010
00000000
00000100
00000010
,
00001000
00000001
00000010
00000100
00001000
00000001
00001000
00000001
,
00000010
00001000
00000010
00000001
00001001
00000000
00000001
00000001
,
00000101
00000000
00000100
00000000
00000000
00000010
00000000
00000000
00020000
00000000
00000000
00000000
00000000
00000000
00031000
00000000
,
01000000
00000000
00000000
00000000
00100000
00010000
00100000
10000000
,
00010000
10000000
10010000
01100000
,
02000000
03010000
00200000
00301000
,
00011000
00000000
00010000
00000000
00000000
00000100
00000000
00000000
00001000
00000000
00000000
00000000
00000000
00000000
00000010
00000000
,
00000200
00000000
00000300
00000000
00000010
00000001
00000010
00001000
,
00000001
00000010
00001001
00000110
,
00000010
00010000
00001000
01000000
00200000
00000000
00000000
00000000
,
00300000
00000000
00000000
00000000
;

//---------------dance-double - ----------------
#NOTEDATA:;
#CHARTNAME:;
#STEPSTYPE:dance-double;
#DESCRIPTION:;
#CHARTSTYLE:;
#DIFFICULTY:Challenge;
#METER:13;
#RADARVALUES:0.442868,0.725465,0.333000,0.459858,0.114964,391.000000,349.000000,42.000000,58.000000,0.000000,0.000000,0.000000,0.000000,0.000000,0.442868,0.725465,0.333000,0.459858,0.114964,391.000000,349.000000,42.000000,58.000000,0.000000,0.000000,0.000000,0.000000,0.000000;
#CREDIT:Pandemonium X;
#NOTES:
00000000
00000000
00000000
00000000
,
00000000
00000000
00000000
00000000
,
00000000
00000000
00000000
00000000
,
00000000
00000000
00000000
00000000
,
10000000
00110000
00000000
00000000
,
00001000
00010000
00000100
00002000
00000000
00000000
00003001
00000000
,
00000000
00000000
00000010
00001001
00000000
00000000
00000000
00000000
,
00000010
00010000
00001000
02000000
00000000
00000000
00000000
00000000
,
03100000
00000000
00000000
00000000
00000000
11000000
00000000
01200000
,
00000000
00000000
00300000
00011000
,
00002100
00000000
00000000
00003000
00000011
00001200
00000000
00000000
,
00000301
00000000
00000010
00000000
00001000
00000000
00000010
00000000
00011000
00000000
00000000
00001000
01000000
00100000
10000000
01000000
,
00100000
00010000
00001000
00000100
00001000
00000000
00000001
00001000
,
00000001
00000100
00001000
00010000
00001000
00000000
00100000
01000000
,
10000000
01000000
00100000
00010000
00001000
00000100
00000010
00000001
,
00001000
00000100
00000010
00000001
00001010
00000000
00000010
00000100
,
00000010
00000100
00001000
00010000
00001000
00000000
00010000
00001000
,
01000000
10000000
01000000
00010000
00100000
00000000
01000000
10000000
,
01000000
00100000
00010000
00001000
00000100
00000010
00000001
00001000
,
00000001
00000100
00001000
00000010
00000001
00000000
00000200
00000320
,
00001030
00000000
00000000
00000000
00001100
00000000
00000100
00010000
00001000
00000000
00100000
00000000
00010000
00000000
01000000
00000000
,
00100000
00000000
10100000
00000000
01010000
00000000
00002000
00023000
,
00030100
00000000
00000000
00000000
00010000
00000000
00001000
00010000
00000100
00000000
00000001
00000000
00000100
00000000
00001000
00000000
,
00000010
00001001
00000110
00001001
,
00000101
00000000
00000000
00000000
00000100
00000000
00000010
00010000
00001000
00000000
00100000
00000000
00001000
00000000
00010000
00000000
,
00000100
00000000
00010100
00000000
00010000
00000000
00002000
00203000
,
00310000
00000000
00000000
00000000
01010000
00000000
01000000
00100000
10000000
00000000
01000000
00000000
00010000
00000000
01000000
00000000
,
10000000
01000000
00100000
00010000
00011000
00000000
00000000
00000000
,
00210000
00002000
00000000
00003000
,
00010000
00010000
00010000
00020000
00000000
00030000
00301000
00000000
,
00001100
00010200
00000000
00000000
,
00010000
00010000
00010000
00020000
00000000
00000000
00030300
00000000
,
00201000
00020000
00000000
00030000
,
00001000
00001000
00001000
00302000
00000000
00000000
00013000
00000000
,
00000000
00000000
00001000
00101000
00000000
00000000
00000000
00000000
,
01000000
00001000
00010000
00000020
00000000
00000000
00000030
00000000
,
00000100
00000000
00001001
00000000
00000001
00000100
00000010
00000000
,
00000100
00001000
00010000
00100000
20000000
00000000
31000000
00000000
,
00100000
10010000
01000000
10010000
,
00010000
00100000
00001000
00020000
00001000
00000000
00000100
00000000
,
00030010
00000100
00000010
00000100
00000010
00000010
00000100
00000100
,
00000001
00001000
00000001
00001000
00000001
00000001
00001000
00001000
,
00000010
00001000
00000010
00001000
00000100
00001000
00000100
00001000
00000100
00010000
00000100
00010000
00001000
00010000
00001000
00010000
,
00001000
01000000
00001000
01000000
00001000
01000000
00100000
01000000
00100000
00000000
00000000
10000000
00010000
00000000
10000000
00000000
,
21000000
00000000
30100000
00000000
00210000
00000000
00301000
00000000
00002100
00000000
00000000
00003010
00000100
00000001
00001000
00000100
,
00020000
00030100
00000200
00001300
00010100
00000000
00000200
00010300
,
00002000
01003000
02000000
03010000
01100000
00000000
20000000
30010000
,
20000000
31000000
00200000
00310000
00002000
00003100
00001000
00000001
,
00002000
00003002
00000023
00000230
00010300
00000000
00001000
00010000
,
00002000
00103000
00020000
01030000
10010000
00000000
10000000
01000000
,
00200000
01300000
20000000
30010000
00110000
00000000
00100000
00001000
,
00021000
00000100
00030100
00000100
00002100
00000010
00003010
00001000
,
00000001
00000100
00001000
01000000
01100000
00000000
20000000
30020000
,
00130000
00000000
01000000
00000000
10000000
00010000
00000000
00010000
00200000
00000000
00000000
00000000
01300000
00000000
00100000
00010000
,
02000000
00000000
00100000
00000000
03002000
00023000
00030200
00002300
,
00003010
00000000
00000100
00000010
00001010
00000000
00110000
00000000
,
00100000
00001000
00010000
00000000
00010000
00000100
00001000
00000000
,
00001000
00000000
00000100
00000000
00000010
00000100
00000000
00001000
00000010
00000000
00000000
00000000
00000100
00000000
00000001
00000100
,
00000020
00000000
00010030
00000000
00002000
02003000
23000000
32000000
,
03100000
00000000
01000000
00010000
01010000
00000000
00001100
00000000
,
00010000
00000100
00010000
00001000
02000000
00000000
00000000
00000000
,
03000000
00000000
00000000
00000000
;
