#TITLE:Dangerous;
#SUBTITLE:;
#ARTIST:Rene Ablaze Feat. Paul Bartolome;
#TITLETRANSLIT:;
#SUBTITLETRANSLIT:;
#ARTISTTRANSLIT:;
#GENRE:;
#CREDIT:;
#BANNER:Dangerous.png;
#BACKGROUND:Dangerous-bg.png;
#LYRICSPATH:;
#CDTITLE:cdtitle.png;
#MUSIC:Dangerous.ogg;
#OFFSET:-0.021000;
#SAMPLESTART:97.386002;
#SAMPLELENGTH:27.796000;
#SELECTABLE:YES;
#BPMS:0.000000=138.014008
;
#STOPS:
;
#BGCHANGES:;
#KEYSOUNDS:;
#ATTACKS:;

//---------------dance-single - ----------------
#NOTES:
     dance-single:
     :
     Beginner:
     2:
     0.092587,0.168664,0.046851,0.000000,0.000000,83.000000,77.000000,6.000000,0.000000,0.000000,0.000000,0.092587,0.168664,0.046851,0.000000,0.000000,83.000000,77.000000,6.000000,0.000000,0.000000,0.000000:
0000
0000
0000
0000
,
0000
0000
0000
0000
,
0000
0000
0000
0000
,
0000
0000
0000
0000
,
0000
0000
0000
0000
,
0000
0000
0000
0000
,
0000
0000
0000
0000
,
0000
0000
0000
0000
,
0001
0000
0000
0000
,
1000
0000
0000
0000
,
0010
0000
0000
0000
,
0100
0000
0000
0000
,
0010
0000
0000
0000
,
1000
0000
0000
0000
,
0100
0000
0000
0000
,
0010
0000
0001
0000
,
1000
0000
0000
0000
,
0001
0000
0000
0000
,
0100
0000
0000
0000
,
0000
0000
0000
0000
,
0010
0000
0000
0000
,
0100
0000
0000
0000
,
0001
0000
0000
0000
,
0000
0000
0000
0000
,
1000
0000
0000
0000
,
0001
0000
1000
0000
,
0010
0000
0000
0000
,
0000
0000
0000
0000
,
1000
0000
0000
0000
,
0001
0000
1000
0000
,
0100
0000
0000
0000
,
0000
0000
0000
0000
,
1001
0000
0000
0000
,
0001
0000
0000
0000
,
0100
0000
0000
0000
,
0010
0000
0000
0000
,
1000
0000
0000
0000
,
0100
0000
0000
0000
,
0010
0000
0000
0000
,
0001
0000
0000
0000
,
1001
0000
0000
0000
,
0001
0000
1000
0000
,
0001
0000
0000
0000
,
0100
0000
0010
0000
,
0100
0000
0000
0000
,
0010
0000
1000
0000
,
0100
0000
0000
0000
,
0110
0000
0000
0000
,
0001
0000
1000
0000
,
0001
0000
0000
0000
,
0100
0000
0010
0000
,
0100
0000
0000
0000
,
0001
0000
0100
0000
,
0010
0000
0000
0000
,
1000
0000
0100
0000
,
0010
0000
0000
0000
,
1001
0000
0000
0000
,
0001
0000
1000
0000
,
0010
0000
0000
0000
,
0000
0000
0000
0000
,
0110
0000
0000
0000
,
1000
0000
0001
0000
,
0010
0000
0000
0000
,
0000
0000
0000
0000
,
0001
0000
1000
0000
,
0010
0000
0000
0000
,
1000
1000
1000
0000
,
0000
0000
0000
0000
,
0001
0000
1000
0000
,
0100
0000
0010
0010
,
0010
0000
0000
0000
,
0100
0000
0010
0000
,
1001
0000
0000
0000
;

//---------------dance-single - ----------------
#NOTES:
     dance-single:
     :
     Easy:
     6:
     0.185174,0.281107,0.039043,0.023426,0.000000,166.000000,161.000000,5.000000,3.000000,0.000000,0.000000,0.185174,0.281107,0.039043,0.023426,0.000000,166.000000,161.000000,5.000000,3.000000,0.000000,0.000000:
0000
0000
0000
0000
,
0000
0000
0000
0000
,
0000
0000
0000
0000
,
0000
0000
0000
0000
,
0000
0000
0000
0000
,
0000
0000
0000
0000
,
0000
0000
0000
0000
,
0000
0000
0000
0000
,
0001
0000
1000
0000
,
0010
0000
1000
0000
,
0100
0000
0000
0000
,
0010
0000
0000
0000
,
0100
0000
1000
0000
,
0001
0000
1000
0000
,
0010
0000
0000
0000
,
0100
0000
0000
0000
,
0001
0000
0010
0000
,
0001
0000
1000
0000
,
0010
0000
0000
0000
0000
0000
0000
0100
,
0000
0010
0000
0100
0000
0010
0000
0000
,
0100
0000
0001
0000
,
0010
0000
0001
0000
,
1000
0000
0000
0000
0000
0000
0000
0001
,
0000
1000
0000
0001
0000
1000
0000
0000
,
0010
0000
0000
0000
,
0000
0000
0100
0000
,
0001
0000
0000
0000
0000
0000
0000
0100
,
0000
0100
0000
0100
0000
0100
0000
0000
,
0001
0000
0000
0000
,
0000
0000
0010
0000
,
0001
0000
0000
0000
0000
0000
0000
1000
,
0000
1000
0000
0001
0000
0001
0000
0000
,
1001
0000
0001
0000
,
1000
0000
0010
0000
,
0100
0000
0001
0000
,
0010
0000
0100
1000
,
0001
0000
1000
0000
,
0010
0000
1000
0000
,
0001
0000
0010
0000
,
0100
0000
0010
0001
,
1000
1000
1000
0000
,
0001
1000
0010
1000
,
0001
0001
0001
0000
,
0010
0001
0100
0001
,
0010
0010
0010
0000
,
0100
0010
0001
1000
,
0100
0100
0100
0100
,
0010
0001
1000
0000
,
0001
0100
0001
0010
,
0001
1000
0100
0010
,
0001
0001
1000
0100
,
0010
0100
1000
1000
,
0100
1000
0010
0010
,
0100
0001
0010
0100
,
1000
0100
0100
1000
,
0010
0100
0001
0010
,
0110
0000
0100
1000
0000
1000
0000
0100
,
0000
1000
0000
0010
0000
0100
0000
0002
,
0000
0000
0003
0000
,
0000
0000
0000
0000
,
1001
0000
0001
0010
0000
0100
0000
0010
,
0000
0001
0000
1000
0000
0001
0000
2000
,
0000
0000
3000
0002
0000
0000
0000
0000
,
0000
0000
0000
0003
,
0100
0000
0010
0000
,
1001
0000
0001
1000
,
0010
0000
0000
0000
0000
0000
0000
1000
,
0000
0000
0000
1000
0000
0000
1000
0000
,
0001
0000
1000
0000
,
0010
0000
1000
0100
,
0010
0000
0100
0000
0000
0000
0000
1000
,
0000
0000
0000
0001
0000
0000
0100
0000
,
1001
0000
0000
0000
;

//---------------dance-single - ----------------
#NOTES:
     dance-single:
     :
     Medium:
     10:
     0.335767,0.477882,0.242065,0.288916,0.000000,301.000000,270.000000,31.000000,37.000000,2.000000,0.000000,0.335767,0.477882,0.242065,0.288916,0.000000,301.000000,270.000000,31.000000,37.000000,2.000000,0.000000:
0000
0000
0000
0000
,
0000
0000
0000
0000
,
0000
0000
0000
0000
,
0000
0000
0000
0000
,
0000
0000
0000
0000
,
0000
0000
0000
0000
,
0000
0000
0000
0000
,
0000
0000
0000
0000
,
0001
0000
1000
0010
0000
0001
0000
0010
,
0000
1000
0000
0100
0000
1000
0000
0002
,
0000
1000
2000
0000
3003
0000
0001
0100
,
0000
0001
0020
0000
0000
0000
0030
0000
,
0110
0000
0010
0001
0000
0100
0000
1000
,
0000
0100
0000
0001
0000
1000
0000
0200
,
0000
0010
0020
0000
0330
0000
0100
1000
,
0000
0001
0000
2000
0000
0000
3000
0000
,
0001
0000
0100
0000
0010
0000
1000
0100
,
0010
0000
0001
0000
0010
0000
0100
0010
,
0002
0000
0000
0000
0003
0000
0000
2010
,
0000
3100
0000
0012
0000
0103
0000
0000
,
0010
0000
1000
0000
0001
0000
0010
0001
,
1000
0000
0001
0000
0100
0000
0010
1000
,
0200
0000
0000
0000
0300
0000
0000
2100
,
0000
3010
0000
0102
0000
0013
0000
0000
,
2001
0000
0000
3200
0000
0000
0320
0000
,
0000
0030
0200
0000
,
2000
0000
0000
0000
3300
0000
0100
0020
,
0000
0031
0000
2000
0000
3001
0000
0000
,
0200
0000
0000
0302
0000
0000
2003
0000
,
0000
0000
3020
0000
,
0200
0000
0000
0000
0330
0000
0000
0102
,
0000
0013
0000
0102
0000
0013
0000
0000
,
1100
0100
1000
1000
,
0001
0100
0001
0001
,
0010
0100
1000
1000
,
0100
0000
0001
0000
0100
0010
0001
1000
,
0010
0010
1000
0100
,
0001
0001
0100
1000
,
0010
0010
0001
0010
,
0100
0000
0010
0000
0100
0010
1000
0001
,
0010
0000
0010
0000
0010
0001
0010
0001
,
1000
0000
1000
0100
1000
0010
1000
0010
,
0100
0000
0100
0000
0100
0010
1000
0010
,
0100
0000
0100
0000
0100
0001
0010
0001
,
1000
0000
0001
0000
1000
0001
0100
0001
,
1000
0000
0100
1000
0010
0100
0010
1000
,
0001
1000
0001
0100
,
2002
0000
3003
0000
,
0101
0000
0101
0000
0001
1000
0010
0000
,
1000
0000
0100
0010
0001
0010
0100
0000
,
1100
0000
1100
0000
0100
1000
0010
0000
,
0110
0000
0101
0000
0010
0100
0001
1000
,
1100
0000
1100
0000
1000
0100
0010
0000
,
0011
0000
0010
0100
0010
0001
1000
0010
,
0110
0000
0001
1000
0100
0010
0001
0000
,
2001
3020
0230
0301
,
1001
0000
0M10
1001
0000
0001
0000
0100
,
0000
1000
0000
0200
0000
0302
0000
0023
,
0000
0000
0000
0130
0000
1000
0000
0100
,
0000
0010
0000
0001
0000
1000
0000
0000
,
1001
0000
01M0
1001
0000
0100
0000
0001
,
0000
0010
0000
1001
0000
1010
0000
0202
,
0000
0000
0303
0001
0000
0010
0000
0001
,
0000
1000
0000
0100
0000
0010
0100
0000
,
1000
0000
0100
0000
1000
0010
0000
0101
,
0000
0000
0000
0000
1000
0000
0100
1000
,
0000
1000
0000
0020
0000
0000
0130
0001
,
0000
0001
0100
0010
0000
0010
0100
0000
,
1001
0000
0001
0000
0010
0001
0000
0100
,
0000
0001
0000
1000
0100
0000
1000
0010
,
0000
0100
0001
0000
0000
0000
0001
0100
,
0000
0010
1000
0001
0000
0001
1000
0000
,
0110
0000
0000
0000
;

//---------------dance-single - ----------------
#NOTES:
     dance-single:
     :
     Hard:
     12:
     0.430585,0.534104,0.335767,0.632491,0.050755,386.000000,343.000000,43.000000,81.000000,28.000000,0.000000,0.430585,0.534104,0.335767,0.632491,0.050755,386.000000,343.000000,43.000000,81.000000,28.000000,0.000000:
0000
0000
0000
0000
,
0000
0000
0000
0000
,
0000
0000
0000
0000
,
0000
0000
0000
0000
,
0000
0000
0000
0000
,
0000
0000
0000
0000
,
0000
0000
0000
0000
,
0000
0000
0000
0000
,
1000
0000
1000
0010
0000
0010
0000
0100
,
0000
0100
0000
0010
0000
1000
0000
0002
,
0000
0010
0020
0000
0033
0000
0001
0020
,
0000
1030
0020
0000
0000
0000
0030
0000
,
1001
0000
0001
1000
0000
0010
0000
0100
,
0000
0010
0000
1000
0000
0001
0000
1020
,
0000
1000
2000
0000
3030
0000
1000
0200
,
0000
0302
0000
0203
0000
0000
0000
0300
,
0000
0010
0001
0001
0010
1000
0010
0001
,
1000
0001
0001
0100
1000
0100
0001
2000
,
0002
0000
0000
0000
3003
0000
1000
0202
,
0003
002M
0330
0202
0003
002M
0330
0000
,
0000
1000
1000
0100
0010
0001
0010
1000
,
0010
0000
0000
0001
0000
0000
0001
0000
0000
0010
0000
0000
0100
0000
0000
1000
0000
0000
0010
0000
0000
0000
0100
0000
,
0000
0002
0000
0000
0003
0000
1000
2020
,
3000
0200
M330
2020
3000
M200
0330
0000
,
0002
0000
0003
0020
0000
0000
0230
0000
,
0000
0000
0000
0300
0020
0000
0000
0000
,
0200
0000
0000
0000
0330
0000
0001
2002
,
0003
002M
3030
2002
0003
002M
3030
0000
,
0200
0000
0000
0320
0000
0000
2030
0000
,
0000
0000
0000
3000
0002
0000
0000
0000
,
2000
0000
0000
0000
3003
0000
1000
2200
,
3300
MM11
0000
2200
3300
MM11
0000
0000
,
1001
0000
1000
0000
0001
0100
0001
0100
,
0010
0000
0100
0010
1000
0100
0010
0001
,
1000
0000
0001
0000
0010
0001
0010
0001
,
1000
0000
0001
0000
0001
1000
0100
1000
,
0001
0000
0001
0000
1000
0010
1000
0010
,
0100
0000
0001
1000
0100
0010
0001
1000
,
0001
0000
1000
0010
0100
0010
0001
0010
,
0100
0000
0010
0100
0001
1000
0100
0010
,
1001
1000
0001
0001
1000
0010
0100
0001
,
0010
0010
0100
0100
0010
0001
1000
0010
,
0100
0100
0001
0001
0010
0100
0010
0001
,
1000
1000
0010
0010
0100
1000
0100
0001
,
1000
1000
0100
0100
0001
0100
1000
0100
,
0010
0010
0001
0001
0100
1000
0100
0001
,
1000
1000
0001
0001
0010
1000
0010
0001
,
1000
1000
0001
0001
1000
0100
0001
0010
,
1000
0000
0000
1000
0010
0000
0000
1000
0100
0000
0010
0000
0100
0000
1000
0000
,
0001
0000
0000
0001
1000
0000
0001
0000
0010
0000
0100
0000
0010
0000
0001
0000
,
1000
0000
0000
1000
0010
0000
0000
0100
0001
0000
0010
0000
0001
0000
1000
0000
,
0100
0000
0000
0010
0100
0000
0000
0010
0001
0000
0010
0000
0100
0000
1000
0000
,
0001
0000
0000
1000
0100
0000
0000
0100
0010
0000
0100
0000
1000
0000
0010
0000
,
0100
0000
0000
0100
0010
0000
1000
0000
0001
0000
0010
0000
0001
0000
1000
0000
,
0001
0000
0000
1000
0010
0000
0100
0000
0001
0000
0010
0000
0100
0000
1000
0000
,
0001
0000
1000
0001
1000
0100
0010
0001
,
2002
0000
0000
3003
M11M
0000
2MM2
0000
3003
0000
1100
0000
0000
0000
0011
0000
,
0000
0101
0000
1020
0000
0230
0000
0302
,
0000
0000
0000
2000
0003
3200
0000
0302
,
0000
0203
0000
2300
0000
0010
3010
0000
,
0220
0330
1MM1
M22M
0330
1010
0000
0101
,
0000
0011
0000
0210
0000
2300
0000
3020
,
0000
0000
0030
0200
0000
0302
0000
0023
,
0000
0032
0000
2003
0000
0001
3001
0000
,
1020
0000
0130
0001
0010
0010
0000
2200
,
0000
0000
3300
0000
0011
0000
0001
0100
,
0000
0110
0000
2002
0000
3003
0010
1001
,
0000
0010
0010
2002
3003
M01M
1MM1
0000
,
1100
0000
0100
0010
0100
1000
0001
0101
,
0000
0011
0000
0010
0100
0000
0100
2000
,
0000
0001
0002
0000
0000
3003
0100
1001
,
0000
0100
0100
2002
3003
M10M
2MM2
3003
,
M11M
0000
0000
0000
;

//---------------dance-double - ----------------
#NOTES:
     dance-double:
     :
     Easy:
     5:
     0.192982,0.281107,0.085894,0.031234,0.000000,173.000000,162.000000,11.000000,4.000000,0.000000,0.000000,0.192982,0.281107,0.085894,0.031234,0.000000,173.000000,162.000000,11.000000,4.000000,0.000000,0.000000:
// measure 0
00000000
00000000
00000000
00000000
,  // measure 1
00000000
00000000
00000000
00000000
,  // measure 2
00000000
00000000
00000000
00000000
,  // measure 3
00000000
00000000
00000000
00000000
,  // measure 4
00000000
00000000
00000000
00000000
,  // measure 5
00000000
00000000
00000000
00000000
,  // measure 6
00000000
00000000
00000000
00000000
,  // measure 7
00000000
00000000
00000000
00000000
,  // measure 8
10000000
00000000
00010000
00000000
,  // measure 9
00100000
00000000
00001000
00000000
,  // measure 10
00010000
00001000
00000000
00000000
,  // measure 11
00010000
00000100
00000000
00000000
,  // measure 12
00001000
00000000
00000010
00000000
,  // measure 13
00000100
00000000
00000001
00000000
,  // measure 14
00001000
00000001
00000000
00000000
,  // measure 15
00000010
00000100
00000010
00000000
,  // measure 16
00000100
00000000
00010000
00000000
,  // measure 17
00001000
00000000
01000000
00000000
,  // measure 18
00100000
00000000
00000000
00000000
00000000
00000000
00000000
10000000
,  // measure 19
00000000
10000000
00000000
10000000
00000000
10000000
00000000
00000000
,  // measure 20
00010000
00000000
00100000
00000000
,  // measure 21
00001000
00000000
00010000
00000000
,  // measure 22
00000100
00000000
00000000
00000000
00000000
00000000
00000000
00001000
,  // measure 23
00000000
00001000
00000000
00001000
00000000
00001000
00000000
00000000
,  // measure 24
00000010
00000000
00000100
00000000
,  // measure 25
00000001
00000000
00001000
00000000
,  // measure 26
00000100
00000000
00000000
00000000
00000000
00000000
00000000
00010000
,  // measure 27
00000000
00001000
00000000
00010000
00000000
00001000
00000000
00000000
,  // measure 28
01000000
00000000
00100000
00000000
,  // measure 29
10000000
00000000
00010000
00000000
,  // measure 30
00100000
00000000
00000000
00000000
00000000
00000000
00000000
11000000
,  // measure 31
00000000
11000000
00000000
00110000
00000000
00110000
00000000
00000000
,  // measure 32
00100000
00000000
00001000
00000000
,  // measure 33
00010000
00000000
00000100
00000000
,  // measure 34
00001000
00000000
00000010
00000000
,  // measure 35
00000100
00000000
00000001
00001000
,  // measure 36
00000001
00000000
00000010
00000000
,  // measure 37
00000100
00000000
00001000
00000000
,  // measure 38
00000100
00000000
00010000
00000000
,  // measure 39
00001000
00000000
01000000
00100000
,  // measure 40
10000000
10000000
10000000
00000000
,  // measure 41
00010000
00100000
00001000
00010000
,  // measure 42
00000100
00000100
00000100
00000000
,  // measure 43
00001000
00000010
00000100
00000001
,  // measure 44
00000010
00000010
00000100
00000000
,  // measure 45
00000010
00000001
00000100
00000010
,  // measure 46
00001000
00001000
00000100
00000100
,  // measure 47
00022000
00000000
00000000
00033000
,  // measure 48
00001000
00001000
01000000
00000000
,  // measure 49
00100000
00100000
10000000
00010000
,  // measure 50
00100000
00100000
01000000
00000000
,  // measure 51
10000000
01000000
00100000
00010000
,  // measure 52
00100000
00100000
00001000
00000000
,  // measure 53
00010000
00000100
00001000
00000010
,  // measure 54
00000100
00000100
00000100
00000000
,  // measure 55
00002002
00000000
00000000
00003003
,  // measure 56
00001001
00000000
00000000
00001100
00000000
00000000
00000000
00000000
,  // measure 57
00000001
00000000
00001000
00000000
,  // measure 58
00000100
00000000
00010000
00000000
,  // measure 59
00001000
00000000
01000000
00000000
,  // measure 60
01100000
00000000
00000000
10010000
00000000
00000000
00000000
00000000
,  // measure 61
10000000
00000000
00010000
00000000
,  // measure 62
00100000
00000000
00001000
00000000
,  // measure 63
00010000
00000000
00000100
00000000
,  // measure 64
00001000
00000010
00000001
00000010
,  // measure 65
00001000
00000000
00000100
00000000
,  // measure 66
00010000
00000000
00001000
00000000
,  // measure 67
01000000
00100000
10000000
00010000
,  // measure 68
00100000
00000000
00001000
00000000
,  // measure 69
00010000
00000000
00000100
00001000
,  // measure 70
00000010
00000100
00000000
00000000
,  // measure 71
00000010
00010000
00001000
00010000
,  // measure 72
00011000
00000000
00000000
00000000
;

//---------------dance-double - ----------------
#NOTES:
     dance-double:
     :
     Medium:
     9:
     0.335767,0.449772,0.382618,0.109319,0.000000,301.000000,252.000000,49.000000,14.000000,0.000000,0.000000,0.335767,0.449772,0.382618,0.109319,0.000000,301.000000,252.000000,49.000000,14.000000,0.000000,0.000000:
// measure 0
00000000
00000000
00000000
00000000
,  // measure 1
00000000
00000000
00000000
00000000
,  // measure 2
00000000
00000000
00000000
00000000
,  // measure 3
00000000
00000000
00000000
00000000
,  // measure 4
00000000
00000000
00000000
00000000
,  // measure 5
00000000
00000000
00000000
00000000
,  // measure 6
00000000
00000000
00000000
00000000
,  // measure 7
00000000
00000000
00000000
00000000
,  // measure 8
10000000
01000000
10000000
00100000
,  // measure 9
01000000
00000000
00010000
00000000
00100000
00000000
00001000
00010000
,  // measure 10
00000000
00000100
00000200
00000000
00000300
00000000
00001000
00000100
,  // measure 11
00000000
00000100
00002000
00000000
00000000
00000000
00003000
00000000
,  // measure 12
00000010
00000100
00000001
00001000
,  // measure 13
00000100
00000000
00010000
00000000
00001000
00000000
01000000
00100000
,  // measure 14
00000000
10000000
20000000
00000000
00000000
00000000
30000000
00100000
,  // measure 15
00000000
10000000
00000000
00020000
00000000
00000000
00030000
00000000
,  // measure 16
00100000
00000000
00001000
00000000
00010000
00000000
00000100
00001000
,  // measure 17
00000100
00000000
00001000
00000000
00000010
00000000
00000100
00000001
,  // measure 18
00000020
00000000
00000000
00000000
00000030
00000000
00000000
00000110
,  // measure 19
00000000
00001001
00000000
00000110
00000000
00001001
00000000
00000000
,  // measure 20
00000000
00000000
00001000
00000000
00000010
00000000
00010000
00001000
,  // measure 21
00010000
00000000
00001000
00000000
01000000
00000000
00100000
10000000
,  // measure 22
02000000
00000000
00000000
00000000
03000000
00000000
00000000
01100000
,  // measure 23
00000000
10010000
00000000
01100000
00000000
10010000
00000000
00000000
,  // measure 24
10000000
00000000
00010000
00000000
,  // measure 25
00100000
00000000
00002000
00000000
,  // measure 26
00020000
00000000
00000000
00000000
00033000
00000000
00000100
00010000
,  // measure 27
00000000
00000100
00000000
00010000
00000000
00000100
00000000
00000000
,  // measure 28
00001000
00000000
00000010
00000000
,  // measure 29
00000100
00000000
00000002
00000000
,  // measure 30
00002000
00000000
00000000
00000000
00003003
00000000
00000001
00001001
,  // measure 31
00000000
00001001
00000000
00000110
00000000
00001001
00000000
00000000
,  // measure 32
00000010
00010000
00001000
01000000
,  // measure 33
00100000
10000000
01000000
00010000
,  // measure 34
01000000
10000000
00100000
01000000
,  // measure 35
00100000
01000000
00010000
00100000
,  // measure 36
00001000
00010000
00000100
00001000
,  // measure 37
00000010
00000001
00000010
00001000
,  // measure 38
00000100
00010000
00001000
01000000
,  // measure 39
00100000
10000000
01000000
00100000
,  // measure 40
00110000
00110000
00100000
00001000
,  // measure 41
00011000
00010000
00000100
00001000
,  // measure 42
00001010
00001010
00000010
00000100
,  // measure 43
00000101
00000011
00000010
00000100
,  // measure 44
00001100
00011000
00001000
01000000
,  // measure 45
01100000
01000000
00100000
10000000
,  // measure 46
10010000
10000000
11000000
10000000
,  // measure 47
01000000
00100000
00010000
01000000
,  // measure 48
01010000
00000000
00110000
00000000
00100000
00001000
00010000
00000000
,  // measure 49
00011000
00000000
00010000
00000100
00001000
00000010
00001000
00000000
,  // measure 50
00000110
00000000
00000110
00000000
00000100
00000001
00000010
00000000
,  // measure 51
00000110
00000000
00001100
00000000
00000100
00010000
00001000
00010000
,  // measure 52
00000100
00000000
00010100
00000000
00000100
00010000
00001000
00000000
,  // measure 53
01000000
00000000
00100000
10000000
01000000
00100000
00010000
00000000
,  // measure 54
11000000
00000000
01000000
10000000
00100000
00000000
01000000
00000000
,  // measure 55
00100000
10000000
00010000
00100000
,  // measure 56
00110000
00000000
00100000
00001000
00000000
00010000
00000000
00000100
,  // measure 57
00000000
00001000
00000000
00001010
00000000
00000101
00000000
00001001
,  // measure 58
00000000
00000000
00000000
00001000
00000000
00001000
00000000
00000010
,  // measure 59
00000000
00000010
00000000
00000100
00000000
00000100
00000110
00000000
,  // measure 60
00001010
00000000
00001000
00000100
00000000
00000100
00000000
00010000
,  // measure 61
00000000
00001000
00000000
00110000
00000000
11000000
00000000
20020000
,  // measure 62
00000000
30030000
10000000
01000000
,  // measure 63
00100000
00010000
00100000
00001000
,  // measure 64
00011000
00000000
00010100
00000000
00010000
00000100
00000000
00002200
,  // measure 65
00000000
00000000
00003300
00000000
00000011
00000000
00000001
00000100
,  // measure 66
00000000
00000010
00000000
00001000
00000000
00000000
00000001
00001000
,  // measure 67
00000000
00000001
00000001
00000001
00000000
00001000
00000001
00000000
,  // measure 68
00000100
00000000
00000010
00000000
00001000
00000100
00000000
00010100
,  // measure 69
00000000
00011000
00000000
00001000
01000000
00000000
01000000
10000000
,  // measure 70
00000000
10000000
01000000
00000000
00000000
00000000
00100000
10000000
,  // measure 71
00000000
10000000
10000000
10000000
00000000
10000000
00010000
00000000
,  // measure 72
01100000
00000000
00000000
00000000
;

//---------------dance-double - ----------------
#NOTES:
     dance-double:
     :
     Hard:
     12:
     0.448433,0.534104,0.554406,0.570023,0.015617,402.000000,331.000000,71.000000,73.000000,16.000000,0.000000,0.448433,0.534104,0.554406,0.570023,0.015617,402.000000,331.000000,71.000000,73.000000,16.000000,0.000000:
// measure 0
00000000
00000000
00000000
00000000
,  // measure 1
00000000
00000000
00000000
00000000
,  // measure 2
00000000
00000000
00000000
00000000
,  // measure 3
00000000
00000000
00000000
00000000
,  // measure 4
00000000
00000000
00000000
00000000
,  // measure 5
00000000
00000000
00000000
00000000
,  // measure 6
00000000
00000000
00000000
00000000
,  // measure 7
00000000
00000000
00000000
00000000
,  // measure 8
10000000
00000000
00100000
01000000
00000000
01010000
00000000
00110000
,  // measure 9
00000000
00101000
00000000
00011000
00000000
00010100
00000000
00002100
,  // measure 10
00000000
00000010
00000020
00000000
00000000
00003030
00000100
00000002
,  // measure 11
00000000
00000010
00000020
00000000
00000000
00000033
00000000
00000000
,  // measure 12
00000100
00000000
00001000
00001100
00000000
00010100
00000000
00011000
,  // measure 13
00000000
00101000
00000000
00011000
00000000
01001000
00000000
02010000
,  // measure 14
00000000
00100000
00200000
00000000
00000000
03300000
10000000
10010000
,  // measure 15
00000000
01100000
00000000
20020000
00000000
00000000
30030000
00000000
,  // measure 16
00000000
10000000
01000000
00010000
01000000
00100000
00001000
00010000
,  // measure 17
00000100
00001000
00000010
00000001
00000010
00001000
00000100
00010000
,  // measure 18
00002000
00000000
00000000
00000000
00003000
00000000
00001000
00202000
,  // measure 19
00003000
0002M000
00330000
00202000
00003000
0002M000
00330000
00000000
,  // measure 20
00000000
00100000
10000000
00100000
00010000
01000000
00010000
00100000
,  // measure 21
00001000
00000000
00010000
00000000
00000100
00000000
00000001
00000000
00000100
00000000
00001000
00000000
00000010
00000000
00000000
00000100
,  // measure 22
00000000
00000000
00000000
00000000
00000002
00000000
00000000
00000000
00000000
00000000
00000000
00000000
00000003
00000000
00000000
00000000
00000000
00000000
00000010
00000000
00000000
00002002
00000000
00000000
,  // measure 23
00000003
0000002M
00003030
00002002
00000003
0000002M
00003030
00000000
,  // measure 24
00000200
00000000
00000000
00000320
00000000
00000000
00020030
00000000
,  // measure 25
00000000
00000000
00032000
00000000
,  // measure 26
00020000
00000000
00000000
00000000
00000000
00033000
00001000
02002000
,  // measure 27
00003000
0002M000
03030000
02002000
00003000
0002M000
03030000
00000000
,  // measure 28
20000000
00000000
00000000
32000000
00000000
00000000
03200000
00000000
,  // measure 29
00000000
00000000
00302000
00000000
,  // measure 30
00023000
00000000
00000000
00000000
00030000
00000000
00000100
00020200
,  // measure 31
00000300
00002M00
00033000
00020200
00000300
00002M00
00033000
00000000
,  // measure 32
00001100
00000000
00000100
00000000
00000100
00000010
00000001
00000010
,  // measure 33
00000100
00000000
00000100
00001000
00000100
00010000
00001000
00100000
,  // measure 34
00010000
00000000
00010000
00000000
00010000
01000000
00010000
10000000
,  // measure 35
00010000
00000000
00100000
00000000
00010000
00100000
01000000
10000000
,  // measure 36
00100000
00000000
00100000
00000000
00100000
10000000
00100000
00010000
,  // measure 37
00100000
00000000
00100000
01000000
00010000
00100000
00001000
00010000
,  // measure 38
00000100
00000000
00000100
00000010
00000100
00001000
00000100
00001000
,  // measure 39
00000010
00000000
00000100
00001000
00000100
00000001
00001000
00000100
,  // measure 40
00010000
00010000
00001000
01000000
00010000
01000000
00100000
10000000
,  // measure 41
01000000
01000000
00100000
00001000
00010000
00000100
00010000
00000100
,  // measure 42
00001000
00001000
00000010
00000001
00000010
00000100
00000001
00000010
,  // measure 43
00000100
00000100
00001000
00000100
00010000
00001000
01000000
00100000
,  // measure 44
10000000
10000000
00100000
00100000
00010000
00100000
10000000
00100000
,  // measure 45
01000000
01000000
00001000
00001000
00010000
00000100
00001000
00000010
,  // measure 46
00000001
00000001
00000010
00000010
00000100
00001000
00000100
00000001
,  // measure 47
00000100
00001000
00000100
00010000
00001000
00100000
01000000
10000000
,  // measure 48
10010000
00000000
01100000
00000000
10000000
00100000
01000000
00010000
,  // measure 49
00110000
00000000
00101000
00001000
00010000
00000100
00001000
00000010
,  // measure 50
00000110
00000000
00000110
00000000
00000100
00000001
00000010
00000100
,  // measure 51
00001100
00000000
00001100
00000000
00010000
00001000
00100000
00010000
,  // measure 52
00110000
00000000
00110000
00000000
00100000
00001000
00010000
00000010
,  // measure 53
00000110
00000000
00000110
00000100
00000001
00000010
00000100
00001000
,  // measure 54
00001100
00000000
00000011
00001000
00000001
00000010
00000100
00001000
,  // measure 55
00000100
00000000
00001000
00000100
00000001
00000100
00001000
00000100
,  // measure 56
00022000
00033000
000M1100
00022M00
00033000
00101000
00000000
00110000
,  // measure 57
00000000
11000000
00000000
10100000
00000000
01010000
00000000
10020000
,  // measure 58
00000000
00000000
00000000
00230000
00000000
02300000
00000000
23000000
,  // measure 59
00000000
30200000
00000000
02300000
00000000
00001000
03001000
00000000
,  // measure 60
00022000
00033000
0011M000
00M11000
00000000
00010100
00000000
00001100
,  // measure 61
00000000
00000011
00000000
00000101
00000000
00001010
00000000
00002001
,  // measure 62
00000000
00000000
00000000
00003020
00000000
00000032
00000000
00000023
,  // measure 63
00000000
00002030
00000000
00003200
00000000
00010000
00010300
00000000
,  // measure 64
00110000
00000000
01000000
10000000
00100000
00100000
00000000
02200000
,  // measure 65
00000000
00000000
03300000
00000000
01000000
00000000
00010000
00100000
,  // measure 66
00000000
00110000
00000000
00022000
00000000
00033000
00010000
00020100
,  // measure 67
00000000
00000000
00000100
00000000
00030100
000M0000
00020100
00000000
00000M00
00000000
00031000
00000000
00011000
00000000
00000000
00000000
,  // measure 68
00001010
00000000
00000010
00000001
00000010
00001000
00000000
00001100
,  // measure 69
00000000
00010100
00000000
00001000
00200000
00000000
00310000
20000000
,  // measure 70
00000000
30010000
00200000
00000000
00000000
00000000
00301000
01002000
,  // measure 71
00000000
00000000
01000000
00000000
01003000
0000M000
01002000
00000000
0M000000
00000000
00013000
00000000
00011000
00000000
00000000
00000000
,  // measure 72
00010100
00000000
00000000
00000000
;
