#TITLE:DREAM OF SPACE UFO ABDUCTION;
#SUBTITLE:;
#ARTIST:謎の宇宙人スペースX;
#TITLETRANSLIT:;
#SUBTITLETRANSLIT:;
#ARTISTTRANSLIT:;
#GENRE:;
#CREDIT:;
#BANNER:DREAM OF SPACE UFO ABDUCTION.png;
#BACKGROUND:DREAM OF SPACE UFO ABDUCTION-bg.png;
#LYRICSPATH:;
#CDTITLE:cdtitle.png;
#MUSIC:DREAM OF SPACE UFO ABDUCTION.ogg;
#OFFSET:-0.010000;
#SAMPLESTART:23.987000;
#SAMPLELENGTH:13.714000;
#SELECTABLE:YES;
#BPMS:0.000000=140.000000
;
#STOPS:49.000000=0.214000,
50.500000=0.214000,
164.750000=0.214000,
167.500000=0.107000,
168.500000=0.107000,
178.750000=0.107000,
179.250000=0.107000,
182.250000=0.214000
;
#BGCHANGES:0.000=DREAM OF SPACE UFO ABDUCTION.mp4=1.000=1=0=0=StretchNoLoop==CrossFade==,
99999=-nosongbg-=1.000=0=0=0 // don't automatically add -songbackground-
;
#KEYSOUNDS:;
#ATTACKS:;

//---------------dance-single - ----------------
#NOTES:
     dance-single:
     :
     Beginner:
     4:
     0.130100,0.223536,0.033116,0.000000,0.000000,110.000000,106.000000,4.000000,0.000000,0.000000,0.000000,0.130100,0.223536,0.033116,0.000000,0.000000,110.000000,106.000000,4.000000,0.000000,0.000000,0.000000:
// measure 0
0000
0000
0000
0000
,  // measure 1
0000
0000
0000
0000
,  // measure 2
0000
0000
0000
0000
,  // measure 3
0000
0000
0000
0000
,  // measure 4
0001
0000
0000
0000
,  // measure 5
1000
0000
0000
0000
,  // measure 6
0010
0000
0000
0000
,  // measure 7
0100
0000
0000
0000
,  // measure 8
0001
0000
0000
0000
,  // measure 9
0010
0000
0000
0000
,  // measure 10
0100
0000
0000
0000
,  // measure 11
1000
0000
0000
0000
,  // measure 12
0001
0000
0000
1000
0000
0000
0010
0000
,  // measure 13
0100
0010
0000
1000
,  // measure 14
0000
0000
0000
0100
,  // measure 15
0000
0000
0000
0010
,  // measure 16
0000
0000
0000
0001
,  // measure 17
0000
0000
0000
0100
,  // measure 18
0000
0000
0000
0010
,  // measure 19
0000
0000
0000
1000
,  // measure 20
0000
0000
0000
0001
,  // measure 21
0000
0000
0000
0100
,  // measure 22
0000
0010
0000
0100
,  // measure 23
0000
0000
0000
0001
,  // measure 24
0000
1000
0000
0001
,  // measure 25
0000
0000
0000
1000
,  // measure 26
0000
0100
0000
0010
,  // measure 27
0000
0001
0000
0100
,  // measure 28
0000
0010
0000
1000
,  // measure 29
0000
0001
0000
0000
,  // measure 30
0000
0000
0000
0000
,  // measure 31
0000
0000
0000
0000
,  // measure 32
0000
1000
0000
1000
,  // measure 33
0000
0100
0000
0100
,  // measure 34
0000
0010
0000
0010
,  // measure 35
0000
0001
0000
0001
,  // measure 36
0000
1001
0000
0001
,  // measure 37
0000
0100
0000
0010
,  // measure 38
0000
1000
0000
1000
,  // measure 39
0000
0010
0000
0100
,  // measure 40
0000
1001
0000
0001
,  // measure 41
0000
0000
0000
1000
0000
0000
0000
0000
,  // measure 42
0000
0010
0000
0000
0000
0000
0000
0100
,  // measure 43
0000
0000
0000
0000
,  // measure 44
0000
0010
0000
0000
0000
0000
0000
0100
,  // measure 45
0000
0000
0000
0000
,  // measure 46
0010
0100
0001
0000
,  // measure 47
0000
0000
0000
1000
,  // measure 48
0000
0100
0000
0010
,  // measure 49
0000
0001
0000
1000
,  // measure 50
0000
0001
0000
0100
,  // measure 51
0000
0000
0000
0010
,  // measure 52
0000
0100
0000
0010
,  // measure 53
0000
0100
0000
0001
,  // measure 54
0000
1000
0000
0001
,  // measure 55
1000
0001
0001
1001
,  // measure 56
0000
0100
0000
0010
,  // measure 57
0000
0100
0000
0001
,  // measure 58
0000
1000
0000
0001
,  // measure 59
1000
0010
0000
1000
,  // measure 60
0000
0100
0000
0010
,  // measure 61
0000
0001
0000
0100
,  // measure 62
0000
0010
0000
1000
,  // measure 63
0000
0001
0001
1000
,  // measure 64
0000
0010
0000
0100
,  // measure 65
0000
0010
0000
1000
,  // measure 66
0000
0001
0000
0100
,  // measure 67
0010
0100
1001
0000
;

//---------------dance-single - ----------------
#NOTES:
     dance-single:
     :
     Easy:
     7:
     0.286220,0.450383,0.281490,0.099349,0.012419,242.000000,208.000000,34.000000,12.000000,0.000000,0.000000,0.286220,0.450383,0.281490,0.099349,0.012419,242.000000,208.000000,34.000000,12.000000,0.000000,0.000000:
0000
0000
0000
0000
,
0000
0000
0000
0000
,
0000
0000
0000
0000
,
0000
0000
0000
0000
,
0001
0100
0001
0000
,
1000
0100
1000
0000
,
0001
0100
0001
0000
,
1000
0100
1000
0000
,
0100
0010
0100
0000
,
0010
0001
0010
0000
,
0001
0100
0001
0000
,
0100
0010
0100
0000
,
0020
0000
0030
2000
0000
3000
0100
0000
,
0010
0000
0001
1000
0001
0000
1000
0000
,
0010
0100
0010
1000
,
0001
0000
0010
0100
0010
0000
0100
0000
,
0010
0001
0100
0010
,
1000
0000
0001
1000
0001
0000
0000
0000
,
1000
0100
0010
0100
,
1000
0000
0010
0000
0100
0000
0000
0202
,
0000
0000
0000
0000
0000
0303
0000
2020
,
0000
0000
0000
0000
0000
3030
1001
0000
,
0001
0010
0001
0100
,
0010
0000
1000
0100
1000
0000
0100
0000
,
1000
0010
0100
0010
,
1000
0000
0001
1000
0001
0000
0010
0000
,
0001
0100
0001
0010
,
0100
0000
1000
0000
0100
0000
0000
0022
,
0000
0033
0000
2200
0000
3300
0000
0000
,
0001
0000
1000
0001
1000
0000
0001
0000
,
0001
0001
0110
1000
,
1000
1000
0110
0000
,
0000
0001
0000
0100
,
0000
0001
0000
0010
,
0000
0100
0010
0001
,
1000
0100
0010
0001
,
0100
0110
0000
1010
,
0000
0101
0000
0011
,
0000
0110
0110
1001
,
1001
0110
1001
0110
,
0000
0001
0000
1000
,
0100
0000
0000
1000
0000
0010
0000
0100
,
0000
0010
0000
0000
1000
0000
0000
0000
0001
0000
0000
0000
0000
0000
0000
0000
,
0000
0000
0000
0000
,
0000
0000
0000
0000
0010
0000
0000
0000
0001
0000
0000
0100
0000
0000
0010
0000
,
0000
0000
1000
0000
0000
0000
0001
0000
0000
1000
0000
0000
0000
0000
0000
0000
,
0100
1000
0100
0100
,
0100
0000
0110
1001
,
0000
0001
0000
1000
,
0000
0010
0000
1000
,
0000
0100
0000
0010
,
0000
0000
0000
0100
,
1000
0010
0100
0001
,
0010
0100
0010
0001
,
0100
0010
1000
0001
,
0100
0000
0010
1000
0010
1000
0010
0000
,
0100
0001
0010
0001
,
1000
0100
0010
0100
,
1000
0010
0100
0001
,
1000
0000
0001
1000
0010
0000
0101
0000
,
0000
0011
0000
0110
,
0000
1100
0000
1001
,
0000
0101
0000
1010
,
0000
0000
0001
0100
0001
0100
0101
0000
,
0000
0011
0000
0110
,
0000
1100
0000
0011
,
0000
0000
0110
0000
0000
0000
0100
0010
,
0001
1000
0010
0000
0220
0000
0000
0000
,
0330
0000
0000
0000
;

//---------------dance-single - ----------------
#NOTES:
     dance-single:
     :
     Medium:
     10:
     0.376108,0.423787,0.190419,0.074512,0.132466,318.000000,295.000000,23.000000,9.000000,0.000000,0.000000,0.376108,0.423787,0.190419,0.074512,0.132466,318.000000,295.000000,23.000000,9.000000,0.000000,0.000000:
0000
0000
0000
0000
,
0000
0000
0000
0000
,
0000
0000
0000
0000
,
0000
0000
0000
0000
,
0001
0000
0100
0000
0001
0000
0000
0000
0100
0000
0000
0100
0000
0000
0100
0000
,
0000
0000
0010
0000
1000
0000
0000
0000
0100
0000
0000
0100
0000
0000
0100
0000
,
0000
0000
0010
0000
0001
0000
0000
0000
1000
0000
0000
1000
0000
0000
1000
0000
,
0000
0000
0010
0000
0100
0000
0000
0000
0001
0000
0000
0001
0000
0000
0001
0000
,
0000
0000
0010
0000
0100
0000
0000
0000
0010
0000
0000
0001
0000
0000
0100
0000
,
0000
0000
0010
0000
0100
0000
0000
0000
0010
0000
0000
1000
0000
0000
0100
0000
,
0000
0000
0010
0000
0100
0000
0000
0000
1000
0000
0000
0100
0000
0000
0010
0000
,
0000
0000
0001
0000
0010
0000
0000
0000
0001
0000
0000
0010
0000
0000
0100
0000
,
2000
0000
3000
0002
0000
0003
0200
0000
,
0320
0000
1030
1001
1001
0000
0001
0000
,
0100
0000
0010
0100
0001
0000
0010
0000
,
0100
0000
1000
0010
0010
0000
0100
0000
,
0010
0000
1000
0001
1000
0000
0001
0000
,
0010
0000
0100
0010
0010
0000
0000
0100
,
1000
0010
0001
0010
,
0100
0000
0001
0000
1000
0000
0000
0001
,
0001
0001
0001
0000
1001
0000
0000
1000
,
1000
1000
1000
0000
1001
0000
0001
0000
,
0100
0000
0010
1000
0100
0000
0010
0000
,
0001
0000
0010
0100
0100
0000
0010
0000
,
0001
0000
0100
0010
1000
0000
0001
0000
,
1000
0000
0001
0010
0010
0000
0000
0100
,
0010
0001
0100
0010
,
1000
0000
0001
0000
0010
0000
0000
0100
,
0100
0100
0000
0010
0010
0010
0000
0100
,
0100
0010
0001
1000
1001
0000
0001
0000
,
0100
0010
1001
1000
,
0100
0010
1001
0000
,
0000
0000
0000
0000
1000
0000
0000
0001
0000
0000
1000
0000
0001
0000
0000
1000
,
0000
0000
0001
0000
1000
0000
0000
0001
0000
0000
1000
0000
0001
0000
0000
1000
,
0000
0001
1000
0000
0100
0000
0010
0000
,
0001
0000
1000
0100
0010
0001
1000
0100
,
0010
0000
0000
0000
0100
0000
0000
1000
0000
0000
0010
0000
0100
0000
0000
0001
,
0000
0000
0010
0000
0100
0000
0000
0010
0000
0000
0001
0000
0100
0000
0000
0010
,
0000
1000
0001
0000
0010
0000
0100
0000
,
1000
0000
1000
0100
0010
0001
1000
0100
,
0010
0000
2100
0000
0000
3001
0010
0000
,
0100
0000
1000
0010
0000
0100
0000
0001
,
0000
1000
0000
0000
0001
0000
0000
0000
0010
0000
0000
0000
0000
0000
0100
0000
,
0000
0100
0010
0000
0002
0000
0103
0000
,
0000
0000
0000
0000
0010
0000
0000
0000
1000
0000
0000
0001
0000
0000
1000
0000
,
0000
0000
0100
0000
0000
0000
0010
0000
0000
0100
0000
1000
0000
0000
0020
0000
,
0000
0000
0130
0100
,
0100
0000
0110
1000
,
0000
0001
0000
0010
,
0000
0001
0000
0100
,
0000
0010
0000
1000
,
0001
1000
0100
0010
0100
0000
1000
0000
,
1100
1000
1010
0010
,
0110
0100
0101
0001
,
0011
0010
0110
0100
,
1100
0000
1000
0001
1000
0001
1000
0000
,
1100
0100
0110
0010
,
0011
0001
0101
0100
,
0110
0010
1010
0001
,
0100
0000
0010
0000
1000
0000
1000
0000
1000
0000
0000
0000
0001
0000
0000
1000
,
0000
0000
1000
0000
0000
0000
0000
0001
0000
0000
0001
0000
0000
0000
0000
0010
,
0000
0000
0010
0000
0000
0000
0000
0100
0000
0000
0100
0000
0000
0000
0000
0010
,
0000
0000
0010
0000
0000
0000
0000
0001
0000
0000
0001
0000
0000
0000
0000
1000
,
0000
0000
1000
0000
0001
0000
0100
0000
0010
0000
1000
0000
0001
0000
0000
1000
,
0000
0000
1000
0000
0000
0000
0000
0100
0000
0000
0100
0000
0000
0000
0000
0010
,
0000
0000
0010
0000
0000
0000
0000
0001
0000
0000
0001
0000
0000
0000
0000
0100
,
0000
0100
0000
0010
0000
0010
0100
0010
,
1000
0001
0010
0000
2200
0000
0000
0000
,
0000
3300
0000
0000
;

//---------------dance-single - ----------------
#NOTES:
     dance-single:
     :
     Hard:
     15:
     0.664694,0.782375,0.190419,0.049675,0.629212,562.000000,539.000000,23.000000,6.000000,4.000000,0.000000,0.664694,0.782375,0.190419,0.049675,0.629212,562.000000,539.000000,23.000000,6.000000,4.000000,0.000000:
0000
0000
0000
0000
,
0000
0000
0000
0000
,
0000
0000
0000
0000
,
0000
0000
0000
0000
,
0001
0000
0010
0000
0010
0100
0000
0000
0010
0000
0000
0010
0000
0010
0100
0010
,
0000
0000
0100
0000
0100
1000
0000
0000
1000
0000
0000
1000
0000
1000
0001
1000
,
0000
0000
0010
0000
0010
0100
0000
0000
0010
0000
0000
0010
0000
0010
0100
0010
,
0000
0000
1000
0000
1000
0001
0000
0000
1000
0000
0000
1000
0000
0001
1000
0001
,
0000
0000
1000
0000
0100
0010
0000
0000
0001
0000
0000
0001
0000
0010
0100
0010
,
0000
0000
0100
0000
1000
0010
0000
0000
0100
0000
0000
0100
0000
0100
0010
0100
,
0000
0000
0010
0000
0100
0001
0000
0000
0010
0000
0000
0010
0000
0010
0100
0010
,
0000
0000
0100
0000
1000
0010
0000
0000
0100
0000
0000
0100
0000
0010
0100
0010
,
1000
0010
0100
0001
0010
0000
0100
0010
0001
1000
0100
0000
1000
0100
0010
0100
,
1000
0100
0010
0001
1000
0000
1001
0000
1001
0000
0000
0000
0001
0000
0100
0000
,
0001
1000
0100
0010
0001
0000
0100
1000
,
0100
0010
0100
0110
0110
0000
0010
0100
,
1000
0100
0010
1000
0001
0000
0010
0100
,
1000
0100
0010
0110
0110
0000
0000
1000
,
0010
1000
0001
0010
0001
1000
0100
1000
,
0010
0000
1000
0000
0001
0000
0010
0000
0100
0000
1000
0000
0000
0000
0001
0100
,
0001
0100
0001
0100
0001
0000
0100
0000
0010
0000
1000
0000
0000
0000
0100
1000
,
0100
1000
0100
1000
0100
0000
0010
0000
0001
0000
1000
0000
0001
0000
0100
0000
,
0010
0001
0010
0100
0001
0000
1000
0100
,
0010
1000
0010
0110
1001
0000
1000
0010
,
0100
1000
0100
0010
1000
0000
0001
0100
,
0010
0001
0010
0110
1001
0000
0000
0001
,
1000
0001
0100
0010
1000
0001
0010
0100
,
0010
0000
0001
0000
1000
0000
0100
0000
1000
0000
0010
0000
0000
0100
0001
0100
,
0001
0100
0001
0100
0000
0010
1000
0010
1000
0010
1000
0010
0000
0000
1000
0100
,
1000
0001
0100
0001
1000
0100
1000
0001
1000
0000
0000
0000
0001
0000
0100
0000
,
0001
0100
0001
0100
0020
0030
1000
0100
,
1000
0100
1000
0100
0020
0000
0000
0000
,
0000
0000
0000
0000
0130
0000
0000
0100
0000
0000
0100
0000
1000
0000
0000
1000
,
0000
0000
1000
0000
0010
0000
0000
0010
0000
0000
0010
0000
0100
0000
0000
0100
,
0000
0100
0001
0001
0001
0001
1000
1000
,
1000
0000
1000
0000
0001
0010
0001
0010
0100
0010
0100
0010
0100
1000
0010
0100
,
0001
0000
0000
0000
1000
0000
0001
0100
0000
0001
0100
0000
0010
0000
1000
0010
,
0000
1000
0010
0000
0100
0000
0001
1000
0000
0001
1000
0000
0001
0000
0010
0100
,
0000
0010
0100
0000
0010
0000
0010
0000
0010
0000
0010
0000
0100
0000
0100
0000
,
0100
0000
0100
0000
1000
0100
1000
0100
0010
0100
0010
0001
0010
0100
1000
0010
,
0100
0000
0000
0000
2002
0000
0000
0000
3003
1000
0001
0000
0010
0000
0100
0000
,
1000
0000
0010
0100
0010
1000
0001
0000
0010
0000
0100
0000
1000
0000
0001
1000
,
0000
0010
0100
0010
1000
0001
0010
0000
0100
0000
1000
0000
0000
0000
0001
1000
,
0000
0000
0000
0001
0000
0000
1000
0000
0000
0000
0000
0000
0001
0000
0000
0000
0000
0000
0100
0000
0000
0000
0000
0000
0010
0000
0000
0000
1000
0000
0000
0000
0010
0000
0000
0000
0200
0000
0000
0000
0000
0000
0000
0000
0000
0000
0000
0000
,
0300
0010
0100
0000
0001
0000
0010
0000
0100
0000
1000
0001
0100
0010
0100
0001
,
0000
0010
0100
0000
1000
0000
0100
1000
0010
0100
0100
0010
0000
0000
0100
0010
,
1000
0000
0000
0001
0000
0000
0010
0000
0000
0100
0000
0000
0010
0000
0000
0001
0000
0000
1000
0000
0000
0000
0000
0000
0001
0000
0000
0000
0000
0000
0000
0000
1000
0000
0000
0000
0100
0000
0000
0000
0000
0000
0000
0000
0100
0000
0000
0000
,
0010
0000
0000
0000
0010
0000
0000
0000
0001
0000
0000
0000
0000
0000
0000
0000
1000
0000
0001
0000
0000
1000
0000
0000
0020
0000
0000
0000
0000
0000
0000
0000
0000
0000
0000
0000
0130
0000
0000
0000
0000
0000
0000
0000
0000
0000
0000
0000
,
0001
0010
0100
0010
,
0001
1000
0100
0000
,
1000
0010
0100
0001
,
1000
0000
0110
0000
1001
0000
0110
0000
1001
0000
0000
0000
0001
0000
0000
0100
,
0000
0000
0010
0000
1000
0000
0100
0000
0001
0000
0100
0000
1000
0000
0000
0010
,
0000
1000
0001
0010
1000
0010
0001
0100
,
0001
1000
0100
1000
0010
0100
0001
0010
,
0100
0000
1000
0000
0001
0100
0001
0100
0010
1000
0010
1000
0100
0000
0000
1000
,
0000
0000
0010
0000
1000
0000
0001
0000
0010
0000
1000
0000
0010
0000
0000
0100
,
0000
0010
0001
1000
0100
0001
0100
1000
,
0001
0000
0010
0000
0001
0000
1000
0000
0001
0000
0100
0000
0010
0000
1000
0001
,
0100
0000
0101
0000
0011
0000
1100
0000
1001
0000
0000
0000
1001
0000
1000
0010
,
0000
0010
0100
0000
0010
0000
0100
0001
0000
0001
0010
0000
0100
0000
0010
0001
,
0000
0001
1000
0000
0001
0000
0100
0010
0000
0010
1000
0000
0001
0000
1000
0100
,
0000
0100
0010
0000
0001
0000
0001
0010
0000
0010
0100
0000
0010
0000
0001
0100
,
0000
0100
0010
0000
0100
0001
0100
0001
0100
0010
0100
0010
1000
0000
0001
1000
,
0000
0001
0010
0000
0100
0000
0010
0001
0000
0010
0100
0000
1000
0000
0010
0100
,
0000
0001
0010
0000
0100
0000
0010
0001
0000
0100
0010
0000
1000
0000
0001
0100
,
0000
1000
0100
0000
1000
0000
0001
0010
0000
1000
0010
0000
0100
0000
0010
1000
,
1001
0110
1001
0000
MMMM
0000
0000
0000
;

//---------------dance-single - ----------------
#NOTES:
     dance-single:
     :
     Challenge:
     17:
     0.931991,1.033853,0.413955,0.422234,1.349494,788.000000,736.000000,50.000000,51.000000,0.000000,1.000000,0.931991,1.033853,0.413955,0.422234,1.349494,788.000000,736.000000,50.000000,51.000000,0.000000,1.000000:
0000
0000
0000
0000
,
0000
0000
0000
0000
,
0000
0000
0000
0000
,
0000
0000
0000
0000
,
1000
0000
0001
0000
0010
0100
0000
0000
0010
0000
0001
0100
0000
0010
0100
0010
,
0000
0000
1000
0000
0001
0010
0000
0000
0100
0000
0010
0001
1000
0001
1000
0001
,
1000
0000
0001
0000
0010
0100
0000
0000
0010
0000
0001
0100
0000
0010
0100
0010
,
0000
0000
1000
0000
0001
0010
0000
0000
0100
0000
0010
0001
1000
0001
1000
0001
,
0000
0000
0010
0000
0100
0010
0000
0000
0100
0000
1000
0010
0100
0010
0100
0010
,
0000
0000
1000
0000
0001
0010
0000
0000
0100
0000
1000
0100
0000
0010
0100
0010
,
0000
0000
0100
0000
1000
0010
0000
0000
0100
0000
0010
1000
0000
0010
0100
0010
,
0000
0000
0100
0000
0001
0010
0000
0000
0100
0000
1000
0100
0000
0010
0001
0000
,
1000
0100
0001
0100
1000
0000
1000
0010
0001
0010
1000
0000
0001
0100
1000
0100
,
0001
0010
1000
0010
0001
0000
1001
0000
1001
0000
0000
0000
1000
0100
1000
0100
,
0010
0100
0010
0001
0010
0100
0010
0001
1000
0000
0000
0000
0001
1000
0100
1000
,
0001
0100
0001
1000
0100
0000
0110
0000
0110
0000
0000
0000
0001
0010
0001
0010
,
0100
0010
0100
1000
0100
1000
0100
0010
0100
0000
0000
0000
0010
0001
0100
0001
,
0010
0001
0100
0001
0010
0000
0110
0000
0110
0000
0000
0000
0000
0100
0010
0001
,
1000
0010
1000
0001
0010
0001
1000
0100
1000
0100
0010
0100
1000
0001
0010
0100
,
0010
0001
1000
0010
0100
0001
0010
0100
0010
0001
1000
0010
0000
0100
0010
0010
,
0010
0100
0010
0010
0010
0100
0010
1000
0001
0010
0100
1000
0000
0010
0100
0100
,
0100
0010
0100
0100
0100
0010
0100
0001
1000
0100
0010
0100
1000
0100
0010
0001
,
0010
0100
0010
0001
1000
0100
0010
0100
1000
0000
0000
0000
0001
0010
0100
0010
,
0001
0010
0100
0010
0001
0000
1001
0000
1001
0000
0000
0000
0001
0010
0100
1000
,
0001
0010
0100
0010
0001
0010
0100
1000
0001
0000
0000
0000
1000
0100
0010
0001
,
1000
0100
0010
0001
1000
0000
0110
0000
0110
0000
0000
0000
0000
0100
0010
1000
,
0001
0010
0001
1000
0100
0010
0100
1000
0010
0100
0001
0010
0100
0010
0001
1000
,
0100
0010
0100
1000
0001
0100
0010
1000
0001
0010
0100
0010
0000
0100
1000
0010
,
0001
0010
1000
0010
0000
1000
0100
0001
0100
1000
0100
0001
0000
0000
1000
0001
,
0100
0010
1000
0001
0100
1000
0100
0001
1000
0000
0000
0000
0001
0000
0100
0000
,
0001
0000
0100
0000
0001
0000
0100
0000
2020
3030
0000
0000
1000
0000
0100
0000
,
1000
0100
1000
0100
0022
0000
0000
0000
,
0000
0000
0033
0000
1001
0000
0000
1010
0000
0000
1001
0000
0011
0000
0000
1001
,
0000
0000
1010
0000
1001
0000
0000
0011
0000
0000
1001
0000
1010
0000
0000
1001
,
0000
0011
1001
1001
0110
0110
1001
1001
,
0110
0000
0000
0000
0000
0000
0110
0000
0000
0000
0000
0000
0001
0000
0000
0100
0000
0000
0010
0000
0000
1000
0000
0000
0001
0000
0000
0100
0000
0000
0010
0000
0000
1000
0000
0000
0001
0000
1000
0000
0001
0000
1000
0000
0001
0000
1000
0000
,
0001
0010
0100
1000
0002
0100
0013
2000
0001
3100
0020
1030
0002
1000
0013
2000
,
0001
3100
0020
1000
0032
0010
0103
2000
0001
3010
0200
1300
0002
0100
0013
0200
,
0010
1300
0002
0013
0110
0000
0110
0000
0011
0000
0011
0000
1010
0000
1010
0000
,
1001
0000
0000
0000
0000
0000
1001
0000
0000
0000
0000
0000
1000
0000
0000
0100
0000
0000
0010
0000
0000
0001
0000
0000
1000
0000
0000
0100
0000
0000
0010
0000
0000
0001
0000
0000
1000
0000
0100
0000
1000
0000
0100
0000
0010
0000
0100
0000
,
0010
0000
0000
0000
2001
0000
0000
0000
3000
0001
0100
0001
0010
0100
0010
0001
,
1000
0100
0010
0100
0010
0001
0100
0001
1000
0100
0010
0001
1000
0010
0100
0010
,
0100
0001
1000
0100
0010
0100
1000
0100
1000
0001
0100
0010
0000
0000
0100
0100
,
0000
0000
0000
0100
0000
0000
0100
0000
0000
0000
0000
0000
0100
0000
0000
0000
0000
0000
0100
0000
0010
0000
0100
0000
0010
0000
0000
0100
0000
0000
0001
0000
0000
1000
0000
0000
0020
0000
0000
0000
0000
0000
0000
0000
0000
0000
0000
0000
,
0030
0100
0001
1000
0100
1000
0001
0010
0100
0010
0001
1000
0001
0010
0100
0010
,
0100
0000
0000
0010
0000
0000
0001
0000
0000
0100
0000
0000
0010
0000
0000
1000
0000
0000
0100
0000
0000
1000
0000
0000
0001
0000
0000
1000
0000
0000
0001
0000
0100
0000
0001
0000
0010
0000
0000
0000
0000
0000
0100
0000
1000
0000
0010
0000
,
0100
0010
0100
0010
1000
0001
0010
0100
0010
0001
0000
0000
1000
0000
0000
0000
1000
0000
1000
0000
0000
0000
1000
0000
,
1000
0000
0000
0000
1000
0000
0000
0000
1000
0000
0000
0000
0000
0000
0000
0000
1000
0000
0000
0000
1000
0000
0001
0000
0200
0000
0000
0000
0000
0000
0000
0000
0000
0310
0000
0000
2000
0000
0000
0000
0000
0000
0000
0000
0000
0000
0000
0000
,
3100
0020
0031
0200
,
0301
2000
3010
2000
,
3001
0000
0200
0000
0310
0000
1000
0010
,
0100
0000
0101
0000
1001
0000
1010
0000
1001
0000
0000
1000
0100
0010
0100
1000
,
0000
0001
0100
0000
0001
0000
0100
0010
1000
0100
1000
0001
0100
0010
1000
0001
,
0000
0010
0001
0100
0010
0100
0010
1000
0100
0000
0010
0000
0001
0000
0010
0001
,
0100
0010
1000
0100
1000
0000
0001
0000
0001
0010
0001
1000
0100
0010
0001
0010
,
0100
0010
0001
0010
0100
1000
0100
0001
0100
1000
0100
0001
0100
1000
0001
1000
,
0000
0010
0100
0000
0001
0000
0010
0100
1000
0100
0010
0100
1000
0010
0100
0001
,
0000
0010
0100
0010
0001
1000
0010
1000
0001
0000
1000
0000
0100
0000
0010
0001
,
0100
0010
1000
0001
0010
0000
0100
0000
1000
0100
0010
0001
1000
0010
0100
0001
,
0101
0000
0010
0000
1001
0000
0110
0000
1001
0000
0000
0000
0001
0000
0010
0002
,
0003
0100
0020
0030
0100
0000
0010
2000
3000
0100
0020
0030
0100
0000
1000
0020
,
0030
0100
0002
0003
0010
0000
0100
0020
0030
0100
2000
3000
0100
0000
0010
0200
,
0300
1000
0020
0030
0100
0000
0010
2000
3000
0001
0200
0300
0001
1000
0100
2000
,
3001
0010
0002
1003
0001
0010
1000
0010
0001
0010
1000
0010
0001
0100
0001
2000
,
3000
0100
0020
0030
0100
0000
1000
0020
0130
0001
2000
3001
0010
0001
0010
0200
,
0300
0010
0002
0103
0010
1000
0100
0020
0031
0000
2000
3000
0001
0000
0100
0020
,
1030
0100
0020
0031
1000
0000
0001
0020
0130
1000
0200
0310
0001
0000
1000
0010
,
0100
0010
0100
0000
1111
0000
0000
0000
;
