#VERSION:0.83;
#TITLE:DLMD;
#SUBTITLE:;
#ARTIST:Darren Styles & TNT;
#TITLETRANSLIT:;
#SUBTITLETRANSLIT:;
#ARTISTTRANSLIT:;
#GENRE:;
#ORIGIN:;
#CREDIT:;
#BANNER:DLMD.png;
#BACKGROUND:DLMD-bg.png;
#PREVIEWVID:;
#JACKET:DLMD-jacket.png;
#CDIMAGE:;
#DISCIMAGE:;
#LYRICSPATH:;
#CDTITLE:;
#MUSIC:DLMD.ogg;
#OFFSET:-0.102000;
#SAMPLESTART:48.102001;
#SAMPLELENGTH:12.813000;
#SELECTABLE:YES;
#BPMS:0.000=160.000;
#STOPS:;
#DELAYS:;
#WARPS:;
#TIMESIGNATURES:0.000=4=4;
#TICKCOUNTS:0.000=4;
#COMBOS:0.000=1;
#SPEEDS:0.000=1.000=0.000=0;
#SCROLLS:0.000=1.000;
#FAKES:;
#LABELS:0.000=Song Start;
#BGCHANGES:;
#KEYSOUNDS:;
#ATTACKS:
;

//---------------dance-single - ----------------
#NOTEDATA:;
#CHARTNAME:;
#STEPSTYPE:dance-single;
#DESCRIPTION:;
#CHARTSTYLE:;
#DIFFICULTY:Beginner;
#METER:4;
#RADARVALUES:0.161106,0.257769,0.059355,0.000000,0.000000,133.000000,126.000000,7.000000,0.000000,0.000000,0.000000,0.000000,0.000000,0.000000,0.161106,0.257769,0.059355,0.000000,0.000000,133.000000,126.000000,7.000000,0.000000,0.000000,0.000000,0.000000,0.000000,0.000000;
#CREDIT:Pandemonium X;
#NOTES:
// measure 0
0000
0000
0000
0000
,  // measure 1
0000
0000
0000
0000
,  // measure 2
0000
0000
0000
0000
,  // measure 3
0000
0000
0000
0000
,  // measure 4
1000
0000
0000
0000
,  // measure 5
0000
0000
0000
0000
,  // measure 6
0001
0000
0000
0000
,  // measure 7
0000
0000
0000
0000
,  // measure 8
0001
0000
1000
0000
,  // measure 9
0100
0000
0000
0000
,  // measure 10
1000
0000
0001
0000
,  // measure 11
0100
0100
0100
0000
,  // measure 12
0010
0000
1000
0000
,  // measure 13
0100
0000
0000
0000
,  // measure 14
0010
0000
0001
0000
,  // measure 15
0100
0100
0100
0000
,  // measure 16
0110
0000
0000
0000
,  // measure 17
0001
0000
0000
0000
,  // measure 18
1000
0000
0000
0000
,  // measure 19
0100
0000
0000
0000
,  // measure 20
0010
0000
0001
0000
,  // measure 21
0100
0000
0010
0000
,  // measure 22
1000
0000
0001
0000
,  // measure 23
0110
0000
0000
0000
,  // measure 24
1000
0000
0000
0000
,  // measure 25
0001
0000
0000
0000
,  // measure 26
0100
0000
0000
0000
,  // measure 27
0010
0000
1000
0000
,  // measure 28
0001
0000
0000
0000
,  // measure 29
0010
0000
0000
0000
,  // measure 30
0100
0000
0000
0000
,  // measure 31
1000
1000
1000
0000
,  // measure 32
0001
0001
0001
0000
,  // measure 33
1000
0000
0001
0000
,  // measure 34
0100
0100
0100
0000
,  // measure 35
0010
0000
1000
0000
,  // measure 36
0001
0000
1000
0000
,  // measure 37
0100
0000
1000
0000
,  // measure 38
0010
0000
0100
0000
,  // measure 39
0001
0001
0001
0000
,  // measure 40
0110
0000
0000
0000
,  // measure 41
0000
0000
0000
0000
,  // measure 42
1000
0000
0000
0000
,  // measure 43
0100
0000
0000
0000
,  // measure 44
0010
0000
0000
0000
,  // measure 45
0100
0100
0100
0000
,  // measure 46
0010
0000
0000
0000
,  // measure 47
0100
0000
0000
0000
,  // measure 48
1000
0000
0000
0000
,  // measure 49
0100
0100
0100
0000
,  // measure 50
1000
1000
1000
0000
,  // measure 51
0001
0001
0001
0000
,  // measure 52
0100
0100
0100
0000
,  // measure 53
0010
0010
0010
0000
,  // measure 54
1000
1000
0001
0000
,  // measure 55
0010
0010
0100
0000
,  // measure 56
1000
1000
0100
0000
,  // measure 57
1000
0100
0010
0000
,  // measure 58
0110
0000
0000
0000
,  // measure 59
1000
0000
0000
0000
,  // measure 60
0001
0000
0000
0000
,  // measure 61
0100
0100
0100
0000
,  // measure 62
0110
0000
0000
0000
,  // measure 63
1001
0000
0000
0000
,  // measure 64
0100
0000
0010
0000
,  // measure 65
1000
0001
1000
0000
,  // measure 66
0000
0000
0000
0000
,  // measure 67
0000
0000
0000
0000
,  // measure 68
0001
0000
0000
0000
,  // measure 69
1000
0000
0000
0100
,  // measure 70
0100
0000
0010
0010
,  // measure 71
0001
0000
0000
0000
,  // measure 72
1000
0000
0001
0000
,  // measure 73
0100
0000
0010
0000
,  // measure 74
1000
0000
0001
0000
,  // measure 75
0100
0010
0100
0000
,  // measure 76
1001
0000
0000
0000
;

//---------------dance-single - ----------------
#NOTEDATA:;
#CHARTNAME:;
#STEPSTYPE:dance-single;
#DESCRIPTION:;
#CHARTSTYLE:;
#DIFFICULTY:Easy;
#METER:6;
#RADARVALUES:0.295562,0.579980,0.211981,0.067834,0.004240,244.000000,219.000000,25.000000,8.000000,0.000000,0.000000,0.000000,0.000000,0.000000,0.295562,0.579980,0.211981,0.067834,0.004240,244.000000,219.000000,25.000000,8.000000,0.000000,0.000000,0.000000,0.000000,0.000000;
#CREDIT:Pandemonium X;
#NOTES:
0000
0000
0000
0000
,
0000
0000
0000
0000
,
0000
0000
0000
0000
,
0000
0000
0000
0000
,
1000
1000
1000
0000
,
0001
0001
0001
0000
,
0100
0100
0100
0000
,
0010
0010
0010
0010
,
0000
1000
0001
1000
,
0100
0000
0000
0000
,
0000
1000
0001
1000
,
0100
0010
0200
0000
,
0300
0010
0001
1000
,
0100
0000
0000
0000
,
0000
0010
0001
1000
,
0100
1000
0002
0000
,
0103
0010
0100
0010
,
1000
0001
1000
0001
,
0010
0100
0010
0100
,
1000
0001
1000
0000
,
0001
0010
0100
1000
,
1000
0100
0010
0001
,
0001
0010
0100
1000
,
0001
0000
0000
0000
,
1000
1000
1000
1000
,
0001
0001
0001
0001
,
0100
0100
0100
0100
,
0010
0010
0010
0100
,
0010
0010
0010
0010
,
1000
1000
1000
1000
,
0001
0001
0001
0001
,
0110
0110
0110
0000
,
1000
0001
0010
0000
,
0100
1000
0010
0000
,
0100
0010
1000
0000
,
0001
0010
0100
0000
,
0010
0000
0001
0000
,
0100
0000
0010
0000
,
1000
0010
0100
0001
,
1001
1001
1001
0000
,
0110
0000
0000
0000
,
0000
0000
0000
0000
,
0001
0000
1000
0000
,
0200
0300
0000
0000
,
0010
0000
0001
0000
,
0100
0100
0200
0000
,
0310
0000
1000
0000
,
0100
0000
0000
0000
,
1000
0000
0001
0000
,
0100
0100
0200
0000
,
0310
0010
0010
0000
,
1000
1000
1000
0000
,
0001
0001
0001
0000
,
0100
0100
0200
0000
,
0010
0300
0000
0000
0000
0000
0000
0000
0000
0000
0000
0000
0000
0000
0000
0000
0000
0000
0000
0000
0000
0000
0000
0000
0000
0000
0000
0000
0000
0000
0000
0000
0000
0000
0000
0000
0000
0000
0000
0000
0000
0000
0000
0000
0000
0000
0000
0000
0010
0000
0000
0000
0000
0000
0000
0000
0000
0000
0000
0000
0000
0000
0000
0000
0000
0000
0000
0000
0000
0000
0000
0000
0000
0000
0000
0000
0000
0000
0000
0000
0000
0000
0000
0000
0000
0000
0000
0000
0000
0000
0000
0000
0000
0000
0000
0000
0010
0000
0000
0000
0000
0000
0000
0000
0000
0000
0000
0000
0000
0000
0000
0000
0000
0000
0000
0000
0000
0000
0000
0000
0000
0000
0000
0000
0000
0000
0000
0000
0000
0000
0000
0000
0000
0000
0000
0000
0000
0000
0000
0000
0000
0000
0000
0000
0000
0000
0000
0000
0000
0000
0000
0000
0000
0000
0000
0000
0000
0000
0000
0000
0000
0000
0000
0000
0000
0000
0000
0000
0000
0000
0000
0000
0000
0000
0000
0000
0000
0000
0000
0000
0000
0000
0000
0000
0000
0000
0000
0000
0000
0000
0000
0000
,
1000
1000
1000
0000
,
0001
0001
0001
0000
,
0100
0100
0200
0300
,
0110
0100
0010
0000
,
1000
0001
1000
0000
,
0001
0010
0001
0000
,
0010
0100
1000
0000
,
0100
0100
1000
1000
,
0010
0010
0100
0100
,
0001
0100
0010
1000
,
0001
1000
0200
0000
,
0310
0000
0100
0000
,
1000
0000
0001
0000
,
1000
0001
0100
0001
,
1000
0100
0001
0100
,
1000
0010
0001
0010
,
1000
1000
1000
0000
,
1001
1001
1001
1001
,
1001
1001
1001
1001
,
0110
1001
0110
1001
,
0110
0110
1001
0110
,
1001
0000
0000
0000
;

//---------------dance-single - ----------------
#NOTEDATA:;
#CHARTNAME:;
#STEPSTYPE:dance-single;
#DESCRIPTION:;
#CHARTSTYLE:;
#DIFFICULTY:Medium;
#METER:9;
#RADARVALUES:0.398525,0.579980,0.254377,0.144147,0.000000,329.000000,299.000000,30.000000,17.000000,0.000000,0.000000,0.000000,0.000000,0.000000,0.398525,0.579980,0.254377,0.144147,0.000000,329.000000,299.000000,30.000000,17.000000,0.000000,0.000000,0.000000,0.000000,0.000000;
#CREDIT:Pandemonium X;
#NOTES:
0000
0000
0000
0000
,
0000
0000
0000
0000
,
0000
0000
0000
0000
,
0000
0000
0000
0000
,
0001
0000
0001
0000
0001
0000
0001
1000
,
0010
0010
0010
0000
,
0100
0000
0100
0000
0100
0000
0100
0010
,
1000
0000
1000
0000
0001
0100
0001
0100
,
0001
0100
0010
1000
,
0200
0010
0310
0000
,
0100
1000
0010
0100
,
0020
2030
0002
3003
,
1000
0001
0010
0001
,
0200
0010
0310
0000
,
0100
0010
1000
0001
,
2000
3200
0020
0330
,
0100
0100
0100
0100
,
1000
1000
1000
1000
,
0010
0010
0010
0010
,
0100
0100
0100
0000
,
0001
0100
0001
0000
1000
0010
1000
0000
,
0100
1000
0100
0000
0010
0001
0010
0000
,
0100
0010
0100
0010
0001
1000
0001
1000
,
0001
0100
1000
0101
,
0001
0001
0001
0001
,
1000
1000
1000
1000
,
0010
0010
0010
0010
,
0100
0000
0100
0000
0100
0000
0100
0100
,
0010
1000
0010
1000
,
0001
0100
0001
0100
,
0001
0010
0001
0010
,
0110
0000
1001
0000
0110
0000
0000
1000
,
0010
0000
0100
0000
0001
0000
0000
0010
,
0000
0001
0100
0000
0001
0000
0000
0000
,
0100
0000
0010
0000
1000
0000
0001
0010
,
0000
0100
0010
0000
0001
0000
1000
0000
,
0001
0000
0100
0010
0100
0000
0010
1000
,
0010
0000
1000
0001
1000
0000
0001
0010
,
0001
0010
0100
1000
,
1001
1001
1001
0000
,
0110
0000
0000
0000
,
0000
0000
0000
0000
,
0100
0010
1000
0001
,
0200
0300
0000
0000
,
0000
0001
1000
0001
,
0200
0302
0020
0033
,
0001
1000
0100
0010
,
0200
0300
0000
0000
,
0000
0010
0001
1000
,
0200
0320
0200
0330
,
1000
0100
1000
0100
1000
0000
0000
0000
,
0010
0001
0010
0001
0010
0000
0000
0000
,
0001
0100
0001
0100
0001
0000
0000
0000
,
1000
0010
1000
0010
1000
0000
0000
0000
,
1000
0001
0100
0001
1000
0000
0000
0000
,
0001
0010
0001
1000
0001
0000
0000
0000
,
1000
0100
0010
0100
1000
0000
0000
0000
,
0001
0010
0100
0010
0001
0000
0000
0000
,
1000
0001
1000
0001
,
0100
0010
0100
0010
,
1000
0010
1000
0010
,
0100
0001
0100
0001
,
0010
0001
0010
0000
0010
0100
0010
0000
,
0100
1000
0100
0000
0100
0010
0100
0000
,
0010
0001
0100
0000
0010
1000
0100
0000
,
1100
0101
1200
0000
,
1300
0100
0010
0001
,
0100
0010
1000
1001
,
0001
0000
0100
0000
0010
0000
1000
0100
,
0000
0100
0010
0000
0100
0000
0010
0010
,
0100
0000
0010
0000
0100
0010
0001
1000
,
0000
0001
1000
0000
0010
0000
1001
0000
,
1100
0011
0101
1001
,
1100
0110
0011
0110
,
1100
0110
1001
1010
,
0101
0011
0110
1100
,
1001
0000
0000
0000
;

//---------------dance-single - ----------------
#NOTEDATA:;
#CHARTNAME:;
#STEPSTYPE:dance-single;
#DESCRIPTION:;
#CHARTSTYLE:;
#DIFFICULTY:Hard;
#METER:13;
#RADARVALUES:0.549940,0.826727,0.542672,0.254377,0.076313,454.000000,390.000000,64.000000,30.000000,12.000000,0.000000,0.000000,0.000000,0.000000,0.549940,0.826727,0.542672,0.254377,0.076313,454.000000,390.000000,64.000000,30.000000,12.000000,0.000000,0.000000,0.000000,0.000000;
#CREDIT:Pandemonium X;
#NOTES:
0000
0000
0000
0000
,
0000
0000
0000
0000
,
0000
0000
0000
0000
,
0000
0000
0000
0000
,
0001
0000
0001
0000
0001
0000
0001
0100
,
0010
0010
0010
0000
,
0100
0000
0100
0000
0100
0000
0100
0010
,
1000
0000
1000
0000
1000
1000
0001
0001
,
1000
0000
0100
0010
0001
0000
0001
0200
,
0010
0000
0010
0000
0310
0000
0010
1000
,
0100
0000
0010
0100
1000
0000
0001
0200
,
0010
0001
0020
0330
,
1000
0000
0001
0010
0100
0000
0010
0200
,
1000
0000
1000
0000
1300
0000
0001
0010
,
0001
0000
0010
0100
1000
0000
0010
0200
,
0010
1000
0020
0330
,
2001
3010
1002
0013
,
2001
3010
1002
0013
,
2001
3100
1002
0103
,
2001
3100
1001
0000
,
0001
0100
0010
1000
0001
0100
0010
1000
,
0001
0010
0100
1000
0001
0010
0100
1000
,
0001
0100
0001
0100
0001
0100
0001
0100
0010
1000
0010
1000
0010
1000
0010
1000
,
0010
1000
0001
MMMM
,
0001
0010
0001
0010
0100
1000
0100
1000
,
0010
1000
0010
1000
0001
0100
0001
0100
,
0001
1000
0001
1000
0010
0100
0010
0100
,
0010
1000
0010
1000
0001
0100
0010
0010
,
1000
0100
1000
0100
1000
0100
0010
0001
,
1000
0001
1000
0001
1000
0001
0100
0010
,
1000
0100
1000
0100
1000
0100
0010
0001
,
1000
0000
1000
0000
1000
0000
0000
0001
,
1001
0000
0110
0000
1001
0000
1000
1010
,
0000
0001
0011
0000
1100
0000
0001
0001
,
1001
0000
1010
0000
0101
0000
1000
1001
,
0000
0001
0011
0000
1100
0000
1000
0100
,
0110
0000
0001
0010
0110
0000
1000
0100
,
0110
0000
0001
0010
0110
0000
1000
0100
,
0010
0010
0001
0001
0100
0100
0010
0010
,
1000
1000
1000
0011
,
1100
0000
0000
0000
,
0000
0000
0000
0000
0001
0010
0100
1000
,
0001
1000
0001
1000
,
0200
0000
0000
0300
0000
0000
0000
0000
,
0010
0100
0010
0001
,
0200
0320
0200
0030
,
0301
1000
0001
0010
,
0200
0000
0000
0300
0000
0000
0000
0000
,
0000
0010
0001
1000
,
0200
2300
0200
3000
,
1300
0010
1000
0010
0100
0000
0001
0000
,
0100
0010
1000
0001
1000
0000
0001
0000
,
0100
0001
0100
0010
1000
0000
0010
0000
,
0100
0010
1000
0010
0200
0000
0000
0000
,
0310
0001
0010
1000
0001
0000
1000
0000
,
0100
1000
0100
0010
0001
0000
1000
0000
,
0001
0010
1000
0010
0100
0000
0010
0000
,
0200
0320
0200
0330
,
1001
0110
1001
0110
,
0101
0110
1001
0110
,
1001
0110
1001
0110
,
1100
0101
1001
0010
,
1000
0001
1000
0001
0100
0100
0010
0010
,
1000
0100
1000
0100
1000
1000
0001
0001
,
0100
0010
0100
0010
0100
0010
0100
0010
1000
0001
1000
0001
1000
0001
1000
0001
,
0200
0302
2000
3003
,
0001
0000
0010
0000
1000
0000
0010
0001
,
0000
0010
1000
0000
0001
0000
MMMM
0000
,
0101
0000
1010
0000
1100
0000
0100
0110
,
0000
0100
1100
0000
1010
0000
0101
0100
,
0110
0000
1001
0000
1100
0100
0010
0011
,
0000
0001
1000
0000
0010
0100
MMMM
0000
,
1001
0000
0000
0000
1010
0000
0000
0000
0101
0000
0000
0000
0011
0000
0010
0100
,
1000
1000
0001
0100
0001
0000
1010
1000
,
1001
0000
0000
0000
0011
0000
0000
0000
0101
0000
0000
0000
1010
0000
1000
0100
,
0010
0010
0100
1000
1100
0000
0101
0000
,
2002
0000
0000
0000
,
0000
0000
0000
0000
,
3003
0000
0000
0000
;
