#TITLE:DENJIN AKATSUKINI TAORERU;
#SUBTITLE:-SF PureAnalogSynth Mix-;
#ARTIST:Remixed by Sota Fujimori;
#TITLETRANSLIT:;
#SUBTITLETRANSLIT:;
#ARTISTTRANSLIT:;
#GENRE:;
#CREDIT:;
#BANNER:DENJIN AKATSUKINI TAORERU -SF PureAnalogSynth Mix-.png;
#BACKGROUND:DENJIN AKATSUKINI TAORERU -SF PureAnalogSynth Mix--bg.png;
#LYRICSPATH:;
#CDTITLE:;
#MUSIC:DENJIN AKATSUKINI TAORERU -SF PureAnalogSynth Mix-.ogg;
#OFFSET:-0.021000;
#SAMPLESTART:87.282997;
#SAMPLELENGTH:23.273001;
#SELECTABLE:YES;
#BPMS:0.000000=165.000000
;
#STOPS:
;
#BGCHANGES:;
#KEYSOUNDS:;
#ATTACKS:;

//---------------dance-single - ----------------
#NOTES:
     dance-single:
     :
     Beginner:
     5:
     0.163887,0.273105,0.068490,0.000000,0.000000,134.000000,126.000000,8.000000,0.000000,0.000000,0.000000,0.163887,0.273105,0.068490,0.000000,0.000000,134.000000,126.000000,8.000000,0.000000,0.000000,0.000000:
// measure 0
0000
0000
0000
0000
,  // measure 1
0000
0000
0000
0000
,  // measure 2
0000
0000
0000
0000
,  // measure 3
0000
0000
0000
0000
,  // measure 4
0000
0001
0000
0000
1000
0000
1000
0000
,  // measure 5
0000
0000
0010
0000
,  // measure 6
0000
0100
0000
0000
0010
0000
0010
0000
,  // measure 7
0000
0000
0100
0000
,  // measure 8
1001
0000
0000
0000
,  // measure 9
0000
0000
0000
0000
,  // measure 10
0001
0000
1000
0000
,  // measure 11
0010
0000
0000
0000
,  // measure 12
0100
0000
0010
0000
,  // measure 13
1000
0000
0000
0000
,  // measure 14
0001
0000
0010
0000
,  // measure 15
0100
0000
0000
0000
,  // measure 16
0010
0000
0001
0000
,  // measure 17
1001
0000
0000
0000
,  // measure 18
0010
0000
1000
0000
,  // measure 19
0001
0001
0001
0000
,  // measure 20
1000
0000
0001
0000
,  // measure 21
1000
1000
1000
0000
,  // measure 22
0010
0000
0100
0000
,  // measure 23
0010
0010
0010
0010
,  // measure 24
0100
0000
0010
0000
,  // measure 25
1000
0000
0001
1000
,  // measure 26
1001
0000
0001
0000
,  // measure 27
1000
1000
1000
0000
,  // measure 28
0100
0000
0010
0000
,  // measure 29
0001
0001
0001
0000
,  // measure 30
0010
0000
0001
0000
,  // measure 31
0100
0100
0100
0000
,  // measure 32
0010
0000
0100
0000
,  // measure 33
0000
1001
0000
0000
0000
0000
0000
0000
,  // measure 34
0001
0000
0000
0000
,  // measure 35
1000
0000
0000
0000
,  // measure 36
0010
0000
0000
0000
,  // measure 37
1000
0000
0000
0000
,  // measure 38
0100
0000
0000
0000
,  // measure 39
0010
0000
0000
0000
,  // measure 40
0001
0000
0000
0000
,  // measure 41
1000
0000
0000
0000
,  // measure 42
0001
0000
0000
1000
,  // measure 43
0010
0000
0000
0100
,  // measure 44
0001
0000
0000
0010
,  // measure 45
0001
0000
0000
0000
,  // measure 46
0000
1001
0000
0000
0000
0000
0000
0000
,  // measure 47
0001
0000
0000
1000
,  // measure 48
0010
0000
0100
0000
,  // measure 49
0001
1000
0001
1000
,  // measure 50
0001
0000
0000
0000
,  // measure 51
0010
0000
0000
0000
,  // measure 52
0100
0000
0000
0000
,  // measure 53
1000
0000
0000
0000
,  // measure 54
0010
0000
0000
0000
,  // measure 55
0100
0000
0000
0000
,  // measure 56
0001
0000
0000
0000
,  // measure 57
1000
0000
0001
0000
,  // measure 58
0110
0000
0000
0000
,  // measure 59
0001
0000
0000
0000
,  // measure 60
1000
0000
0000
0000
,  // measure 61
0001
0000
0000
0000
,  // measure 62
0010
0000
0000
0000
,  // measure 63
0100
0000
0010
0000
,  // measure 64
0001
0000
0000
0000
,  // measure 65
1000
0000
0000
0000
,  // measure 66
0010
0000
0000
0000
,  // measure 67
0100
0000
0010
0000
,  // measure 68
1001
0000
0000
0000
,  // measure 69
0001
0000
0000
0000
,  // measure 70
1000
0000
0000
0000
,  // measure 71
0100
0000
0000
0000
,  // measure 72
0010
0000
0000
0000
,  // measure 73
0001
0000
0000
0000
,  // measure 74
0100
0000
0000
0000
,  // measure 75
0010
0000
1000
0000
,  // measure 76
1001
0000
0001
0000
,  // measure 77
1000
1000
1000
1000
,  // measure 78
0001
0000
1000
0000
,  // measure 79
0001
0001
0001
0001
;

//---------------dance-single - ----------------
#NOTES:
     dance-single:
     :
     Easy:
     9:
     0.393819,0.410299,0.042806,0.154103,0.017123,322.000000,317.000000,5.000000,18.000000,0.000000,0.000000,0.393819,0.410299,0.042806,0.154103,0.017123,322.000000,317.000000,5.000000,18.000000,0.000000,0.000000:
0000
0000
0000
0000
,
0000
0000
0000
0000
,
0000
0000
0000
0000
,
0000
0000
0000
0000
,
0000
1000
0000
0000
0001
0000
0100
0010
,
0000
0000
0000
0100
0001
0000
1000
0000
,
0000
0001
0000
0000
0010
0000
0001
1000
,
0000
0000
0000
0010
0100
0000
0001
0000
,
2002
0000
0000
0000
,
0000
0000
0000
3003
,
1000
0010
0100
0010
,
0001
1000
0001
1000
,
0001
0010
0100
0010
,
0100
1000
0010
0100
,
0001
0100
0010
0100
,
0010
1000
0001
0010
,
0100
0010
0100
0010
,
0011
0000
0000
0000
,
1000
0001
0100
0001
,
2000
3200
0320
0032
,
0103
0010
1000
0001
,
2000
3002
0203
0302
,
0013
0001
0100
0010
,
2000
3200
0320
0032
,
0013
0001
0100
0010
,
1000
0000
0001
0000
0010
0000
0100
1000
,
0001
0010
0001
0100
,
0010
1000
0100
0010
,
0100
1000
0010
0100
,
0001
0000
1000
0000
0100
0000
0010
0001
,
0010
0001
0100
0010
,
1000
0001
0010
0001
,
1000
0010
0100
0001
,
0000
0000
1000
0000
0000
0001
0000
0000
1000
0000
0000
0001
0000
0000
0000
0000
,
1000
0010
0100
0001
,
0010
0000
0100
0000
1000
0000
0100
0010
,
0001
0000
0010
0000
0001
0000
0100
0010
,
1000
0000
0001
0000
1000
0000
0001
1000
,
0010
0100
0010
1000
,
0001
0000
0010
0000
0100
0000
0010
0001
,
0100
0000
0010
0000
1000
0000
0010
1000
,
0100
0010
0001
0100
,
0001
0000
0010
0000
0100
0000
1000
0100
,
0010
0000
0001
0000
0010
0000
0100
1000
,
0010
0000
0100
0000
0001
0000
1000
0001
,
0100
0000
0010
0000
1000
0000
0001
1000
,
0000
0000
0001
0000
0000
1000
0000
0000
0010
0000
0000
0100
0000
0000
0010
0000
,
1000
0000
0001
0000
0010
0000
0100
0010
,
0001
0000
1000
0001
1000
0000
0001
1000
,
0001
1000
0010
0100
,
0001
0000
0100
0000
0010
0000
1000
0010
,
0100
0000
0010
0000
1000
0000
0001
0010
,
0100
0000
0010
0000
0001
0000
1000
0100
,
0010
0000
0100
0000
1000
0000
0001
0100
,
0010
0000
1000
0000
0100
0000
0010
0100
,
1000
0000
0100
0000
1000
0000
0010
0100
,
0001
0000
1000
0000
0010
0000
0100
0010
,
1000
0001
0100
0010
,
1001
0000
0000
0000
,
2000
3200
0320
0032
,
1003
0001
0100
0001
,
0010
0001
0100
0010
,
1000
0100
1000
0010
,
0100
0000
0010
0000
0100
0000
0001
0010
,
0100
0010
0001
0100
,
0001
0000
1000
0000
0100
0000
0010
0100
,
0000
0010
0000
0000
0001
0000
0000
0100
,
0000
0010
0000
0000
0100
0000
0000
0001
,
1000
0001
1000
0010
,
1000
0000
0100
0000
0010
0000
0100
1000
,
0010
0000
0100
0000
0001
0000
0010
0100
,
1000
0000
0100
0000
1000
0000
0001
1000
,
0000
0001
0000
0000
0100
0000
0010
0000
,
0000
1000
0000
0001
0000
0000
0010
0000
,
0001
0100
0010
1000
,
1001
0010
1001
0100
,
0001
0100
0010
1000
,
0001
1000
0010
0000
1000
0001
0010
0000
,
0001
1000
0001
1000
,
0001
1000
0100
0000
1000
0001
0100
0100
;

//---------------dance-single - ----------------
#NOTES:
     dance-single:
     :
     Medium:
     12:
     0.533245,0.615449,0.196909,0.017123,0.496554,436.000000,413.000000,23.000000,2.000000,0.000000,0.000000,0.533245,0.615449,0.196909,0.017123,0.496554,436.000000,413.000000,23.000000,2.000000,0.000000,0.000000:
0000
0000
0000
0000
,
0000
0000
0000
0000
,
0000
0000
0000
0000
,
0000
0000
0000
0000
,
0000
1001
0000
0000
0001
0000
1000
1001
,
0000
0000
0000
0000
0000
0000
1000
0000
1001
0000
0000
0001
0000
0000
0001
0000
,
0000
1010
0000
0000
0110
0000
1000
1001
,
0000
0000
0000
0000
0000
0000
0010
0000
0110
0000
0000
1010
0000
0000
1001
0000
,
0202
0000
0000
0000
,
0000
0000
0000
0303
,
1010
0000
0000
1000
0000
0000
1000
0000
0001
0000
0000
0001
0000
0000
0001
0000
,
0000
0000
0010
0000
0000
0001
0000
0000
0100
0000
0000
0010
0000
0000
1000
0000
,
0100
0000
0000
0100
0000
0000
0100
0000
0010
0000
0000
0010
0000
0000
0010
0000
,
0000
0000
0100
0000
0000
1000
0000
0000
0010
0000
0000
0000
0100
0000
0010
0000
,
1000
0000
0000
1000
0000
0000
1000
0000
0001
0000
0000
0001
0000
0000
0001
0000
,
0000
0000
0010
0000
0000
0001
0000
0000
0100
0000
0000
0010
0000
0000
1000
0000
,
0001
0000
0000
1000
0000
0000
0100
0000
0010
0000
0000
0001
0000
0000
0100
0000
,
1001
0000
0000
0000
,
0001
0000
0000
0001
0000
0000
0001
0000
1000
0000
0000
1000
0000
0000
1000
0000
,
0010
1000
0100
0010
,
0001
0000
0000
0001
0000
0000
0001
0000
0010
0000
0000
0010
0000
0000
0010
0000
,
0100
0000
0010
0000
0001
0000
1000
0010
,
1000
0000
0000
1000
0000
0000
1000
0000
0001
0000
0000
0001
0000
0000
0001
0000
,
0100
0001
0010
0100
,
0010
0000
0000
0100
0000
0000
1000
0000
0000
0010
0000
0000
0100
0000
0000
0010
,
0000
0000
1000
0000
0000
0001
0000
0000
0010
0000
0000
0000
0100
0000
1000
0000
,
1100
0000
0000
0100
0000
0000
1000
0000
0010
0000
0000
0100
0000
0000
0001
0000
,
0000
0000
0010
0000
0000
0001
0000
0000
0100
0000
0000
0001
0000
0000
0010
0000
,
0001
0000
0000
0001
0000
0000
1000
0000
0010
0000
0000
0010
0000
0000
0100
0000
,
0000
0000
0010
0000
0000
1000
0000
0000
0100
0000
0000
0000
0010
0000
0100
0000
,
1000
0000
0000
0100
0000
0000
1000
0000
0010
0000
0000
0100
0000
0000
0001
0000
,
0000
0000
0010
0000
0000
0001
0000
0000
0100
0000
0000
0010
0000
0000
1000
0000
,
0001
0000
0000
1000
0000
0000
0001
0000
0000
1000
0000
0000
0001
0000
0000
0000
,
0000
0000
1001
0000
0000
1001
0000
0000
1001
0000
0000
1001
0000
0000
0001
0000
,
1000
0000
0000
1000
0000
0000
0001
0000
0000
0001
0000
0000
0100
0000
0010
0000
,
1000
0000
0000
1000
0000
0000
0010
0000
0000
0000
0100
0000
0010
0000
1000
0000
,
0100
0000
0000
0100
0000
0000
0010
0000
0000
0010
0000
0000
0100
0000
0010
0000
,
0001
0000
0000
0001
0000
0000
0100
0000
0000
0100
0000
0000
0010
0000
0100
0000
,
0001
0000
0000
0001
0000
0000
1000
0000
0000
1000
0000
0000
0100
0000
1000
0000
,
0010
0000
0000
0100
0000
0000
0001
0000
0000
0000
0010
0000
0100
0000
1000
0000
,
0100
0000
0000
0100
0000
0000
0010
0000
0000
0010
0000
0000
0100
0000
1000
0000
,
0001
0000
0000
0001
0000
0000
1000
0000
0000
1000
0000
0000
0001
0000
1000
0000
,
0001
0000
0000
0100
0000
0000
0010
0000
0000
1000
0000
0000
0001
0000
0100
0000
,
0010
0000
0000
1000
0000
0000
0001
0000
0000
0100
0000
0000
0010
0000
1000
0000
,
0001
0000
0000
0100
0000
0000
0010
0000
0000
1000
0000
0000
0001
0000
0100
0000
,
0010
0000
0000
1000
0000
0000
0001
0000
0000
0100
0000
0000
0010
0000
1000
0000
,
0000
0000
1001
0000
0000
0110
0000
0000
1001
0000
0000
0110
0000
0000
1001
0000
,
1000
0000
0000
0100
0000
0000
0010
0000
0000
0001
0000
0000
1000
0000
0100
0000
,
0010
0000
0001
0100
0010
0000
0100
0010
,
1000
0001
1000
0001
1000
0001
1000
0001
,
1000
0000
0000
0001
0000
0000
0010
0000
0000
0001
0000
0000
0100
0000
0001
0000
,
0010
0000
0000
0100
0000
0000
0010
0000
0000
0001
0000
0000
1000
0000
0100
0000
,
0010
0000
0000
0100
0000
0000
1000
0000
0000
0010
0000
0000
0100
0000
0010
0000
,
1000
0000
0000
0001
0000
0000
0010
0000
0000
0001
0000
0000
1000
0000
0100
0000
,
0010
0000
0000
0100
0000
0000
1000
0000
0000
0100
0000
0000
0010
0000
0001
0000
,
0100
0000
0000
0010
0000
0000
0100
0000
0000
0010
0000
0000
0100
0000
0001
0000
,
1000
0000
0000
0001
0000
0000
1000
0000
0000
0001
0000
0000
1000
0000
0100
0000
,
0010
0001
0100
0010
,
1001
0000
0000
0000
,
0000
0000
0000
0000
,
0001
0000
0000
1000
0000
0000
0010
0000
0000
1000
0000
0000
0001
0000
0010
0000
,
0100
0000
0000
0010
0000
0000
0001
0000
0000
0100
0000
0000
0010
0000
0100
0000
,
0000
0000
0010
1000
0000
0010
0000
0000
1000
0000
0000
0001
0000
0000
0010
0000
,
0000
0000
0100
0010
0000
0100
0000
0000
0010
0000
0000
0001
0000
0000
0100
0000
,
0001
0000
0000
0010
0000
0000
0001
0000
0000
0100
0000
0000
0010
0000
1000
0000
,
0001
0000
0000
0010
0000
0000
0100
0000
0000
0010
0000
0000
0001
0000
1000
0000
,
0000
0000
0001
0000
0000
0100
0000
0000
1000
0000
0000
0100
0000
0000
0001
0000
,
0000
0000
1000
0000
0000
0010
0000
0000
0001
0000
0000
0010
0000
0000
0100
0000
,
0001
0000
0000
1000
0000
0000
0001
0000
0000
0010
0000
0000
0100
0000
0010
0000
,
0001
0000
0000
0010
0000
0000
0100
0000
0000
1000
0000
0000
0100
0000
1000
0000
,
0010
0000
0000
0100
0000
0000
0001
0000
0000
0010
0000
0000
0100
0000
0010
0000
,
0001
0000
0000
0100
0000
0000
0010
0000
0000
1000
0000
0000
0001
0000
1000
0000
,
0000
0000
0001
0100
0000
0000
0010
0000
0000
1000
0000
0000
0001
0000
0010
0000
,
0000
0000
0100
1000
0000
0000
0100
0000
0000
0010
0000
0000
0001
0000
1000
0000
,
0001
0000
0000
0100
0000
0000
0010
0000
0000
1000
0000
0000
0001
0000
0010
0000
,
0100
0000
0000
0010
0000
0000
0001
0000
0000
0100
0000
0000
0010
1000
0000
1000
,
0001
1000
0001
0010
0001
1000
0001
0001
,
1000
0010
0010
1000
0010
0010
1000
0001
,
1000
0100
1000
0001
0100
0001
1000
0001
,
0010
0100
0100
1000
0010
0010
0100
0100
;

//---------------dance-single - ----------------
#NOTES:
     dance-single:
     :
     Hard:
     16:
     0.717924,1.026551,0.128419,0.291083,1.027353,587.000000,572.000000,15.000000,34.000000,0.000000,0.000000,0.717924,1.026551,0.128419,0.291083,1.027353,587.000000,572.000000,15.000000,34.000000,0.000000,0.000000:
0000
0000
0000
0000
,
0000
0000
0000
0000
,
0000
0000
0000
0000
,
0000
0000
0000
0000
,
0000
1010
0000
0000
0101
0000
0001
0011
,
0000
0000
0000
0000
0000
0000
0010
0000
0100
0000
0000
0100
0000
0000
0010
0000
,
0000
0011
0000
0000
1100
0000
1000
1001
,
0000
0000
0000
0000
0000
0000
0010
0000
0001
0000
0000
0001
0000
0000
0010
0000
,
0200
0000
0000
0000
,
0000
0000
0000
0340
,
0031
0000
0000
1000
0000
0000
0010
0000
1000
0001
0000
0010
0000
0000
0100
1000
,
0000
0000
0100
0000
0000
1000
0000
0000
0100
0000
0000
0010
0000
0000
0100
0000
,
1000
0000
0000
0001
0000
0000
0100
0000
0001
0010
0000
0100
0000
0000
0010
0001
,
0000
0000
2000
0000
0000
3200
0000
0000
0302
0000
0000
0203
0000
0000
2300
0000
,
3001
0000
0000
0100
0000
0000
0010
0000
1000
0001
0000
0010
0000
0000
0100
1000
,
0000
0000
0100
0000
0000
1000
0000
0000
0010
0000
0000
1000
0000
0000
0001
0000
,
0100
0000
0000
0010
0000
0000
1000
0000
0001
0010
0000
0001
0000
0000
1000
0010
,
0000
0000
0100
0000
0000
0100
0000
0000
0010
0100
0000
0000
1001
0000
0000
0000
,
1000
0100
0000
0010
0000
0000
0001
0000
0010
0100
0000
1000
0000
0000
0010
0100
,
0001
0100
0010
0100
0010
0010
1000
1000
,
0001
0010
0000
0100
0000
0000
1000
0000
0100
0010
0000
0100
0000
1000
0001
0100
,
0001
1000
1000
0001
0100
0100
0010
0010
,
1000
0001
0000
0010
0000
0100
0010
0100
1000
0001
0000
0100
0000
0010
1000
0001
,
0010
0100
0010
0001
0010
0100
0010
0001
,
1000
0001
0000
0100
0000
0000
0001
1000
0000
0100
0000
0000
1000
0001
0000
0100
,
0000
0000
0010
0000
1000
0001
0000
0010
0100
0000
0010
0001
0000
0010
0100
1000
,
0001
0100
0000
0001
0000
0000
1000
0000
0100
1000
0000
0010
0000
0100
0001
1000
,
0000
0000
0100
0000
0000
1000
0000
0000
0010
0000
0000
1000
0000
0000
0001
0000
,
0010
0001
0000
0100
0000
0010
0100
0000
0010
1000
0000
0001
0000
0010
0100
1000
,
0000
0000
0100
0010
0000
0010
0001
0000
0001
0100
0000
0100
0001
0000
1000
0000
,
0100
1000
0000
0100
0000
0000
1000
0000
0010
0100
0000
0010
0000
0100
0001
1000
,
0000
0000
0001
0000
0000
0001
0000
0000
1000
0000
0000
1000
0000
0000
0010
0000
,
0100
0001
0000
0010
0000
0100
1000
0010
0000
0100
0000
0010
1000
0001
0000
1000
,
0000
0000
1001
0000
0000
1010
0000
0000
1001
0000
0000
0011
0000
0000
0010
0100
,
1000
0100
0000
0100
0010
0000
0010
0001
0000
0001
0010
0000
0100
0000
1000
0000
,
0010
1000
0000
0010
0100
0000
0020
0000
0000
0000
1030
0001
1000
0000
0001
0000
,
0100
0001
0000
0001
1000
0000
1000
0100
0000
0100
1000
0000
0001
0000
0010
0000
,
0100
0010
0000
0010
0001
0000
0001
0100
0000
0100
0010
0000
0100
0000
0001
0000
,
1000
0010
0000
0010
0100
0000
0100
0001
0000
0001
0010
0000
0010
0000
0100
0000
,
1000
0100
0000
0010
0100
0000
2000
0000
0000
0000
3001
0100
0001
0000
0100
0000
,
0010
1000
0000
1000
0001
0000
0010
0001
0000
0001
1000
0000
1000
0000
0001
0000
,
0100
0001
0000
0001
1000
0000
1000
0100
0000
0100
1000
0000
0010
0100
0010
0000
,
2000
0000
0000
3200
0000
0000
0320
0000
0000
0032
0000
0000
1003
0001
0100
0000
,
0020
0000
0000
2030
0000
0000
3002
0000
0000
0023
0000
0000
0130
1000
0100
0000
,
0020
0000
0000
0032
0000
0000
2003
0000
0000
3020
0000
0000
0130
0001
0100
0000
,
0002
0000
0000
2003
0000
0000
3200
0000
0000
2300
0000
0000
3010
0100
0010
0000
,
0000
0000
1001
0000
0000
0110
0000
0000
1001
0000
0000
0110
0000
0000
0001
1000
,
0002
0000
0000
0023
0000
0000
0032
0000
0000
2003
0000
0000
3010
0100
0010
0000
,
0200
0000
0000
0301
0000
0010
0100
0000
2000
0000
0000
3100
0000
0010
0001
0000
,
1000
0001
1000
0001
1000
0001
1000
0001
1000
0001
1000
0001
1000
0001
1000
0001
,
0100
0000
0000
0100
0000
0000
0100
0000
0000
0100
0000
0000
0010
0000
1000
0000
,
0001
0000
0000
1000
0000
0000
0100
0000
0000
1000
0000
0000
0100
0000
0010
0000
,
0001
0000
0000
0001
0000
0000
0001
0000
0000
0001
0000
0000
0010
0000
0001
0000
,
1000
0000
0000
0100
0000
0000
1000
0000
0000
0010
0000
0000
0100
0000
0001
0000
,
1000
0000
0000
1000
0000
0000
1000
0000
0000
1000
0000
0000
0100
0000
1000
0000
,
0010
0000
0000
0100
0000
0000
0001
0000
0000
0010
0000
0000
0100
0000
1000
0000
,
0010
0000
0000
0010
0000
0000
0010
0000
0000
0010
0000
0000
0100
0000
0010
0000
,
1000
0000
0000
0001
0000
0000
0010
0000
0000
0001
0000
0000
1000
0000
0001
0000
,
0000
0000
0000
0000
,
0010
0100
0010
0000
0100
0010
1000
0001
0010
0100
1000
0100
0010
0100
1000
0001
,
1000
0000
0000
0010
0000
0000
1000
0000
0000
0001
0000
0000
0010
0000
0100
0000
,
1000
0000
0000
0100
0000
0000
0010
0000
0000
0001
0000
0000
0010
0000
0001
0000
,
0000
0000
1000
0100
0000
1000
0000
0000
0010
0000
0000
0100
0000
0000
0001
0000
,
0000
0000
1000
0001
0000
1000
0000
0000
0100
0000
0000
0010
0000
0000
0100
1000
,
0010
0000
0000
1000
0000
0000
0001
0000
0000
0010
0000
0000
0100
0000
0010
0000
,
0001
0000
0000
0010
0000
0000
0100
0000
0000
0010
0000
0000
0001
0000
0010
0000
,
0000
0000
0100
0000
0000
1000
0000
0000
0010
0000
0000
0100
0000
0000
0001
0000
,
0000
0000
1000
0000
0000
0100
0000
0000
0010
0000
0000
0100
0000
0000
1000
0001
,
0100
0000
0000
0001
0000
0000
0010
0000
0000
0001
0000
0000
1000
0000
0001
0000
,
0100
0000
0000
0010
0000
0000
1000
0000
0000
0010
0000
0000
0100
0000
0001
0000
,
0010
0000
0000
0100
0000
0000
1000
0000
0000
0100
0000
0000
1000
0000
0010
0000
,
0100
0000
0000
0001
0000
0000
0010
0000
0000
0001
0000
0000
1000
0000
0001
0000
,
0000
0000
1000
0100
0000
0000
0010
0000
0000
0001
0000
0000
0100
0000
0010
0000
,
0000
0000
1000
0001
0000
0000
0100
0000
0000
0010
0000
0000
1000
0000
0001
0000
,
0010
0000
0000
0100
0000
0000
1000
0000
0000
0100
0000
0000
0010
0000
0100
0000
,
1000
0000
0000
0001
0000
0000
0100
0000
0000
0001
0000
0000
1000
0000
0001
0000
,
0010
0100
1000
0000
1000
0100
0010
0100
1000
0010
0100
0010
1000
0001
0010
0100
,
0020
0000
0130
1000
0100
1000
0002
0000
1003
0001
1000
0001
0100
0010
0100
0010
,
1000
0010
1000
0000
0010
0100
0001
0010
0100
1000
0001
1000
0001
0010
0001
1000
,
0020
0000
0130
0001
0100
0001
0200
0000
0310
1000
0010
1000
0001
0010
0001
0010
;
