#TITLE:CHRONO DIVER -NORNIR-;
#SUBTITLE:;
#ARTIST:L.E.D.;
#TITLETRANSLIT:;
#SUBTITLETRANSLIT:;
#ARTISTTRANSLIT:;
#GENRE:;
#CREDIT:;
#BANNER:CHRONO DIVER -NORNIR-.png;
#BACKGROUND:CHRONO DIVER -NORNIR--bg.png;
#LYRICSPATH:;
#CDTITLE:cdtitle.png;
#MUSIC:CHRONO DIVER -NORNIR-.ogg;
#OFFSET:0.307000;
#SAMPLESTART:65.834999;
#SAMPLELENGTH:15.547000;
#SELECTABLE:YES;
#BPMS:0.000000=185.000000
;
#STOPS:
;
#BGCHANGES:1.000=CHRONO DIVER -NORNIR-.mp4=1.000=0=0=1=====,
99999=-nosongbg-=1.000=0=0=0 // don't automatically add -songbackground-
;
#KEYSOUNDS:;
#ATTACKS:;

//---------------dance-single - Pandemonium X----------------
#NOTES:
     dance-single:
     :
     Medium:
     13:
     0.582640,0.666736,0.135418,0.621331,0.007966,512.000000,495.000000,17.000000,78.000000,0.000000,0.000000,0.582640,0.666736,0.135418,0.621331,0.007966,512.000000,495.000000,17.000000,78.000000,0.000000,0.000000:
// measure 0
0000
0000
0000
0000
,  // measure 1
0000
0000
0000
0000
,  // measure 2
0000
0000
0000
0000
,  // measure 3
0001
0000
1000
0000
0000
0001
1000
0000
,  // measure 4
0001
0000
1000
0001
0000
0001
1000
0000
,  // measure 5
0010
0000
0100
0000
0000
0010
0100
0000
,  // measure 6
0010
0000
0010
0100
0000
0100
0010
0000
,  // measure 7
1000
0000
0001
0000
0000
0010
0100
0000
,  // measure 8
0010
0000
0001
0100
0000
0100
0010
0000
,  // measure 9
0100
0000
0001
0000
0000
1000
0100
0000
,  // measure 10
1000
0100
0001
0100
1000
0100
0001
0100
,  // measure 11
1000
0000
0100
1000
0000
1000
0010
0000
,  // measure 12
0010
0100
0000
0100
0001
0000
0101
0000
,  // measure 13
0001
0000
0010
0001
0000
0001
0100
0000
,  // measure 14
0100
0010
0000
0100
0010
1000
0100
0010
,  // measure 15
0001
0000
0010
0001
0000
0001
0100
0000
,  // measure 16
0100
0010
0000
0010
0100
0000
0101
0000
,  // measure 17
0001
0000
0100
0010
0000
0010
1000
0000
,  // measure 18
0001
1000
0010
0000
1000
0001
0100
0000
,  // measure 19
1001
0000
1000
0100
0000
0100
0010
0000
,  // measure 20
0010
0001
0000
0001
0100
0000
0110
0000
,  // measure 21
0101
0000
0001
0100
0000
0100
0010
0000
,  // measure 22
0010
1000
0000
1000
0001
0010
0100
1000
,  // measure 23
0001
0000
1000
0010
0000
0010
0100
0000
,  // measure 24
0100
0001
0000
0001
0010
0100
0010
0001
,  // measure 25
1000
0000
1000
0100
0000
0100
1000
0000
,  // measure 26
1000
0100
0010
0001
0010
0100
0010
0001
,  // measure 27
1000
0001
1000
0002
0000
0203
0000
0020
,  // measure 28
0000
0000
0000
0330
,  // measure 29
1000
0001
1000
0002
0000
0203
0000
0320
,  // measure 30
0000
2030
0000
3020
0000
0230
0000
0000
,  // measure 31
0301
1000
0001
2000
0000
3200
0000
0020
,  // measure 32
0000
0000
0000
0330
,  // measure 33
0100
1000
0100
1000
0000
0200
0000
2300
,  // measure 34
0000
0000
0000
3020
0000
0230
0000
0000
,  // measure 35
0301
1000
0001
2000
0000
3002
0000
0020
,  // measure 36
0000
0000
0000
0033
,  // measure 37
0100
0010
0100
0002
0000
0203
0000
0320
,  // measure 38
0000
2030
0000
3002
0000
2003
0000
0000
,  // measure 39
3001
0010
0001
0020
0000
0032
0000
0200
,  // measure 40
0000
0000
0000
0303
,  // measure 41
0010
1000
0010
1000
0000
0010
0000
0200
,  // measure 42
0000
0000
0000
0302
0000
2003
0000
0000
,  // measure 43
3001
0001
1001
1000
,  // measure 44
0001
1000
0001
0000
1001
0000
0001
0000
,  // measure 45
1000
0001
1000
0000
1001
0000
1000
0000
,  // measure 46
1001
0000
0110
0000
1001
0000
0001
1000
,  // measure 47
0001
0000
0001
0000
1001
0000
1000
0001
,  // measure 48
1000
0000
0001
0000
1001
0000
1000
0001
,  // measure 49
1000
1000
1000
0000
1001
0000
0001
1000
,  // measure 50
0001
0100
0100
0001
1000
1000
0100
0010
,  // measure 51
0001
1000
0010
1000
0001
0010
0001
1000
,  // measure 52
0010
1000
0001
0010
0001
1000
0100
0010
,  // measure 53
0001
1000
0100
1000
0001
0100
0001
1000
,  // measure 54
0100
1000
0001
0100
0001
1000
0100
0010
,  // measure 55
0001
1000
0100
1000
0001
0100
0001
1000
,  // measure 56
0100
1000
0001
0100
0001
0010
0100
1000
,  // measure 57
0001
1000
0010
1000
0001
0010
0001
1000
,  // measure 58
0001
0100
0010
1000
0001
0100
0010
1000
,  // measure 59
0002
0000
0100
0203
0000
0010
0320
0000
,  // measure 60
1000
2030
0000
3001
0010
0100
1000
0100
,  // measure 61
0020
0000
0100
0230
0000
1000
2300
0000
,  // measure 62
0010
3020
0000
0130
1000
0100
0001
1000
,  // measure 63
0002
0000
0010
0023
0000
0100
0230
0000
,  // measure 64
0010
0320
0000
0031
0100
0010
1000
0001
,  // measure 65
0020
0000
0100
0230
0000
1000
2300
0000
,  // measure 66
3100
1000
0010
0100
0001
0010
0100
1000
,  // measure 67
0001
0000
0001
0000
1001
0000
1000
0010
,  // measure 68
0100
0001
0100
0001
0100
0001
0020
0000
,  // measure 69
0130
1000
0100
1000
0100
0000
1000
0010
,  // measure 70
0100
0000
0000
0010
0000
0000
0100
0000
0000
0000
0000
0000
0001
0000
0000
0000
0001
0000
0000
0000
0001
0000
0000
0000
,  // measure 71
2000
0000
0000
0000
0000
3100
1000
0010
,  // measure 72
1000
0001
0010
0001
1000
1000
0020
0000
,  // measure 73
0130
0010
0100
0000
1001
0000
0001
1000
,  // measure 74
0010
0001
0010
1000
0010
0001
0010
1000
,  // measure 75
0002
0000
0103
0002
0000
0013
0200
0000
,  // measure 76
0310
0002
0000
0013
0100
1000
0010
0100
,  // measure 77
0002
0000
1003
0020
0000
0130
0002
0000
,  // measure 78
0013
0200
0000
0310
0001
0100
1000
0100
,  // measure 79
0002
0000
0103
0020
0000
1030
0200
0000
,  // measure 80
0310
0002
0000
0013
0001
0100
0001
1000
,  // measure 81
0200
0000
0310
0200
0000
0310
0002
0000
,  // measure 82
0103
0010
1000
0001
0010
0100
0010
0001
,  // measure 83
2000
0000
3001
0200
0000
0310
2000
0000
,  // measure 84
3001
0200
0000
0301
0010
0100
1000
0001
,  // measure 85
2000
0000
3100
0020
0000
0130
2000
0000
,  // measure 86
3010
0200
0000
0310
1000
0001
0010
0100
,  // measure 87
2000
0000
3100
2000
0000
3100
0020
0000
,  // measure 88
0130
2000
0000
3100
1000
0010
0100
0001
,  // measure 89
1000
0010
0100
0001
1000
0010
0100
0001
,  // measure 90
1000
0001
0001
0010
0100
1000
0010
0100
,  // measure 91
2002
0000
0000
0000
,  // measure 92
0000
0000
0000
0000
,  // measure 93
3003
0000
0000
0000
;

//---------------dance-single - Pandemonium X----------------
#NOTES:
     dance-single:
     :
     Hard:
     16:
     0.752197,1.074185,0.103555,0.238973,0.354477,661.000000,648.000000,13.000000,30.000000,8.000000,0.000000,0.752197,1.074185,0.103555,0.238973,0.354477,661.000000,648.000000,13.000000,30.000000,8.000000,0.000000:
// measure 0
0000
0000
0000
0000
,  // measure 1
0000
0000
0000
0000
,  // measure 2
0000
0000
0000
0000
,  // measure 3
0001
0000
0100
0000
0000
0010
1000
0000
,  // measure 4
0100
0000
0010
0100
0000
0010
0001
1000
,  // measure 5
0001
0000
0100
0000
0000
0010
1000
0000
,  // measure 6
0001
0000
0010
0100
0000
0010
0001
1000
,  // measure 7
0100
0000
1000
0000
0000
0010
0100
0000
,  // measure 8
0010
0000
1000
0001
0000
0010
0100
0000
,  // measure 9
0010
0000
0001
0000
0000
0100
0010
0000
,  // measure 10
1001
0000
1000
0010
1000
0000
0001
0000
1000
0010
1000
0000
0001
0000
1000
0000
,  // measure 11
1001
0000
1000
0010
0000
M010
0001
0000
,  // measure 12
0001
1000
0000
0001
0010
0100
0010
0001
,  // measure 13
1000
0000
1000
0100
0000
M100
0001
0000
,  // measure 14
1000
0000
0010
0000
0000
0000
0100
0000
0001
0000
0010
0100
1000
0000
0001
0000
,  // measure 15
1000
0000
0001
0100
0000
010M
1000
0000
,  // measure 16
1000
0010
0000
1000
0100
0010
0100
1000
,  // measure 17
0001
0000
0001
0010
0000
001M
1000
0000
,  // measure 18
0001
0100
0010
1000
0100
0010
0100
1000
,  // measure 19
1001
0000
0001
0100
0000
010M
1000
0000
,  // measure 20
0010
0000
0100
0000
0000
0000
0001
0000
0010
0001
0010
0100
0010
0001
1000
0001
,  // measure 21
1000
0000
1000
0010
0000
M010
0001
0000
,  // measure 22
0001
0000
1000
0000
0000
0000
0100
0000
0010
0000
0100
1000
0010
0000
0100
0000
,  // measure 23
0001
0000
1000
0010
0000
M010
0001
0000
,  // measure 24
1000
0000
0001
0000
0000
0000
0100
0000
0010
0100
0010
1000
0010
1000
0001
1000
,  // measure 25
0001
0000
1000
0010
0000
M010
0001
0000
,  // measure 26
1000
0000
0100
0000
0010
0000
0001
0000
1000
0010
1000
0010
0100
0001
0100
0001
,  // measure 27
0010
0010
0100
1000
0000
0001
0000
2002
,  // measure 28
0000
0000
0000
3003
,  // measure 29
1000
0010
1000
0200
0000
0301
0000
0200
,  // measure 30
0000
1300
0000
0020
0000
0230
0000
0000
,  // measure 31
0310
0010
0100
0001
0000
1000
0000
2002
,  // measure 32
0000
0000
0000
3003
,  // measure 33
1000
1000
0100
0020
0000
0031
0000
0200
,  // measure 34
0000
0000
0000
0320
0000
2030
0000
3001
,  // measure 35
1000
0100
0010
0200
0000
2300
0000
0020
,  // measure 36
0000
0000
0000
3030
,  // measure 37
0010
1000
0100
0020
0000
0031
0000
0200
,  // measure 38
0000
0301
0000
0200
0000
0320
0000
0000
,  // measure 39
0130
0010
1000
0020
0000
0230
0000
0002
,  // measure 40
0000
0000
0000
0303
,  // measure 41
1000
0001
0100
0020
0000
2030
0000
3001
,  // measure 42
0001
0000
1000
0010
1000
0000
0001
0000
1000
0010
1000
0000
0001
0000
0001
0000
,  // measure 43
1000
0000
0000
0000
1000
0000
0000
0000
1001
0000
0000
0000
0001
1000
0001
1000
,  // measure 44
0001
0000
1000
0000
0000
0000
0001
0000
1000
0000
0000
0000
0001
1000
0001
1000
,  // measure 45
0001
0000
0001
0000
1000
0000
0000
0000
0001
0000
0000
0000
1000
0001
1000
0001
,  // measure 46
1000
0000
0001
0000
0000
0000
1000
0000
0001
0000
0001
0000
1000
0001
1000
0001
,  // measure 47
0100
0000
0000
0000
0100
0000
0000
0000
0110
0000
0000
0000
0010
0100
0010
0100
,  // measure 48
0010
0000
0100
0000
0000
0000
0010
0000
0100
0000
0000
0000
0010
0100
0010
0100
,  // measure 49
0010
0000
0010
0000
0010
0000
0000
0000
0110
0000
0000
0000
0100
0010
0100
0010
,  // measure 50
0100
0000
0001
1000
0001
0000
0010
0000
0001
1000
0001
0000
0010
0000
0100
0000
,  // measure 51
1000
0100
0001
0100
1000
0100
0001
0100
,  // measure 52
1000
0100
0001
0100
1000
0100
0010
0001
,  // measure 53
1000
0010
0001
0010
1000
0010
0001
0010
,  // measure 54
1000
0000
0010
0000
0001
0000
0010
0000
1000
0000
0001
1000
0100
0000
0010
0000
,  // measure 55
0001
0010
1000
0010
0001
0010
1000
0010
,  // measure 56
0001
0010
1000
0010
0001
0010
0100
1000
,  // measure 57
0001
0100
1000
0100
0001
0100
1000
0100
,  // measure 58
0001
0000
0100
0000
0010
0000
1000
0000
0001
1000
0001
1000
0010
0100
0010
0100
,  // measure 59
0001
0001
0010
0001
0001
1000
0001
0001
,  // measure 60
0100
0001
0001
1000
0001
0010
0100
1000
,  // measure 61
0010
0010
1000
0010
0010
0100
0010
0010
,  // measure 62
1000
0000
0010
0000
0010
0000
0100
0000
0010
0000
0100
0010
1000
0000
0001
0000
,  // measure 63
1000
1000
0001
1000
1000
0010
1000
1000
,  // measure 64
0100
0000
1000
0000
1000
0000
0001
0000
1000
0100
1000
0100
0010
0001
0010
0001
,  // measure 65
0100
0100
0010
1000
1000
0001
0010
0010
,  // measure 66
0100
0000
0010
0000
0010
0000
0001
0000
0010
0001
0010
0001
1000
0100
1000
0100
,  // measure 67
0010
0000
0100
0000
1000
0000
0001
0001
,  // measure 68
1000
1000
1000
1000
0100
0100
0020
0000
,  // measure 69
0031
0000
0001
0000
0001
0000
0001
0000
0001
0000
0000
0000
1000
0001
1000
0001
,  // measure 70
0100
0000
0000
0100
0000
0000
0100
0000
0000
0100
0000
0000
0110
0000
0000
0000
0101
0000
0000
0000
0110
0000
0000
0000
,  // measure 71
2010
0000
0000
0000
3200
0000
0310
0001
,  // measure 72
0100
0100
0100
0010
0010
1000
2000
0000
,  // measure 73
3100
0000
0100
0000
0100
0000
0000
0000
0110
0000
0000
0000
0100
0010
0001
1000
,  // measure 74
0010
0000
1000
0001
1000
0000
0010
0000
1000
0001
1000
0000
0100
0000
0010
0000
,  // measure 75
0001
0100
0010
0001
0010
0100
0001
0010
,  // measure 76
0100
0000
0010
0000
0001
0000
0100
0000
0010
0100
0010
0100
0001
1000
0001
1000
,  // measure 77
0010
0100
1000
0100
0010
1000
0010
1000
,  // measure 78
0100
0010
0100
1000
0100
0010
0001
1000
,  // measure 79
0010
0100
1000
0100
0010
1000
0100
0010
,  // measure 80
0100
1000
0010
0100
0001
0010
0100
1000
,  // measure 81
0001
0100
0010
0001
0010
0100
0001
0100
,  // measure 82
0001
0010
0100
1000
0001
0010
0100
1000
,  // measure 83
0001
0000
0010
0100
0010
0000
0001
0000
1000
0010
1000
0000
0001
0000
1000
0100
,  // measure 84
1000
0000
0001
0000
1000
0000
0100
0000
0010
0100
0010
0100
0001
1000
0001
1000
,  // measure 85
0010
0000
0010
0100
0010
0000
0010
0000
0100
0001
0100
0000
0001
0000
1000
0000
,  // measure 86
0010
0000
0001
0000
0010
0000
1000
0000
0001
0000
1000
0100
0010
0000
0001
0000
,  // measure 87
1000
0000
0001
0100
0010
0000
0100
0000
0010
1000
0001
0000
0010
0000
0100
0010
,  // measure 88
0001
0000
0100
0000
0001
0000
1000
0000
0100
1000
0100
1000
0001
0100
0001
0100
,  // measure 89
0001
0000
1000
0100
1000
0000
0001
0000
1000
0100
1000
0000
0001
0100
0001
0100
,  // measure 90
0010
1000
0010
1000
0010
1000
0010
1000
0001
0100
0001
0100
0001
0100
0010
2000
,  // measure 91
0002
0000
0000
0000
,  // measure 92
0000
0000
0000
0000
,  // measure 93
3003
0000
0000
0000
;

//---------------dance-single - Pandemonium X----------------
#NOTES:
     dance-single:
     :
     Challenge:
     17:
     0.950204,1.185308,0.310665,0.581502,0.912082,835.000000,796.000000,39.000000,73.000000,0.000000,0.000000,0.950204,1.185308,0.310665,0.581502,0.912082,835.000000,796.000000,39.000000,73.000000,0.000000,0.000000:
// measure 0
0000
0000
0000
0000
,  // measure 1
0000
0000
0000
0000
,  // measure 2
0000
0000
0000
0000
,  // measure 3
1001
0001
0000
1000
1000
0000
0010
0100
,  // measure 4
0000
0001
0000
1000
1000
0100
0010
0001
,  // measure 5
0010
0010
0000
0100
0100
0000
1000
1000
,  // measure 6
0001
0100
0010
0100
0010
0100
0010
1000
,  // measure 7
0001
0001
0000
0010
0010
0000
0100
1000
,  // measure 8
0001
1000
0000
0001
0001
0100
0010
1000
,  // measure 9
0100
0100
0000
0010
0010
0000
0100
1000
,  // measure 10
0001
0000
0100
0010
1000
0010
0100
0010
1000
0001
0010
0100
0010
0001
1000
0010
,  // measure 11
1000
0100
1000
0001
0100
0001
1000
0100
,  // measure 12
1000
0000
0001
0000
0100
0000
0001
0000
0010
0100
0010
0100
1000
0100
1000
0100
,  // measure 13
0010
0001
0100
0010
0100
0001
1000
0010
,  // measure 14
1000
0000
0000
0001
0000
0000
0010
0000
0000
0100
0000
0000
1000
0000
0000
0001
1000
0001
1000
0000
0000
0010
0000
0000
,  // measure 15
0100
0010
1000
0001
0010
0001
1000
0010
,  // measure 16
1000
0000
0001
0000
0010
0000
0100
0000
1000
0100
1000
0100
0010
0001
0010
0001
,  // measure 17
0100
0001
0010
0001
0100
0010
1000
0100
,  // measure 18
1000
0100
1000
0001
0100
0001
1000
0010
0100
0010
1000
0001
0010
0100
1000
0100
,  // measure 19
0010
0001
0100
0001
1000
0010
0100
0010
,  // measure 20
1000
0000
0001
0000
0010
0000
0100
0000
1000
0010
1000
0010
0100
0010
0100
0010
,  // measure 21
1000
0010
0100
0010
1000
0010
0100
0001
,  // measure 22
0010
0000
0000
0100
0000
0000
1000
0000
0000
0100
0000
0000
0010
0000
0000
0001
1000
0001
1000
0000
0000
0010
0000
0000
,  // measure 23
0100
0010
1000
0100
1000
0010
0100
0010
,  // measure 24
1000
0000
0001
0000
0010
0000
0100
0000
0010
0001
0010
0001
0100
0010
0100
0010
,  // measure 25
1000
0100
0010
0100
1000
0001
0100
0001
,  // measure 26
1000
0100
1000
0010
0100
0010
0100
0001
0100
0001
1000
0010
1000
0010
0100
0001
,  // measure 27
0010
0000
0011
0000
0000
0001
1001
0000
,  // measure 28
1000
0010
0110
0000
0000
0100
0101
0001
,  // measure 29
0011
0000
1010
0000
0000
1000
1100
0000
,  // measure 30
1000
0000
0100
0000
0010
0000
0100
0000
1000
0100
1000
0100
1000
0100
1000
0100
,  // measure 31
1000
0000
1010
0000
0000
1000
1100
0000
,  // measure 32
0100
0100
0110
0000
0000
0010
0011
0001
,  // measure 33
0100
0000
0110
0000
0000
0010
1010
0000
,  // measure 34
1000
0001
0010
0200
0000
0302
0000
0203
,  // measure 35
1300
0000
0011
0000
0000
0001
1010
0000
,  // measure 36
0010
0010
0110
0000
0000
0100
0101
0001
,  // measure 37
1001
0000
0110
0000
0000
0100
1001
0000
,  // measure 38
1000
0000
0010
0000
0110
0000
0010
0000
0100
0000
0010
0000
1010
0000
1000
0001
,  // measure 39
1000
0100
0011
0000
0000
0001
1100
0000
,  // measure 40
1000
0010
0110
0010
0100
0001
0011
0010
,  // measure 41
0100
0000
0000
0000
0000
0000
1001
0000
0000
0000
0000
0000
0000
0000
0000
0001
0000
0000
0101
0000
0000
0100
0010
0100
,  // measure 42
0010
0000
0100
0001
0100
0001
0100
0010
1000
0001
0010
0001
1000
0100
0010
0001
,  // measure 43
0200
0000
0000
0000
1000
0000
0000
0000
0301
0000
0000
0000
0001
0010
0100
1000
,  // measure 44
0100
0000
0110
0000
0000
0000
0001
0000
1001
0000
0000
0000
0001
0100
0010
1000
,  // measure 45
0100
0000
0100
0000
0100
0000
0000
0000
1001
0000
0000
0000
0001
0100
0010
1000
,  // measure 46
0100
0001
0000
0100
1000
1000
1000
0000
,  // measure 47
0200
0000
0000
0000
0001
0000
0000
0000
1300
0000
0000
0000
0100
1000
0010
0100
,  // measure 48
0001
0000
1001
0000
0000
0000
1000
0000
1001
0000
0000
0000
0001
0100
0010
1000
,  // measure 49
0001
0000
0001
0000
0001
0000
0000
0000
0110
0000
0000
0000
0100
0010
0100
0010
,  // measure 50
0100
0000
0001
0100
0010
1000
0001
0010
0001
1000
0010
1000
0001
0010
0100
1000
,  // measure 51
0001
1000
0010
1000
0001
0010
0100
0010
,  // measure 52
0001
0000
0100
0000
0010
0000
0100
0000
0001
0100
0010
0100
0001
1000
0100
0010
,  // measure 53
0100
1000
0100
1000
0010
0100
0001
0100
,  // measure 54
0010
0000
0000
1000
0000
0000
0001
0000
0000
0010
0000
0000
0100
0000
0000
1000
0001
1000
0001
0000
0000
1000
0000
0000
,  // measure 55
0010
0100
0010
1000
0001
0010
0100
0010
,  // measure 56
0001
0000
0100
0000
0010
0000
1000
0000
0001
1000
0100
1000
0001
0100
0001
0010
,  // measure 57
0100
0010
0001
0100
0010
1000
0001
0100
,  // measure 58
0001
0100
0010
0100
0001
0010
0100
1000
0100
1000
0010
1000
0001
0010
0100
1000
,  // measure 59
0010
1000
0100
1000
0001
0100
0001
0010
,  // measure 60
0100
0000
0010
0000
0001
0000
0100
0000
0010
1000
0010
0100
0010
1000
0010
0100
,  // measure 61
0001
0010
0100
0010
0001
0100
0010
1000
,  // measure 62
0001
0000
0000
0010
0000
0000
0100
0000
0000
1000
0000
0000
0001
0000
0000
0100
0010
0100
0010
0000
0000
0100
0000
0000
,  // measure 63
0001
1000
0100
1000
0010
0100
0001
0010
,  // measure 64
0100
0000
0010
0000
0001
0000
0100
0000
0001
0100
0010
0100
0001
1000
0100
0010
,  // measure 65
0100
0000
0000
0010
0000
0000
0001
0000
0000
0100
0000
0000
0010
0000
0000
1000
0000
0000
0001
0000
0000
1000
0001
1000
,  // measure 66
0001
1000
0001
0010
0100
1000
0100
0010
0100
1000
0001
0010
0100
1000
0100
0010
,  // measure 67
0002
0000
0000
0000
2003
0000
0000
0000
3001
0000
0000
0000
0001
0010
0100
1000
,  // measure 68
0020
0000
0000
0000
0000
0030
0020
0000
0000
0000
0000
0030
0020
0000
0000
0000
0000
0030
0020
0000
0000
0000
0000
0000
0230
0000
0000
0000
0000
0300
0200
0000
0000
0000
0000
0300
0002
0000
0000
0000
0000
0000
0000
0000
0000
0000
0000
0000
,  // measure 69
0023
0000
0000
0000
0000
0000
0000
0000
0000
0000
0000
0000
0000
0000
0000
0000
0000
0000
0030
0000
0000
0000
0000
0000
0020
0000
0000
0000
0000
0000
0000
0000
0000
0000
0000
0000
0000
0000
0000
0000
0000
0000
0030
0000
0000
0000
0000
0000
0020
0000
0000
0000
0000
0000
0000
0000
0000
0000
0000
0000
0000
0000
0000
0000
0000
0000
0030
0000
0000
0000
0000
0000
0020
0000
0000
0000
0000
0000
0000
0000
0000
0000
0000
0000
0000
0000
0000
0000
0000
0000
0030
0000
0000
0000
0000
0000
0020
0000
0000
0000
0000
0000
0000
0000
0000
0000
0000
0000
0000
0000
0000
0000
0000
0000
0000
0000
0000
0000
0000
0000
0000
0000
0000
0000
0000
0000
0000
0000
0000
0000
0000
0000
0000
0000
0000
0000
0000
0000
0000
0000
0000
0000
0000
0000
0130
0000
0000
0000
0000
0000
0000
0000
0000
0000
0000
0000
0000
0000
0000
0000
1000
0000
0000
0000
0000
0000
0000
0000
0000
0000
0000
0000
0000
0000
0000
0000
0010
0000
0000
0000
0000
0000
0000
0000
0000
0000
0000
0000
0000
0000
0000
0000
,  // measure 70
0400
0000
0000
0040
0000
0000
0000
0000
0000
0000
0000
0000
0000
0000
0000
0000
0000
0000
0330
0000
0000
0000
0000
0000
2002
0000
3003
0000
0000
0000
0000
0000
2020
0000
3030
0000
0000
0000
0000
0000
2002
0000
3003
0000
0000
0000
0000
0000
,  // measure 71
0044
0000
0000
0000
0000
0000
0000
0000
0000
0000
0033
0000
0100
1000
0100
0010
,  // measure 72
0002
0000
0000
0003
0002
0000
0000
0003
0002
0000
0000
0003
0002
0000
0000
0003
0200
0000
0000
0300
0200
0000
0000
0000
0320
0000
0000
0000
0000
0000
0000
0000
,  // measure 73
2030
0000
0000
3000
2000
0000
0000
3000
2000
0000
0000
3000
2000
0000
0000
3000
2000
0000
0000
0000
0000
0000
0000
0000
3001
0000
0010
0000
0001
0000
0010
0000
,  // measure 74
0100
0000
0010
0001
0100
0010
1000
0001
0010
0100
0010
0001
0100
0010
1000
0100
,  // measure 75
0020
0030
0000
0000
0000
0000
0000
0000
0001
0000
0000
0000
0000
0000
0000
0000
0100
0000
0000
0000
0000
0000
0000
0000
0020
0030
0000
0000
0000
0000
0000
0000
1000
0000
0000
0000
0000
0000
0000
0000
0100
0000
0000
0000
0000
0000
0000
0000
2000
3000
0000
0000
0000
0000
0000
0000
0010
0000
0000
0000
0000
0000
0000
0000
,  // measure 76
0200
0300
0000
0000
0000
0000
0000
0000
0001
0000
0000
0000
0000
0000
0000
0000
0010
0000
0000
0000
0000
0000
0000
0000
0100
0000
0000
0000
0000
0000
0000
0000
2000
3000
0000
0000
0100
0000
0000
0000
0010
0000
0000
0000
0100
0000
0000
0000
2000
3000
0000
0000
0001
0000
0000
0000
0100
0000
0000
0000
0010
0000
0000
0000
,  // measure 77
0200
0300
0000
0000
0000
0000
0000
0000
0001
0000
0000
0000
0000
0000
0000
0000
0200
0300
0000
0000
0000
0000
0000
0000
0010
0000
0000
0000
0000
0000
0000
0000
0200
0300
0000
0000
0000
0000
0000
0000
0001
0000
0000
0000
0000
0000
0000
0000
0200
0300
0000
0000
0000
0000
0000
0000
0010
0000
0000
0000
0000
0000
0000
0000
,  // measure 78
2000
0000
0000
3000
0000
0000
0000
0000
0000
0000
0000
0000
0000
0000
0000
0000
0000
0000
0000
0000
0000
0000
0000
0000
0100
0000
0000
0000
0000
0000
0000
0000
0000
0000
0000
0000
0000
0000
0000
0000
0000
0000
0000
0000
0000
0000
0000
0000
1000
0000
0000
0000
0000
0000
0000
0000
0000
0000
0000
0000
0000
0000
0000
0000
0000
0000
0000
0000
0000
0000
0000
0000
0001
0000
0000
0000
0000
0000
0000
0000
0000
0000
0000
0000
0000
0000
0000
0000
0000
0000
0000
0000
0000
0000
0000
0000
0200
0000
0000
0300
0000
0000
0000
0000
0000
0000
0000
0000
0000
0000
0000
0000
0000
0000
0000
0000
0000
0000
0000
0000
0001
0000
0000
0000
0000
0000
0000
0000
1000
0000
0000
0000
0000
0000
0000
0000
0001
0000
0000
0000
0000
0000
0000
0000
1000
0000
0000
0000
0000
0000
0000
0000
0000
0000
0000
0000
0000
0000
0000
0000
0000
0000
0000
0000
0000
0000
0000
0000
0010
0000
0000
0000
0000
0000
0000
0000
0000
0000
0000
0000
0000
0000
0000
0000
0000
0000
0000
0000
0000
0000
0000
0000
,  // measure 79
2000
3000
0000
0000
0000
0000
0000
0000
0001
0000
0000
0000
0000
0000
0000
0000
0010
0000
0000
0000
0000
0000
0000
0000
0002
0003
0000
0000
0000
0000
0000
0000
0100
0000
0000
0000
0000
0000
0000
0000
0010
0000
0000
0000
0000
0000
0000
0000
2000
3000
0000
0000
0000
0000
0000
0000
0100
0000
0000
0000
0000
0000
0000
0000
,  // measure 80
0010
0000
0000
0000
0000
0000
0000
0000
0200
0300
0000
0000
0000
0000
0000
0000
1000
0000
0000
0000
0000
0000
0000
0000
0001
0000
0000
0000
0000
0000
0000
0000
0100
0000
0000
0000
0010
0000
0000
0000
1000
0000
0000
0000
0010
0000
0000
0000
1000
0000
0000
0000
0001
0000
0000
0000
0010
0000
0000
0000
0001
0000
0000
0000
,  // measure 81
1000
0100
1000
0010
1000
0001
0010
0100
,  // measure 82
0020
0030
0000
0000
0001
0000
0000
0000
0100
0000
0000
0000
0001
0000
0000
0000
0020
0030
0000
0000
0001
0000
0000
0000
1000
0000
0000
0000
0001
0000
0000
0000
0020
0030
0000
0000
0100
0000
0000
0000
0010
0000
0000
0000
0001
0000
0000
0000
0020
0030
0000
0000
0100
0000
0000
0000
1000
0000
0000
0000
0001
0000
0000
0000
,  // measure 83
0200
0300
0000
0000
0000
0000
0000
0000
0010
0000
0000
0000
0000
0000
0000
0000
1000
0000
0000
0000
0000
0000
0000
0000
0002
0003
0000
0000
0000
0000
0000
0000
0010
0000
0000
0000
0000
0000
0000
0000
0001
0000
0000
0000
0000
0000
0000
0000
2000
3000
0000
0000
0000
0000
0000
0000
0100
0000
0000
0000
0000
0000
0000
0000
,  // measure 84
0020
0030
0000
0000
0000
0000
0000
0000
0100
0000
0000
0000
0000
0000
0000
0000
0020
0030
0000
0000
0000
0000
0000
0000
0001
0000
0000
0000
0000
0000
0000
0000
0020
0030
0000
0000
0100
0000
0000
0000
1000
0000
0000
0000
0001
0000
0000
0000
0020
0030
0000
0000
0100
0000
0000
0000
0010
0000
0000
0000
0001
0000
0000
0000
,  // measure 85
2000
3000
0000
0000
0000
0000
0000
0000
0010
0000
0000
0000
0000
0000
0000
0000
0100
0000
0000
0000
0000
0000
0000
0000
0002
0003
0000
0000
0000
0000
0000
0000
0010
0000
0000
0000
0000
0000
0000
0000
0100
0000
0000
0000
0000
0000
0000
0000
0020
0030
0000
0000
0000
0000
0000
0000
0001
0000
0000
0000
0000
0000
0000
0000
,  // measure 86
1000
0000
0000
0000
0000
0000
0000
0000
0000
0000
0000
0000
0000
0000
0000
0000
0000
0000
0000
0000
0000
0000
0000
0000
0020
0000
0000
0030
0000
0000
0000
0000
0000
0000
0000
0000
0000
0000
0000
0000
0000
0000
0000
0000
0000
0000
0000
0000
0100
0000
0000
0000
0000
0000
0000
0000
0000
0000
0000
0000
0000
0000
0000
0000
0000
0000
0000
0000
0000
0000
0000
0000
0001
0000
0000
0000
0000
0000
0000
0000
0000
0000
0000
0000
0000
0000
0000
0000
0000
0000
0000
0000
0000
0000
0000
0000
0010
0000
0000
0000
0000
0000
0000
0000
0000
0000
0000
0000
0000
0000
0000
0000
0000
0000
0000
0000
0000
0000
0000
0000
0100
0000
0000
0000
0000
0000
0000
0000
1000
0000
0000
0000
0000
0000
0000
0000
0100
0000
0000
0000
0000
0000
0000
0000
1000
0000
0000
0000
0000
0000
0000
0000
0000
0000
0000
0000
0000
0000
0000
0000
0000
0000
0000
0000
0000
0000
0000
0000
0001
0000
0000
0000
0000
0000
0000
0000
0000
0000
0000
0000
0000
0000
0000
0000
0000
0000
0000
0000
0000
0000
0000
0000
,  // measure 87
0200
0300
0000
0000
0000
0000
0000
0000
1000
0000
0000
0000
0000
0000
0000
0000
0100
0000
0000
0000
0000
0000
0000
0000
0002
0003
0000
0000
0000
0000
0000
0000
0100
0000
0000
0000
0000
0000
0000
0000
1000
0000
0000
0000
0000
0000
0000
0000
0200
0300
0000
0000
0000
0000
0000
0000
0001
0000
0000
0000
0000
0000
0000
0000
,  // measure 88
1000
0000
0100
0000
0001
0000
0100
0000
1000
0100
0010
0001
0010
0100
1000
0001
,  // measure 89
2000
0000
3010
0100
0010
1000
0001
0010
0001
0100
0010
1000
0001
0010
0100
0010
,  // measure 90
0001
0100
0010
1000
0001
0010
0100
1000
0001
1000
0100
0010
0001
1000
0100
1000
,  // measure 91
0020
0000
0000
0000
,  // measure 92
0000
0000
0000
0000
,  // measure 93
0030
0000
0000
0000
;

//---------------dance-single - Pandemonium X----------------
#NOTES:
     dance-single:
     :
     Beginner:
     6:
     0.180937,0.253710,0.071692,0.031863,0.000000,159.000000,150.000000,9.000000,4.000000,0.000000,0.000000,0.180937,0.253710,0.071692,0.031863,0.000000,159.000000,150.000000,9.000000,4.000000,0.000000,0.000000:
// measure 0
0000
0000
0000
0000
,  // measure 1
0000
0000
0000
0000
,  // measure 2
0000
0000
0000
0000
,  // measure 3
0001
0000
0000
0000
,  // measure 4
1000
0000
0000
0000
,  // measure 5
0010
0000
0000
0000
,  // measure 6
1000
0000
0001
0000
,  // measure 7
1000
0000
0000
0000
,  // measure 8
0100
0000
0000
0000
,  // measure 9
0010
0000
0000
0000
,  // measure 10
1001
0000
0000
0000
,  // measure 11
0001
0000
0000
0000
,  // measure 12
0100
0000
0010
0000
,  // measure 13
0100
0000
0000
0000
,  // measure 14
0010
0000
1000
1000
,  // measure 15
0001
0000
0000
0000
,  // measure 16
1000
0000
0100
0000
,  // measure 17
1000
0000
0000
0000
,  // measure 18
0010
0000
0100
0000
,  // measure 19
1001
0000
0000
0000
,  // measure 20
1000
0000
0001
0000
,  // measure 21
0010
0000
0000
0000
,  // measure 22
0100
0000
0010
0010
,  // measure 23
0001
0000
0000
0000
,  // measure 24
0100
0000
0000
0000
,  // measure 25
0010
0000
1000
0000
,  // measure 26
1001
0000
0000
0000
,  // measure 27
0001
0000
1000
0000
,  // measure 28
0010
0000
0000
0000
,  // measure 29
1000
0000
0001
0000
,  // measure 30
0010
0000
0001
0000
,  // measure 31
1000
0000
0001
0000
,  // measure 32
0100
0000
0000
0000
,  // measure 33
0001
0000
1000
0000
,  // measure 34
0100
0000
1000
1000
,  // measure 35
0001
0000
1000
0000
,  // measure 36
0010
0000
0000
0000
,  // measure 37
1000
0000
0001
0000
,  // measure 38
0100
0000
0001
0000
,  // measure 39
1000
0000
0010
0000
,  // measure 40
1000
0000
0000
0000
,  // measure 41
0001
0000
0010
0000
,  // measure 42
0001
0000
0000
0000
,  // measure 43
1000
1000
0000
0000
,  // measure 44
0001
0000
0000
0000
,  // measure 45
0100
0100
0100
0000
,  // measure 46
0010
0000
0000
0000
,  // measure 47
1000
1000
0000
0000
,  // measure 48
0001
0000
0000
0000
,  // measure 49
0010
0010
0010
0000
,  // measure 50
0110
0000
0000
0000
,  // measure 51
1001
0000
0000
0000
,  // measure 52
0001
0000
1000
0000
,  // measure 53
0010
0000
0000
0000
,  // measure 54
1000
0000
0010
0000
,  // measure 55
0100
0000
0000
0000
,  // measure 56
0001
0000
0010
0000
,  // measure 57
0100
0000
0000
0000
,  // measure 58
0010
0010
0001
0001
,  // measure 59
1000
0000
0000
0000
,  // measure 60
0001
0000
0000
0000
,  // measure 61
0100
0000
0010
0000
,  // measure 62
1000
0000
0000
0000
,  // measure 63
0100
0000
0000
0000
,  // measure 64
0010
0000
0000
0000
,  // measure 65
0001
0000
1000
0000
,  // measure 66
0010
0000
0000
0000
,  // measure 67
0100
0100
0000
0020
,  // measure 68
0000
0000
0000
0030
,  // measure 69
2000
0000
3000
0001
,  // measure 70
0002
0000
0013
0000
,  // measure 71
0210
0000
0000
1300
,  // measure 72
1000
0000
0001
0000
,  // measure 73
0100
0100
0100
0000
,  // measure 74
0110
0000
0000
0000
,  // measure 75
1001
0000
0000
0001
0000
0000
0001
0000
,  // measure 76
0000
0001
0000
0000
0001
0000
0000
0000
,  // measure 77
1000
0000
0000
1000
0000
0000
1000
0000
,  // measure 78
0000
1000
0000
0000
1000
0000
0000
0000
,  // measure 79
0010
0000
0000
0010
0000
0000
0010
0000
,  // measure 80
0000
0010
0000
0000
0000
0000
0000
0000
,  // measure 81
0100
0000
0000
0100
0000
0000
0100
0000
,  // measure 82
0000
0100
0000
0000
0000
0000
0000
0000
,  // measure 83
0001
0000
0000
1000
0000
0000
0001
0000
,  // measure 84
0000
1000
0000
0000
0000
0000
0000
0000
,  // measure 85
0010
0000
0000
0100
0000
0000
0010
0000
,  // measure 86
0000
0100
0000
0000
0000
0000
0000
0000
,  // measure 87
0010
0000
0000
1000
0000
0000
0010
0000
,  // measure 88
0000
1000
0000
0000
0000
0000
0000
0000
,  // measure 89
0001
0000
1000
0000
,  // measure 90
0010
0000
0100
0000
,  // measure 91
1001
0000
0000
0000
;

//---------------dance-single - Pandemonium X----------------
#NOTES:
     dance-single:
     :
     Easy:
     9:
     0.377806,0.555613,0.175247,0.103555,0.000000,332.000000,310.000000,22.000000,13.000000,0.000000,0.000000,0.377806,0.555613,0.175247,0.103555,0.000000,332.000000,310.000000,22.000000,13.000000,0.000000,0.000000:
// measure 0
0000
0000
0000
0000
,  // measure 1
0000
0000
0000
0000
,  // measure 2
0000
0000
0000
0000
,  // measure 3
0001
0000
1000
0000
0000
0001
1000
0000
,  // measure 4
0001
0000
1000
0000
0000
0001
1000
0000
,  // measure 5
0001
0000
1000
0000
0000
0001
1000
0000
,  // measure 6
0001
1000
0010
0100
,  // measure 7
0010
0000
1000
0000
0000
0010
0100
0000
,  // measure 8
0010
0000
1000
0000
0000
0010
0100
0000
,  // measure 9
0001
0000
0010
0000
0000
0100
0010
0000
,  // measure 10
0001
0010
0100
1000
,  // measure 11
0001
0000
0000
1000
0000
0000
0010
0000
,  // measure 12
0000
1000
0000
0000
0100
0000
1000
0000
,  // measure 13
0010
0000
0000
0100
0000
0000
0010
0000
,  // measure 14
0000
1000
0000
0000
0001
1000
0001
0000
,  // measure 15
1000
0000
0000
0001
0000
0000
0010
0000
,  // measure 16
0000
0001
0000
0000
0100
0000
0001
0000
,  // measure 17
0010
0000
0000
0100
0000
0000
0010
0000
,  // measure 18
0001
0010
0100
1000
,  // measure 19
0001
0000
0000
1000
0000
0000
0010
0000
,  // measure 20
0000
1000
0000
0000
0100
0000
0010
0000
,  // measure 21
0001
0000
0000
0010
0000
0000
0001
0000
,  // measure 22
0000
0100
0000
0000
0010
1000
0010
0000
,  // measure 23
1000
0000
0000
0001
0000
0000
0010
0000
,  // measure 24
0000
0001
0000
0000
0100
0000
0010
0000
,  // measure 25
1000
0000
0000
0001
0000
0000
0010
0000
,  // measure 26
0001
0100
0001
1000
,  // measure 27
0100
0000
0000
1000
0000
0010
0000
2000
,  // measure 28
0000
0000
0000
0000
,  // measure 29
3001
0000
0000
1000
0000
0100
0000
0010
,  // measure 30
0000
0100
0000
1000
0000
0002
0000
0000
,  // measure 31
0103
0000
0000
0010
0000
1000
0000
0200
,  // measure 32
0000
0000
0000
0000
,  // measure 33
0310
0000
0000
0001
0000
0100
0000
0010
,  // measure 34
0000
0000
0000
0100
0000
0020
0000
0000
,  // measure 35
1030
0000
0000
0100
0000
1000
0000
0020
,  // measure 36
0000
0000
0000
0000
,  // measure 37
0130
0000
0000
0010
0000
0100
0000
0001
,  // measure 38
0000
0010
0000
0001
0000
0200
0000
0000
,  // measure 39
0310
0000
0000
1000
0000
0001
0000
0020
,  // measure 40
0000
0000
0000
0000
,  // measure 41
0130
0000
0000
0010
0000
0001
0000
0100
,  // measure 42
0010
1000
0001
0010
,  // measure 43
0100
0100
1100
1000
,  // measure 44
0010
0100
0110
0110
,  // measure 45
0100
0001
0101
0001
,  // measure 46
0011
0010
0110
0000
,  // measure 47
0110
0110
0110
1000
,  // measure 48
0001
0100
0101
0001
,  // measure 49
1001
1001
1001
1000
,  // measure 50
0010
1000
0001
0010
,  // measure 51
0100
0000
0000
0010
0000
0000
0001
0000
,  // measure 52
0000
0100
0000
0000
0010
1000
0010
0000
,  // measure 53
1000
0000
0000
0001
0000
0000
0010
0000
,  // measure 54
0000
0100
0000
0000
0010
0001
0100
0000
,  // measure 55
0010
0000
0000
1000
0000
0000
0010
0000
,  // measure 56
0000
0100
0000
0000
0010
1000
0010
0000
,  // measure 57
1000
0000
0000
0001
0000
0000
0010
0000
,  // measure 58
0001
0010
0100
1000
,  // measure 59
0001
0000
0000
1000
0000
0000
0010
0000
,  // measure 60
0000
1000
0000
0000
0100
0010
0100
0000
,  // measure 61
0010
0000
0000
0001
0000
0000
0100
0000
,  // measure 62
0000
0010
0000
0000
1000
0001
0010
0000
,  // measure 63
0100
0000
0000
0010
0000
0000
0001
0000
,  // measure 64
0000
0100
0000
0000
0010
1000
0010
0000
,  // measure 65
1000
0000
0000
0001
0000
0000
0010
0000
,  // measure 66
0001
0010
0100
1000
,  // measure 67
1001
0000
0110
0000
0000
0000
1000
0001
,  // measure 68
1000
0001
1000
0001
1000
0001
2000
0000
,  // measure 69
3010
0100
0010
0100
0010
0000
1000
0010
,  // measure 70
0200
0000
0320
0000
,  // measure 71
2030
0000
0000
0000
0000
0000
3100
0010
,  // measure 72
0100
0010
0001
0100
,  // measure 73
0001
0100
0001
0000
0100
0000
0010
1000
,  // measure 74
0001
0010
0100
1000
,  // measure 75
1001
0000
0000
1000
0000
0000
0001
0000
,  // measure 76
0000
0010
0000
0000
0100
0010
0001
0000
,  // measure 77
0010
0000
0000
0001
0000
0000
0100
0000
,  // measure 78
0000
0010
0000
0000
1000
0100
0001
0000
,  // measure 79
0100
0000
0000
1000
0000
0000
0010
0000
,  // measure 80
0000
0100
0000
0000
0010
0100
0001
0000
,  // measure 81
0010
0000
0000
0100
0000
0000
1000
0000
,  // measure 82
0100
0001
0100
1000
,  // measure 83
1010
0000
0000
0010
0000
0000
0100
0000
,  // measure 84
0000
0001
0000
0000
0010
0001
0100
0000
,  // measure 85
0010
0000
0000
1000
0000
0000
0001
0000
,  // measure 86
0000
1000
0000
0000
0001
0010
1000
0000
,  // measure 87
0010
0000
0000
0001
0000
0000
1000
0000
,  // measure 88
0000
0001
0000
0000
1000
0001
0010
0000
,  // measure 89
0001
0100
0010
1000
,  // measure 90
1001
0110
0101
1100
,  // measure 91
2002
0000
0000
0000
,  // measure 92
0000
0000
0000
0000
,  // measure 93
3003
0000
0000
0000
;
