#VERSION:0.83;
#TITLE:빵;
#SUBTITLE:;
#ARTIST:노라조;
#TITLETRANSLIT:Bread;
#SUBTITLETRANSLIT:;
#ARTISTTRANSLIT:NORAZO;
#GENRE:;
#ORIGIN:;
#CREDIT:;
#BANNER:Bread.png;
#BACKGROUND:Bread-bg.png;
#PREVIEWVID:;
#JACKET:Bread-jacket.png;
#CDIMAGE:;
#DISCIMAGE:;
#LYRICSPATH:;
#CDTITLE:cdtitle.png;
#MUSIC:Bread.ogg;
#OFFSET:-0.025000;
#SAMPLESTART:40.976002;
#SAMPLELENGTH:23.415001;
#SELECTABLE:YES;
#BPMS:0.000=164.000;
#STOPS:;
#DELAYS:;
#WARPS:;
#TIMESIGNATURES:0.000=4=4;
#TICKCOUNTS:0.000=4;
#COMBOS:0.000=1;
#SPEEDS:0.000=1.000=0.000=0;
#SCROLLS:0.000=1.000;
#FAKES:;
#LABELS:0.000=Song Start;
#BGCHANGES:0.000=Bread.avi=1.000=1=0=0=StretchNoLoop==CrossFade==,
99999=-nosongbg-=1.000=0=0=0 // don't automatically add -songbackground-
;
#KEYSOUNDS:;
#ATTACKS:
;

//---------------dance-single - ----------------
#NOTEDATA:;
#CHARTNAME:;
#STEPSTYPE:dance-single;
#DESCRIPTION:;
#CHARTSTYLE:;
#DIFFICULTY:Beginner;
#METER:5;
#RADARVALUES:0.178784,0.300823,0.093279,0.077732,0.000000,161.000000,149.000000,12.000000,10.000000,0.000000,0.000000,0.000000,0.000000,0.000000,0.178784,0.300823,0.093279,0.077732,0.000000,161.000000,149.000000,12.000000,10.000000,0.000000,0.000000,0.000000,0.000000,0.000000;
#CREDIT:Pandemonium X;
#NOTES:
0000
0000
0000
0000
,
0000
0000
0000
0000
,
0000
0000
0000
0000
,
0000
0000
0000
0000
,
0000
0000
0000
0000
,
0001
0000
1000
0000
,
0001
0000
0000
0000
,
0100
0000
0010
0000
,
0100
0000
0000
0000
,
2002
0000
0000
3003
,
0010
0000
0000
0000
,
1000
0000
0000
0000
,
0001
0001
0001
0000
,
0100
0000
0000
0000
,
0010
0010
0010
0000
,
1000
0000
0000
0000
,
0110
0000
1001
0000
,
1000
0000
0000
0000
,
0001
0001
0001
0000
,
0100
0000
0010
0000
,
0100
0000
0000
0000
,
0001
0000
0010
0000
,
0100
0000
1000
0000
,
0001
0000
1000
0000
,
0001
0000
0000
0000
,
0100
0000
0010
0000
,
1001
0000
0000
0000
,
0000
0000
0000
0000
,
0010
0000
0010
0010
,
0000
0000
0000
0000
,
0100
0000
0100
0100
,
0000
0000
0000
0000
,
0001
0000
1000
0000
,
0010
0000
1000
0000
,
0100
0000
0010
0000
,
0002
0000
0000
0003
,
1000
0000
0001
0000
,
1000
0000
0000
0000
,
0010
0000
0100
0000
,
0010
0000
0000
0000
,
1000
0000
0000
0000
,
0001
0000
0000
0000
,
0100
0000
0010
0000
,
1001
0000
0000
0000
,
0001
0001
0001
0001
,
0001
0001
0001
0000
,
1000
1000
1000
1000
,
1000
1000
1000
0000
,
0010
0010
0010
0010
,
0100
0010
0100
0000
,
2002
0000
0000
0000
,
0000
0000
0000
3003
,
0100
0000
0001
0000
,
1000
0000
0000
0000
,
0100
0000
1000
0000
,
0001
0000
0000
0000
,
0100
0000
0010
0000
,
1000
0000
0000
0000
,
0001
0000
1000
0000
,
0100
0000
0010
0000
,
0200
0000
0000
0300
,
0020
0000
0000
0030
,
1001
0000
0001
0001
,
1000
0000
0000
0000
,
1001
0000
1000
1000
,
0001
0000
0000
0000
,
0100
0000
0010
0000
,
1000
0000
0001
0000
,
0010
0000
0100
0000
,
1001
0000
0000
0000
,
0110
0000
0100
0000
,
0010
0000
1000
0000
,
0110
0000
0100
0000
,
0001
0000
1000
0000
,
0001
0000
0010
0000
,
0100
0000
1000
0000
,
0001
0000
1000
0000
,
0020
0000
0000
0030
,
0100
0100
0100
0100
,
0100
0100
0100
0000
,
0010
0010
0010
0010
,
0010
0010
0010
0000
,
1000
1000
1000
1000
,
1000
0001
1000
0000
,
0220
0000
0000
0000
,
0000
0000
0000
0000
,
0330
0000
0000
0000
;

//---------------dance-single - ----------------
#NOTEDATA:;
#CHARTNAME:;
#STEPSTYPE:dance-single;
#DESCRIPTION:;
#CHARTSTYLE:;
#DIFFICULTY:Easy;
#METER:7;
#RADARVALUES:0.309818,0.531687,0.505259,0.108825,0.000000,279.000000,214.000000,65.000000,14.000000,0.000000,0.000000,0.000000,0.000000,0.000000,0.309818,0.531687,0.505259,0.108825,0.000000,279.000000,214.000000,65.000000,14.000000,0.000000,0.000000,0.000000,0.000000,0.000000;
#CREDIT:Pandemonium X;
#NOTES:
0000
0000
0000
0000
,
0000
0000
0000
0000
,
0000
0000
0000
0000
,
0000
0000
0000
0000
,
0000
0000
0000
0000
,
0001
0000
1000
0000
,
0010
0010
0010
0000
,
1000
0000
0001
0000
,
0100
0100
0100
0100
,
2002
0000
0000
0000
,
3003
0000
0000
0000
,
0001
0000
1000
0000
,
0010
0010
0010
0000
,
1000
0000
0001
0000
,
0100
0100
0100
0000
,
0010
0000
1000
0000
,
0101
0000
0011
0000
,
0010
0000
0001
0000
,
1000
1000
1000
0000
,
0001
0100
0001
0010
,
0100
0000
1000
0000
,
0100
0000
1000
0000
,
0010
0000
0100
0000
,
0010
1000
0100
1000
,
0010
0000
1000
0000
,
0001
0000
1000
0000
,
0220
0000
0000
0000
,
0330
0000
0000
0000
,
1001
0001
1001
1001
,
1000
0001
0100
0000
,
1001
1000
1001
1001
,
0001
1000
0010
0000
,
1000
0000
0100
0000
,
0010
0100
1000
0001
,
0100
0001
0010
0100
,
2000
0000
0000
3000
,
1001
1000
0100
0010
,
0001
0010
0100
0000
,
1001
0001
0010
0100
,
0010
0001
1000
0000
,
0001
0000
1000
0000
,
0010
0000
0100
0000
,
0001
0100
0001
1000
,
0200
0000
0000
0300
,
1001
1001
1001
1001
,
1001
1001
1001
0000
,
0110
0110
0110
0110
,
0110
0110
0110
0000
,
1001
1001
1001
1001
,
0110
1001
0110
0000
,
2002
0000
0000
0000
,
0000
0000
0000
3003
,
0001
0000
1000
0000
,
0010
0000
1000
0000
,
0100
0000
1000
0000
,
0010
0010
0000
0000
,
0100
0000
0010
0000
,
1000
0000
0001
0000
,
0010
0000
0100
0000
,
0010
0001
1000
0000
,
0002
0000
0000
0000
,
2000
0000
0000
3003
,
0110
0100
0110
0110
,
0100
0001
1000
0000
,
0110
0010
0110
0110
,
0100
1000
0001
0000
,
1000
0000
0001
0000
,
0100
0001
0010
0001
,
1000
1000
0001
0001
,
0200
0000
0000
0300
,
0110
0100
0010
1000
,
0001
0010
0100
0000
,
0110
0100
0010
0001
,
1000
0010
1000
0000
,
0001
0000
1000
0000
,
0100
1000
0010
0100
,
0010
0100
0001
1000
,
0200
0000
0000
0300
,
0110
0110
0110
0110
,
0110
0110
0110
0000
,
1001
1001
1001
1001
,
1001
1001
1001
0000
,
0110
0110
0110
0110
,
1001
0110
1001
0000
,
0220
0000
0000
0330
,
1000
0001
0110
0000
;

//---------------dance-single - ----------------
#NOTEDATA:;
#CHARTNAME:;
#STEPSTYPE:dance-single;
#DESCRIPTION:;
#CHARTSTYLE:;
#DIFFICULTY:Medium;
#METER:9;
#RADARVALUES:0.368672,0.533242,0.598537,0.155464,0.000000,332.000000,255.000000,77.000000,20.000000,0.000000,0.000000,0.000000,0.000000,0.000000,0.368672,0.533242,0.598537,0.155464,0.000000,332.000000,255.000000,77.000000,20.000000,0.000000,0.000000,0.000000,0.000000,0.000000;
#CREDIT:Pandemonium X;
#NOTES:
0000
0000
0000
0000
,
0000
0000
0000
0000
,
0000
0000
0000
0000
,
0000
0000
0000
0000
,
0000
0000
0000
0000
,
0001
0100
0010
1000
,
0001
0010
0100
0000
,
0010
0001
0100
0001
,
1000
0001
0100
0010
,
2000
0000
0000
0000
,
0001
3001
0000
0000
0000
0000
0000
0000
,
1000
0001
0100
0001
,
1001
1001
1001
0000
,
1000
0100
0010
0100
,
1100
0011
1100
0000
,
1000
0100
1000
0010
,
0210
0000
0301
0000
,
1000
0001
0010
0001
,
0011
0110
1100
0000
,
1000
0010
0100
0001
,
0010
0001
0000
1000
0000
0000
0001
0000
,
1000
0010
1000
0001
,
0010
0100
0010
0001
,
1000
0010
1000
0100
,
0010
0100
0000
1000
0000
0100
0010
0000
,
0100
0000
1000
0000
0010
0100
0000
0002
,
0000
0000
0000
0000
,
0003
0000
0000
0000
,
1001
0000
0001
1000
1001
0000
1001
0000
,
0001
0100
0010
0000
,
1001
0000
1000
0001
1001
0000
1001
0000
,
1000
0100
1000
0000
,
2000
0000
3020
0000
,
0130
0001
0010
1000
,
0010
0000
0100
0000
1000
0001
0000
0220
,
0000
0000
0000
0330
,
1001
0001
0100
0010
,
1000
0010
0100
0000
,
0101
0001
0010
0100
,
0010
0001
1000
0000
,
0101
0000
0001
0000
,
1000
0100
1000
0010
,
0100
0000
0001
0000
0010
0100
0000
0022
,
0000
0000
0000
0033
,
1001
0110
1001
0110
,
1001
0110
1001
0000
,
1001
0110
1001
0110
,
1001
0110
1001
0000
,
1001
0110
1001
0110
,
1001
0110
1001
0000
,
0220
0000
0000
0000
,
0000
0000
0000
0330
,
2000
0000
3002
0000
,
0013
0100
0010
0001
,
1000
0010
0100
0010
,
1000
0200
0000
0000
,
0310
0010
0100
0100
,
1000
0001
0100
0001
,
0010
0100
0010
0001
,
1000
0010
0100
0000
,
0002
0000
0000
0000
,
2000
0000
0000
3003
,
0110
0000
0010
0100
0110
0000
0110
0000
,
0100
0001
1000
0000
,
0110
0000
0010
0100
0110
0000
0110
0000
,
0100
0010
0001
0000
,
1000
0000
0001
0000
,
0100
0001
0010
0100
,
0010
0000
0001
0000
0100
0010
0000
2002
,
0000
0000
0000
3003
,
0101
0001
0100
0010
,
1000
0100
0010
0000
,
1100
1000
0100
0010
,
0100
1000
0001
0000
,
0101
0000
1010
0000
,
0001
1000
0100
1000
,
0001
0000
0010
0000
0100
1000
0000
0011
,
0000
0000
0000
0000
,
0101
1010
0101
1010
,
0101
1010
1001
0000
,
1100
0011
1100
0011
,
1100
0011
1001
0000
,
1100
0110
0011
0110
,
1100
0110
1001
0000
,
0120
0000
0000
0000
,
0100
0100
0200
0330
;

//---------------dance-single - ----------------
#NOTEDATA:;
#CHARTNAME:;
#STEPSTYPE:dance-single;
#DESCRIPTION:;
#CHARTSTYLE:;
#DIFFICULTY:Hard;
#METER:12;
#RADARVALUES:0.480828,0.568222,0.598537,0.427526,0.054412,433.000000,356.000000,77.000000,55.000000,0.000000,0.000000,0.000000,0.000000,0.000000,0.480828,0.568222,0.598537,0.427526,0.054412,433.000000,356.000000,77.000000,55.000000,0.000000,0.000000,0.000000,0.000000,0.000000;
#CREDIT:Pandemonium X;
#NOTES:
// measure 0
0000
0000
0000
0000
,  // measure 1
0000
0000
0000
0000
,  // measure 2
0000
0000
0000
0000
,  // measure 3
0000
0000
0000
0000
,  // measure 4
0000
0000
0000
0000
,  // measure 5
1000
0011
0001
1010
,  // measure 6
1000
0000
0001
0100
0000
0100
0010
1000
0002
0000
0000
0000
0000
0000
0000
0000
,  // measure 7
0013
1100
0010
0101
,  // measure 8
1000
0000
0001
0100
0000
0010
1000
0000
0100
0010
0000
0100
1000
0000
0001
0000
,  // measure 9
0200
0000
0000
0000
,  // measure 10
0010
0020
0000
0000
0000
0000
0330
0000
,  // measure 11
1000
0000
0000
0000
0010
0000
0000
1000
0100
0000
1000
0000
0001
0000
0100
0000
,  // measure 12
0110
0110
0110
0000
,  // measure 13
1000
0000
0000
0000
0001
0000
0000
0001
0010
0000
0001
0000
1000
0000
0100
0000
,  // measure 14
0110
0011
0110
0000
,  // measure 15
0001
0000
1000
0100
0010
0001
0100
0010
,  // measure 16
2001
0000
3010
0000
,  // measure 17
0100
0000
0000
0000
0001
0000
0000
1000
0010
0000
1000
0000
0001
0000
0010
0000
,  // measure 18
0110
1100
0110
0000
,  // measure 19
2000
3100
0002
0103
,  // measure 20
0001
1000
0000
0010
0000
1000
0100
0010
,  // measure 21
0100
0000
0000
0010
0000
0000
0001
0000
0100
0000
0000
0010
0000
0000
1000
0000
,  // measure 22
0001
0000
0000
0010
0000
0000
0001
0000
1000
0000
0000
0100
0000
0000
0010
0000
,  // measure 23
0002
0013
2000
3010
,  // measure 24
1000
0001
0000
0100
0000
0001
1000
0010
,  // measure 25
1000
1000
0001
0010
0010
0100
0000
0220
,  // measure 26
0000
0000
0000
0000
,  // measure 27
0330
0000
0000
0000
,  // measure 28
1001
0000
1000
1000
1010
0000
1010
0000
,  // measure 29
1000
0100
1000
0001
0020
0000
0030
0000
,  // measure 30
1001
0000
0001
0001
0101
0000
0101
0000
,  // measure 31
0001
0010
0001
1000
0200
0000
0300
0000
,  // measure 32
0020
0000
0000
0031
0200
0000
0000
0310
,  // measure 33
2000
3002
0023
0230
,  // measure 34
0310
0010
0001
0100
0010
1000
0000
0202
,  // measure 35
0000
0000
0000
0303
,  // measure 36
1010
0000
1000
0001
0100
0100
0001
1000
,  // measure 37
0001
0010
1000
0010
0001
0000
0000
0000
,  // measure 38
1001
0000
0001
1000
0010
0010
1000
0001
,  // measure 39
1000
0100
0001
0100
2000
0000
3000
0000
,  // measure 40
0200
0000
0000
1300
0020
0000
0000
0130
,  // measure 41
0020
2030
3002
0203
,  // measure 42
0301
0001
1000
0010
0010
0100
0000
0220
,  // measure 43
0000
0000
0000
0330
,  // measure 44
1001
0110
1001
0110
,  // measure 45
1001
0110
1001
0000
,  // measure 46
0101
1010
0101
1010
,  // measure 47
0101
1010
0101
0000
,  // measure 48
1100
0011
1100
0011
,  // measure 49
1100
0100
0100
0000
1100
0000
0000
0000
,  // measure 50
0220
0000
0000
0000
,  // measure 51
0000
0000
0000
0330
,  // measure 52
2000
0000
0000
3001
0200
0000
0000
0000
,  // measure 53
0301
0010
1000
0010
0001
0100
0010
1000
,  // measure 54
0001
1000
0010
1000
0001
0010
0100
1000
,  // measure 55
0001
1000
0020
0000
0000
0000
0000
0000
,  // measure 56
1030
0001
0100
0010
1000
0001
0100
0010
,  // measure 57
1000
0100
0010
0100
1000
0001
0010
0100
,  // measure 58
0010
0001
0100
0001
1000
0010
0100
0001
,  // measure 59
1000
0100
0010
0002
2000
0000
0003
0000
,  // measure 60
3020
0000
0000
0000
,  // measure 61
0200
0000
0000
0330
,  // measure 62
1001
0000
0001
0001
0011
0000
1100
0000
,  // measure 63
0001
0010
1000
0010
0002
0000
0003
0000
,  // measure 64
1001
0000
1000
1000
1010
0000
0101
0000
,  // measure 65
1000
0100
0001
0100
2000
0000
3000
0000
,  // measure 66
0002
0000
0000
0103
0020
0000
0000
1030
,  // measure 67
0200
2300
3020
0230
,  // measure 68
0301
0100
1000
0100
0001
1000
0000
2002
,  // measure 69
0000
0000
0000
3003
,  // measure 70
0011
0000
0001
0001
1000
0010
0001
0010
,  // measure 71
0100
0010
1000
0100
0020
0000
0030
0000
,  // measure 72
1100
0000
0001
0001
1000
0100
0001
0100
,  // measure 73
1000
0010
1000
0001
0020
0000
0030
0000
,  // measure 74
0001
0000
0000
0100
0010
0000
0000
1000
,  // measure 75
0100
1000
0010
0100
,  // measure 76
0010
0010
0100
0001
1000
0001
0000
0220
,  // measure 77
0000
0000
0000
0330
,  // measure 78
0101
1010
0101
1010
,  // measure 79
0101
1010
0101
0000
,  // measure 80
1100
0011
1100
0011
,  // measure 81
1100
0011
1100
0000
,  // measure 82
1001
0110
1001
0110
,  // measure 83
1001
0001
0001
0000
1001
0000
0000
0000
,  // measure 84
0220
0000
0000
0030
,  // measure 85
1000
0001
2000
0000
,  // measure 86
3300
0000
0000
0000
;

//---------------dance-single - ----------------
#NOTEDATA:;
#CHARTNAME:;
#STEPSTYPE:dance-single;
#DESCRIPTION:;
#CHARTSTYLE:;
#DIFFICULTY:Challenge;
#METER:16;
#RADARVALUES:0.650729,1.096605,0.691816,0.435300,0.279836,586.000000,430.000000,89.000000,56.000000,6.000000,67.000000,6.000000,0.000000,0.000000,0.650729,1.096605,0.691816,0.435300,0.279836,586.000000,430.000000,89.000000,56.000000,6.000000,67.000000,6.000000,0.000000,0.000000;
#CREDIT:BREADKET SPECIAL;
#NOTES:
0000
0000
0000
0000
,
0000
0000
0000
0000
,
0000
0000
0000
0000
,
0000
0000
0000
0000
,
0000
0000
0000
0000
,
1000
0100
0001
0100
1000
0010
0001
0010
,
1000
0000
0010
0100
0000
0100
0010
1000
0002
0000
0000
0000
0000
0000
0000
0000
,
1003
0100
0001
0100
1000
0010
0001
0010
,
0100
0010
1000
0001
0100
0010
1000
0001
0100
0010
1000
0001
0100
0010
1000
0001
,
0100
0010
0100
0010
0100
0010
0100
0010
0100
0010
0100
0010
0100
0010
0100
0010
,
4000
0004
0000
0000
0000
0000
0000
0000
0000
0000
0000
0000
3003
0000
0000
0000
,
1100
0000
0000
0000
0101
0000
0000
0001
0010
0000
0001
0000
1000
0000
0010
0000
,
1110
1110
1110
0000
,
0011
0000
0000
0000
1010
0000
0000
1000
0100
0000
1000
0000
0001
0000
0010
0000
,
0111
1011
0111
0000
,
1010
0000
0000
0000
0101
0000
0000
0010
1000
0000
0001
0000
0010
0000
0100
0000
,
1002
0000
1010
0003
,
1100
0000
0000
0000
1010
0000
0000
0001
0100
0000
0001
0000
1000
0000
0100
0000
,
0111
1101
1110
0000
,
0201
0000
0000
0300
0M10
0000
0000
0000
2010
0000
0000
3000
M100
0000
0000
0000
,
0010
0001
0000
1001
0000
0001
0100
0010
,
0100
0000
0000
0100
0000
0000
0200
0000
0001
0000
0000
0001
0000
0000
0302
0000
,
1000
0000
0000
1000
0000
0000
2003
0000
0100
0000
0000
0100
0000
0000
3100
0000
,
0210
0000
0000
0300
1M00
0000
0000
0000
1020
0000
0000
0030
01M0
0000
0000
0000
,
0010
1000
0000
0101
0000
0001
0010
0010
,
0001
0001
1000
0001
0100
0100
0000
2002
,
0000
0000
0000
0000
0000
0000
0000
0000
0000
0000
0000
0000
0000
0000
0000
3003
,
M00M
0000
0000
0000
,
1110
0000
1000
1000
1110
0000
1110
0000
,
0001
0010
0001
1000
0020
0000
0030
0000
,
0111
0000
0001
0001
0111
0000
0111
0000
,
0100
0001
0100
0010
0200
0000
0000
0000
,
0302
0000
1003
0100
0002
0000
0103
1000
,
0020
0230
0302
0023
,
0130
0100
0010
0001
1000
0010
0000
0202
,
0000
0000
0000
0303
,
1011
0000
0001
1000
0010
0010
1000
0001
,
1000
0100
0001
0100
1000
0000
0000
0000
,
1101
0000
1000
0001
0100
0100
0001
1000
,
0001
0010
1000
0010
0002
0000
0003
0000
,
2000
0000
3001
0010
0200
0000
0310
0100
,
2000
3200
2300
3002
,
0103
0100
0010
1000
1000
0001
0000
0220
,
0000
0000
0000
0330
,
1110
0111
1110
0111
,
1110
0111
1110
0000
,
0111
1110
0111
1110
,
0111
1110
0111
0000
,
1011
1011
1101
1101
,
0001
0100
0010
0000
1011
0000
0000
0000
,
4004
0000
0000
0000
,
0000
0000
0000
3003
,
0002
0000
0000
0000
0000
0000
1003
0001
0020
0000
0000
0000
0000
0000
0000
0000
,
0130
1000
0010
0100
0010
1000
0001
0010
0001
0100
0010
0100
0001
1000
0100
0010
,
0100
1000
0100
1000
0001
0100
0001
0100
0010
1000
0010
1000
0010
0100
0001
1000
,
0100
0010
0100
1000
0020
0000
0000
0000
0000
0000
0000
0000
0000
0000
0000
0000
,
0130
0000
0001
1000
0010
0000
1000
0001
0100
0000
0001
1000
0100
0000
0010
0100
,
1000
0000
0100
0010
0000
0010
0001
0000
1000
0000
0001
0100
0000
0100
0010
0000
,
1000
0100
1000
0001
0100
0001
0100
0010
1000
0010
1000
0001
0010
0001
1000
0100
,
0010
0100
1000
0001
0100
0001
1000
0001
0020
0000
0000
0000
0000
0000
0000
0000
,
0032
0000
0000
0000
,
2000
0000
0000
3003
,
0111
0000
0100
0100
0111
0000
1110
0000
,
1000
0100
0001
0100
2000
0000
3000
0000
,
1110
0000
0100
0100
1110
0000
0111
0000
,
0001
0010
1000
0010
0002
0000
0003
0000
,
2000
0000
3001
0100
0020
0000
0130
0001
,
0020
2030
3020
0032
,
0103
0100
0010
1000
0001
0010
0000
2200
,
0000
0000
0000
3300
,
1110
0000
1000
0010
1000
0100
0001
0100
,
1000
0010
0100
0001
0020
0000
0030
0000
,
0111
0000
1000
1000
0001
0010
1000
0010
,
0001
0100
0001
1000
0200
0000
0300
0000
,
2000
0000
3001
0100
0020
0000
0130
0010
,
2000
3020
0032
0023
,
0130
0100
0010
1000
0001
0010
0000
2002
,
0000
0000
0000
3003
,
1110
1110
0111
0111
,
1110
0111
1110
0000
,
1011
1011
1101
1101
,
1011
1101
1011
0000
,
0111
1110
0111
1110
,
0001
0100
1000
0000
1110
0000
0000
0000
,
0440
0000
0000
0000
0000
0000
0000
0330
,
0111
1110
1111
0000
;

//---------------dance-double - ----------------
#NOTEDATA:;
#CHARTNAME:;
#STEPSTYPE:dance-double;
#DESCRIPTION:;
#CHARTSTYLE:;
#DIFFICULTY:Easy;
#METER:8;
#RADARVALUES:0.353126,0.534797,0.567444,0.217650,0.000000,318.000000,245.000000,73.000000,28.000000,0.000000,0.000000,0.000000,0.000000,0.000000,0.353126,0.534797,0.567444,0.217650,0.000000,318.000000,245.000000,73.000000,28.000000,0.000000,0.000000,0.000000,0.000000,0.000000;
#CREDIT:Pandemonium X;
#NOTES:
00000000
00000000
00000000
00000000
,
00000000
00000000
00000000
00000000
,
00000000
00000000
00000000
00000000
,
00000000
00000000
00000000
00000000
,
00000000
00000000
00000000
00000000
,
10000000
00000000
00010000
00000000
,
00100000
00001000
00020000
00000000
,
00030100
00000000
00001000
00000000
,
00000010
00000100
00000010
00000100
,
00000002
00000000
00000000
00000000
,
00001000
00002000
00000000
00000000
00003003
00000000
00000000
00000000
,
00000001
00000100
00000010
00001000
,
00001100
00001100
00001100
00000000
,
00000100
00010000
00001000
01000000
,
01100000
10010000
01100000
00000000
,
10000000
01000000
00100000
00010000
,
00210000
00000000
00301000
00000000
,
00010000
00000100
00001000
00000010
,
00000110
00001001
00000110
00000000
,
00002000
00003100
00000002
00000103
,
00000010
00001000
00000100
00010000
,
00001000
01000000
00100000
10000000
,
01000000
00100000
00010000
00100000
,
00002000
00013000
00000200
00010300
,
00001000
01000000
00100000
00000000
,
10000000
00000000
01000000
00000000
00100000
00010000
00000000
00220000
,
00000000
00000000
00000000
00000000
,
00330000
00000000
00000000
00000000
,
11000000
10000000
10100000
01010000
,
00010000
00100000
00001000
00000000
,
00011000
00010000
00010100
00001100
,
00001000
00000010
00000100
00000000
,
00000001
00000000
00000010
00000000
,
00000100
00000010
00000001
00001000
,
00000010
00000000
00010000
00000000
00001000
00010000
00000000
00022000
,
00000000
00000000
00000000
00033000
,
00101000
00001000
01000000
00100000
,
10000000
01000000
00100000
00000000
,
00110000
00100000
00001000
00010000
,
00000100
00001000
00000010
00000000
,
00000100
00000000
00000010
00000000
,
00001000
00000001
00000010
00000001
,
00001000
00000000
00000100
00000000
00010000
00001000
00000000
00022000
,
00000000
00000000
00000000
00033000
,
00011000
00011000
00011000
00011000
,
00011000
00011000
00011000
00000000
,
00110000
00110000
00110000
00110000
,
00110000
00110000
00110000
00000000
,
11000000
11000000
11000000
11000000
,
01000000
10000000
10100000
00000000
,
02020000
00000000
00000000
00000000
,
00000000
00000000
00000000
03030000
,
10000000
00000000
00010000
00000000
,
00100000
00001000
00010000
00000100
,
00001000
00000010
00000001
00000010
,
00001000
00000002
00000000
00000000
,
00001003
00000100
00001000
00000100
,
00010000
00001000
00010000
00001000
,
01000000
00001000
01000000
00001000
,
01000000
00100000
20000000
00000000
,
30020000
00000000
00000000
00000000
,
00200000
00000000
00000000
00330000
,
11000000
01000000
01100000
01100000
,
10000000
00010000
00100000
00000000
,
00101000
00001000
00011000
00011000
,
00010000
00000100
00001000
00000000
,
00000010
00000000
00001000
00000000
,
00000001
00000010
00000100
00001000
,
00000100
00000000
00010000
00000000
00001000
00010000
00000000
00022000
,
00000000
00000000
00000000
00033000
,
00101000
00100000
00001000
00010000
,
00000100
00000100
00000100
00000000
,
00001100
00001000
00000010
00000100
,
00000001
00000001
00000001
00000000
,
00001000
00000000
00000100
00000000
,
00010000
00001000
01000000
00100000
,
10000000
00000000
00010000
00000000
00100000
00001000
00000000
00022000
,
00000000
00000000
00000000
00033000
,
00011000
00011000
00001100
00001100
,
00000110
00000110
00000011
00000000
,
00001001
00001001
00000110
00000110
,
00001010
00001010
00001100
00000000
,
00010100
00010100
00011000
00011000
,
00001000
00100000
00010000
00000000
,
22000000
00000000
00000000
33000000
,
00110000
11000000
20020000
00000000
,
30030000
00000000
00000000
00000000
;

//---------------dance-double - ----------------
#NOTEDATA:;
#CHARTNAME:;
#STEPSTYPE:dance-double;
#DESCRIPTION:;
#CHARTSTYLE:;
#DIFFICULTY:Medium;
#METER:10;
#RADARVALUES:0.420864,0.534797,0.621857,0.357568,0.027206,379.000000,299.000000,80.000000,46.000000,0.000000,0.000000,0.000000,0.000000,0.000000,0.420864,0.534797,0.621857,0.357568,0.027206,379.000000,299.000000,80.000000,46.000000,0.000000,0.000000,0.000000,0.000000,0.000000;
#CREDIT:Pandemonium X;
#NOTES:
00000000
00000000
00000000
00000000
,
00000000
00000000
00000000
00000000
,
00000000
00000000
00000000
00000000
,
00000000
00000000
00000000
00000000
,
00000000
00000000
00000000
00000000
,
10000000
01010000
10000000
10100000
,
10000000
00000000
00000000
00010000
00000000
00000000
00100000
00000000
00020000
00000000
00000000
00000000
00000000
00000000
00000000
00000000
,
00130000
00101000
00001000
00011000
,
00000100
00000000
00000000
00001000
00000000
00000000
00000010
00000000
00000000
00000100
00000000
00000000
00000001
00000000
00001000
00000000
,
00000020
00000000
00000000
00000000
,
00000100
00000200
00000000
00000000
00000000
00000000
00000330
00000000
,
00000010
00001000
00000100
00010000
,
00011000
00110000
00011000
00000000
,
00001000
01000000
00100000
10000000
,
10010000
00110000
10010000
00000000
,
00010000
00100000
00001000
00010000
,
00020100
00000000
00031000
00000000
,
00000100
00010000
00001000
00000100
,
00001100
00011000
00001100
00000000
,
00000201
00000310
00002100
00003001
,
00001000
00000001
00000000
00000100
00000000
00000010
00001000
00000000
,
00000100
00000000
00000000
00000100
00000000
00000000
00000100
00000000
00010000
00000000
00000000
00010000
00000000
00000000
00010000
00000000
,
00001000
00000000
00000000
00001000
00000000
00000000
00001000
00000000
00100000
00000000
00000000
00100000
00000000
00000000
00100000
00000000
,
02100000
13000000
10200000
01300000
,
00010000
00100000
00000000
01000000
00000000
00100000
01000000
10000000
,
00010000
00000000
01000000
00000000
00001000
00010000
00000000
00022000
,
00000000
00000000
00000000
00000000
,
00033000
00000000
00000000
00000000
,
00001100
00000000
00001000
00001000
00001100
00000000
00001100
00000000
,
00000100
00001000
00000010
00000000
,
00000101
00000000
00000001
00000001
00000101
00000000
00000101
00000000
,
00000001
00000100
00000010
00000000
,
00020000
00000000
00000000
00031000
00200000
00000000
00000000
00310000
,
02000000
03100000
20000000
30010000
,
10000000
01000000
00100000
00010000
10000000
00010000
00000000
02200000
,
00000000
00000000
00000000
03300000
,
10010000
00010000
00100000
00001000
,
00010000
00000100
00001000
00000010
00000100
00000000
00000000
00000000
,
00000101
00000001
00000010
00000100
,
00000100
00001000
00000100
00010000
00001000
00000000
00000000
00000000
,
00002000
00000000
00000000
01003000
00200000
00000000
00300000
10000000
,
02000000
03010000
02000000
13000000
,
00100000
01000000
00010000
00100000
00001000
00010000
00000000
00022000
,
00000000
00000000
00000000
00033000
,
00110000
00110000
11000000
11000000
,
00110000
11000000
00110000
00000000
,
00011000
00011000
00010100
00010100
,
00011000
00010100
00011000
00000000
,
00001100
00001100
00000011
00000011
,
00000001
00000010
00000100
00000000
00001100
00000000
00000000
00000000
,
00021000
00000000
00000000
00000000
,
00001000
00001000
00031000
00000000
,
01000000
00000000
00100000
00000000
,
10000000
01000000
00100000
00000000
01000000
10000000
00010000
00000000
,
00100000
00001000
00010000
00000000
00000100
00001000
00000010
00000000
,
00000001
00000010
00002000
00000000
00000000
00000000
00000000
00000000
,
00003002
00000103
00000020
00001030
,
00000200
00010300
00002000
01003000
,
00200000
10300000
02000000
03100000
,
01000000
10000000
00010000
01000000
00200000
00000000
00000000
00000000
,
02300000
00000000
00000000
00000000
,
00002000
00000000
00000000
03003000
,
00011000
00000000
00010000
00010000
00011000
00000000
00011000
00000000
,
00010000
00000100
00001000
00000000
,
00001100
00000000
00000100
00000100
00001100
00000000
00001100
00000000
,
00001000
00000010
00000100
00000000
,
00000002
00000000
00000000
00000103
00000020
00000000
00000000
00001030
,
00000200
00010300
00002000
01003000
,
10000000
01000000
00010000
10000000
00010000
00100000
00000000
00220000
,
00000000
00000000
00000000
00330000
,
00011000
00000100
00010000
00001000
,
01000000
10000000
01000000
00010000
10000000
00000000
00000000
00000000
,
11000000
01000000
00100000
00010000
,
00100000
00001000
00010000
00000100
00001000
00000000
00000000
00000000
,
00001200
00000000
00000000
00001300
00000020
00000000
00000000
00000130
,
00000002
00000013
00002000
00003010
,
00000001
00000100
00000010
00000000
00001000
00000100
00000000
00010200
,
00000000
00000000
00000000
00000300
,
00011000
00011000
00001100
00001100
,
00000110
00000110
00000011
00000000
,
00000101
00000101
00000110
00000110
,
00001010
00001010
00001100
00000000
,
00010100
00010100
00011000
00011000
,
00001000
01000000
00100000
00000000
01100000
00000000
00000000
00000000
,
20010000
00000000
00000000
00000000
,
00010000
01000000
00020000
00000000
,
30030000
00000000
00000000
00000000
;

//---------------dance-double - ----------------
#NOTEDATA:;
#CHARTNAME:;
#STEPSTYPE:dance-double;
#DESCRIPTION:;
#CHARTSTYLE:;
#DIFFICULTY:Hard;
#METER:13;
#RADARVALUES:0.524136,0.735346,0.668496,0.349794,0.108825,472.000000,386.000000,86.000000,45.000000,0.000000,0.000000,6.000000,0.000000,0.000000,0.524136,0.735346,0.668496,0.349794,0.108825,472.000000,386.000000,86.000000,45.000000,0.000000,0.000000,6.000000,0.000000,0.000000;
#CREDIT:Pandemonium X;
#NOTES:
00000000
00000000
00000000
00000000
,
00000000
00000000
00000000
00000000
,
00000000
00000000
00000000
00000000
,
00000000
00000000
00000000
00000000
,
00000000
00000000
00000000
00000000
,
10000000
00100000
01000000
00010000
00100000
00001000
00010000
00000100
,
00001000
00000000
00000001
00000010
00000000
00000100
00001000
00000001
00002000
00000000
00000000
00000000
00000000
00000000
00000000
00000000
,
00003001
00000100
00000010
00001000
00000100
00010000
00001000
01000000
,
00100000
00000000
10000000
01000000
00000000
00100000
00010000
00000000
10000000
01000000
00000000
00100000
00010000
00000000
00100000
00004000
,
00040000
00000000
00000000
00000000
00000000
00000000
00000000
00033000
,
00001100
00000100
00001000
00001000
00000010
00000010
00000001
00000001
,
00000011
00000000
00000000
00000000
00001010
00000000
00000000
00000001
00000010
00000000
00000100
00000000
00001000
00000000
00000100
00000000
,
00010100
00010100
00010100
00000000
,
00001000
00000000
00000000
00000000
01000000
00000000
00000000
01000000
00100000
00000000
00000000
00000000
10000000
00000000
00010000
00000000
,
00110000
00110000
00110000
00000000
,
00101000
00000000
00001000
00010000
00000100
00001000
00000010
00000100
,
00000201
00000000
00000020
00000330
,
00001001
00000000
00000000
00000000
00000001
00000000
00000000
00001000
00000010
00000000
00000100
00000000
00000010
00000000
00010000
00000000
,
00010010
00010010
00010100
00000000
,
00020100
00031000
00012000
01003000
,
00100000
10000000
00000000
01010000
00000000
10000000
00010000
00100000
,
00001000
00000000
00000000
00001000
00000000
00000000
00001000
00000000
00010000
00000000
00000000
00010000
00000000
00000000
00010000
00000000
,
00000100
00000000
00000000
00001000
00000000
00000000
00000010
00000000
00000100
00000000
00000000
00000001
00000000
00000000
00000010
00000000
,
00000012
00001003
00000120
00001030
,
00000001
00000100
00000000
00001010
00000000
00000001
00000100
00001000
,
00000100
00000010
00010000
00001000
01000000
00100000
00000000
02020000
,
00000000
00000000
00000000
00000000
,
03030000
00000000
00000000
00000000
,
00011000
00000000
00001000
00001000
00011000
00000000
00011000
00000000
,
00010000
00000100
00010000
00001000
00020000
00000000
00030000
00000000
,
00011000
00000000
00001000
00001000
00011000
00000000
00011000
00000000
,
00001000
00010000
00001000
00100000
00002000
00000000
00003000
00000000
,
00100000
00000000
00001000
00010000
00000100
00000000
00001000
00000010
,
00000002
00000023
00000230
00000302
,
00001003
00000100
00010000
00001000
01000000
00100000
00000000
02020000
,
00000000
00000000
00000000
03030000
,
00011000
00000000
00010000
00000100
00001000
00000100
00000010
00000001
,
00001000
00000010
00000100
00000001
00001000
00000000
00000000
00000000
,
00011000
00000000
00001000
01000000
00010000
01000000
00100000
10000000
,
00010000
00100000
01000000
10000000
00010000
00000000
00000000
00000000
,
02000000
00000000
13000000
00100000
02000000
00000000
03010000
00100000
,
00002000
00023000
00030020
00000230
,
00001300
00000100
00000001
00001000
00000100
00000010
00000000
00002200
,
00000000
00000000
00000000
00003300
,
00001010
00110000
00001010
00110000
,
00001010
00110000
00022000
00033000
,
01010000
00001100
01010000
00001100
,
01010000
00001100
00011000
00000000
,
00001010
00110000
00001010
00110000
,
00001000
00010000
00001000
00000000
00101000
00000000
00000000
00000000
,
00040000
00004000
00000000
00000000
00000000
00000000
00000000
00000000
00000000
00000000
00000000
00000000
00000000
00000000
00000000
00000000
,
00000000
00000000
00000000
00033000
,
00000200
00000000
00000000
00000000
00000000
00000000
00001300
00000001
00002000
00000000
00000000
00000000
00000000
00000000
00000000
00000000
,
00003010
00000010
00000100
00000001
00001000
00001000
00000100
00010000
,
00001000
01000000
10000000
01000000
00010000
00100000
00001000
00010000
,
00000100
00000010
00000001
00000010
00000002
00000000
00000000
00000000
00000000
00000000
00000000
00000000
00000000
00000000
00000000
00000000
,
00001003
00000010
00001000
00000010
00010000
00000010
00010000
00000010
,
00000100
00000000
00000010
00000100
00000000
00000100
00000001
00000000
00000001
00001000
00000000
00001000
00000100
00000000
00010000
00000000
,
00001000
01000000
00100000
10000000
01000000
00100000
00010000
10000000
,
00010000
01000000
00100000
10000000
00010000
01000000
00100000
10000000
00020000
00000000
00000000
00000000
00000000
00000000
00000000
00000000
,
00230000
00000000
00000000
00000000
,
00000020
00000000
00000000
00300030
,
00011000
00000000
00001000
00001000
00011000
00000000
00011000
00000000
,
00001000
01000000
10000000
01000000
00002000
00000000
00003000
00000000
,
00011000
00000000
00010000
00010000
00011000
00000000
00011000
00000000
,
00010000
00000100
00000001
00000100
00020000
00000000
00030000
00000000
,
00011000
00000000
00001000
01000000
01001000
00000000
00001000
00010000
,
00011000
00010100
00011000
01001000
,
00001000
00001000
00010000
00000100
00001000
00000010
00000000
00002020
,
00000000
00000000
00000000
00003030
,
00011000
00000000
00001000
00001000
01000000
10000000
01000000
00001000
,
00010000
00000100
00001000
00000100
00010000
00000000
00000000
00000000
,
00011000
00000000
00010000
00010000
00000100
00000001
00000100
00010000
,
00001000
01000000
00010000
01000000
00001000
00000000
00000000
00000000
,
00002000
00000000
01003000
00100000
20000000
00000000
31000000
00100000
,
00020000
00230000
00302000
00023000
,
00030100
00001000
00000010
00000100
00000001
00000010
00000000
00002200
,
00000000
00000000
00000000
00003300
,
00001100
01010000
00001100
01010000
,
00001100
01010000
00001100
00000000
,
00110000
00001010
00110000
00001010
,
00110000
00001010
00110000
00000000
,
00011000
00110000
00011000
00001010
,
00100000
00001000
00010000
00000000
00011000
00000000
00000000
00000000
,
00004000
00040000
00000000
00000000
00000000
00000000
00000000
00000000
00000000
00000000
00000000
00000000
00000000
00000000
00000000
00000000
,
00000000
00000000
00000000
00000000
,
00033000
00000000
00000000
00000000
;

//---------------dance-double - ----------------
#NOTEDATA:;
#CHARTNAME:;
#STEPSTYPE:dance-double;
#DESCRIPTION:;
#CHARTSTYLE:;
#DIFFICULTY:Challenge;
#METER:16;
#RADARVALUES:0.582991,1.103018,0.785094,0.590764,0.244856,525.000000,424.000000,101.000000,76.000000,0.000000,0.000000,0.000000,0.000000,0.000000,0.582991,1.103018,0.785094,0.590764,0.244856,525.000000,424.000000,101.000000,76.000000,0.000000,0.000000,0.000000,0.000000,0.000000;
#CREDIT:TOASTER;
#NOTES:
00000000
00000000
00000000
00000000
,
00000000
00000000
00000000
00000000
,
00000000
00000000
00000000
00000000
,
00000000
00000000
00000000
00000000
,
00000000
00000000
00000000
00000000
,
10000000
00100000
00010000
00100000
10000000
00010000
00100000
00001000
,
00010000
00000000
00000100
00001000
00000000
00000100
00001000
00000001
00000200
00000000
00000000
00000000
00000000
00000000
00000000
00000000
,
00000310
00010000
00001000
00100000
00001000
00010000
00000100
00010000
,
00001000
00000000
00100000
00001000
00000000
00001000
00010000
00000000
00001000
00100000
00000000
00001000
00010000
00000000
00001000
02000000
,
00200000
00000000
00000000
03300000
,
10010000
11000000
00110000
00101000
00011000
00001100
00000110
00000011
,
00001001
00000000
00000000
00000000
00000110
00000000
00000000
00000001
00000100
00000000
00000010
00000000
00001000
00000000
00000100
00000000
,
00001100
01010000
00001100
00000000
,
00000200
00000000
00000000
00000000
00020300
00000000
00000000
00031000
00020000
00000000
00000000
00000000
00031000
00000000
00100000
00000000
,
00110000
00001010
00110000
00000000
,
11000000
00000000
10000000
10000000
00010000
00100000
00001000
00010000
,
00000200
00000000
00010300
00000000
,
00011000
00000000
00000000
00000000
00101000
00000000
00000000
00001000
00010000
00000000
00000000
00010000
00000100
00000000
00001000
00000000
,
00001010
00110000
00001010
00000000
,
00000120
00010030
00012000
01003000
,
00100000
10000000
00000000
01010000
00000000
00100000
00001000
00010000
,
00020100
00000000
00000000
00031000
00000000
00000000
00010000
00000000
00012000
00000000
00000000
01003000
00000000
00000000
00010000
00000000
,
00210000
00000000
00000000
00301000
00000000
00000000
00010000
00000000
00002100
00000000
00000000
00003010
00000000
00000000
00000100
00000000
,
00000120
00010030
00012000
01003000
,
00100000
10000000
00000000
01010000
00000000
10000000
01000000
00010000
,
01000000
10000000
00010000
00100000
00001000
00010000
00000000
00022000
,
00000000
00000000
00000000
00000000
,
00033000
00000000
00000000
00000000
,
00011000
00000000
00100000
00001000
00011000
00000000
00011000
00000000
,
00100000
00010000
01000000
00010000
00200000
00000000
00000000
00300000
,
00011000
00000000
00000010
00010000
00011000
00000000
00011000
00000000
,
00000010
00001000
00000100
00001000
00000020
00000000
00000000
00000000
,
00020030
00000000
00030100
00010000
00002000
00000000
01003000
00100000
,
20000000
32000000
03020000
00032000
,
00103000
00100000
00001000
00010000
00000100
00001000
00000000
00020200
,
00000000
00000000
00000000
00030300
,
00011000
00000000
00001000
01000000
10000000
01000000
00001000
00010000
,
00000100
00000001
00000100
00001000
00000001
00000000
00000000
00000000
,
00011000
00000000
00010000
00000010
00000001
00000010
00010000
00001000
,
00100000
10000000
00100000
00010000
10000000
00000000
00000000
00000000
,
00021000
00000000
00031000
00010000
00000200
00000000
00001300
00000010
,
00000020
00002030
00003200
00020300
,
00030100
00000100
00010000
00001000
00100000
00001000
00000000
00022000
,
00000000
00000000
00000000
00033000
,
00100010
00100010
00100010
00100010
,
00100010
00100010
00200020
00300030
,
01000100
01000100
01000100
01000100
,
01000100
01000100
02000200
03000300
,
00100010
00100010
00100010
00100010
,
00001000
00010000
00001000
00000000
00022000
00000000
00033000
00000000
,
00001200
00000000
00000000
00000000
,
00010000
00001000
00020000
00030300
,
00201000
00000000
00000000
00000000
00000000
00000000
01300000
10000000
00200000
00000000
00000000
00000000
00000000
00000000
00000000
00000000
,
01300000
00010000
01000000
00010000
00100000
00001000
00010000
00000100
00001000
00000010
00000100
00000001
00000010
00000100
00001000
00000010
,
00010000
00001000
00010000
00000100
00010000
00001000
00010000
00000010
00001000
00000010
00010000
00001000
01000000
00100000
10000000
01000000
,
00100000
01000000
10000000
00010000
20000000
00000000
00000000
00000000
00000000
00000000
00000000
00000000
00000000
00000000
00000000
00000000
,
30100000
01000000
10000000
01000000
00010000
00100000
00001000
00010000
00000100
00001000
00000010
00000001
,
00000010
00000100
00001000
00000001
00001000
00000100
00001000
00000100
00010000
00001000
00010000
00001000
01000000
00100000
10000000
00010000
,
00100000
01000000
00100000
01000000
10000000
00010000
10000000
00010000
01000000
00010000
01000000
00010000
10000000
00100000
10000000
00100000
,
01000000
00010000
00100000
00001000
00010000
00000100
00001000
00000002
00002000
00000000
00000000
00000000
00000000
00000000
00003003
00000000
,
00001020
00000000
00000000
00000000
,
00200000
00000000
00000000
00300030
,
01000100
00000000
00000100
00000100
01000100
00000000
01000100
00000000
,
00001000
01000000
10000000
01000000
00002000
00000000
00003000
00000000
,
01000100
00000000
01000000
01000000
01000100
00000000
01000100
00000000
,
00010000
00000100
00000001
00000100
00020000
00000000
00030000
00000000
,
00021000
00000000
00030010
00000100
00000002
00000000
00000103
00000010
,
00020000
00030200
00002300
00003200
,
00010300
00001000
01000000
10000000
01000000
00001000
00000000
00020200
,
00000000
00000000
00000000
00030300
,
10001000
00000000
10000000
10000000
01000000
00010000
01000000
10000000
,
00010000
00100000
00001000
00010000
00002000
00000000
00003000
00000000
,
00010001
00000000
00000001
00000001
00000010
00001000
00000010
00000001
,
00001000
00000100
00010000
00001000
00020000
00000000
00030000
00000000
,
00010200
00000000
00010300
00001000
00020000
00000000
00030010
00010000
,
00002000
02003000
03200000
20300000
,
31000000
00100000
00001000
00010000
00000100
00010000
00000000
00022000
,
00000000
00000000
00000000
00033000
,
00100010
00100010
01000100
01000100
,
00100010
01000100
00100010
00000000
,
01000100
01000100
00100010
00100010
,
01000100
00100010
02000200
03000300
,
00100010
01000100
00100010
01000100
,
00010000
00001000
00010000
00000000
00100010
00000000
00000000
00000000
,
00022000
00000000
00000000
00033000
,
01000100
00100010
00022000
00000000
,
00033000
00000000
00000000
00000000
;
