#VERSION:0.83;
#TITLE:BRAIN HACKER;
#SUBTITLE:;
#ARTIST:SOMON;
#TITLETRANSLIT:;
#SUBTITLETRANSLIT:;
#ARTISTTRANSLIT:;
#GENRE:;
#ORIGIN:;
#CREDIT:;
#BANNER:BRAIN HACKER.png;
#BACKGROUND:BRAIN HACKER-bg.png;
#PREVIEWVID:;
#JACKET:BRAIN HACKER-jacket.png;
#CDIMAGE:;
#DISCIMAGE:;
#LYRICSPATH:;
#CDTITLE:;
#MUSIC:BRAIN HACKER.ogg;
#OFFSET:1.236000;
#SAMPLESTART:85.346001;
#SAMPLELENGTH:12.152000;
#SELECTABLE:YES;
#BPMS:0.000=158.000;
#STOPS:31.750=1.519;
#DELAYS:;
#WARPS:;
#TIMESIGNATURES:0.000=4=4;
#TICKCOUNTS:0.000=4;
#COMBOS:0.000=1;
#SPEEDS:0.000=1.000=0.000=0;
#SCROLLS:0.000=1.000;
#FAKES:;
#LABELS:0.000=Song Start;
#BGCHANGES:4.000=BRAIN HACKER.mp4=1.000=0=0=1=====,
99999=-nosongbg-=1.000=0=0=0 // don't automatically add -songbackground-
;
#KEYSOUNDS:;
#ATTACKS:
;

//---------------dance-single - ----------------
#NOTEDATA:;
#CHARTNAME:;
#STEPSTYPE:dance-single;
#DESCRIPTION:;
#CHARTSTYLE:;
#DIFFICULTY:Beginner;
#METER:4;
#RADARVALUES:0.123547,0.245312,0.074841,0.000000,0.000000,104.000000,95.000000,9.000000,0.000000,0.000000,0.000000,0.000000,0.000000,0.000000,0.123547,0.245312,0.074841,0.000000,0.000000,104.000000,95.000000,9.000000,0.000000,0.000000,0.000000,0.000000,0.000000,0.000000;
#CREDIT:Pandemonium X;
#NOTES:
// measure 0
0000
0000
0000
0000
,  // measure 1
0000
0000
0000
0000
,  // measure 2
0000
0000
0000
0000
,  // measure 3
0000
0000
0000
0000
,  // measure 4
0000
0000
0000
0000
,  // measure 5
0000
0000
0000
0000
,  // measure 6
0000
0000
0000
0000
,  // measure 7
0000
0000
0000
0000
,  // measure 8
0001
0000
0000
0000
,  // measure 9
1000
0000
0000
0000
,  // measure 10
0010
0000
0000
0000
,  // measure 11
1000
0000
0001
0000
,  // measure 12
1000
0000
0000
0000
,  // measure 13
0100
0000
0000
0000
,  // measure 14
0010
0000
0000
0000
,  // measure 15
0001
0000
1000
0000
,  // measure 16
0010
0010
0000
0000
,  // measure 17
0100
0100
0100
0000
,  // measure 18
0001
0001
0000
0000
,  // measure 19
1000
1000
1000
0000
,  // measure 20
0010
0000
0100
0000
,  // measure 21
0001
0000
1000
0000
,  // measure 22
0010
0000
0100
0000
,  // measure 23
0001
0001
0001
0000
,  // measure 24
1000
0000
0000
0000
,  // measure 25
0100
0000
0000
0000
,  // measure 26
1000
0000
0000
0000
,  // measure 27
0010
0000
0000
0000
,  // measure 28
0100
0000
0000
0000
,  // measure 29
0001
0000
0000
0000
,  // measure 30
0010
0000
0000
0000
,  // measure 31
0100
0000
0000
0000
,  // measure 32
1000
0000
0000
0000
,  // measure 33
0001
0000
0000
0000
,  // measure 34
0100
0000
0000
0000
,  // measure 35
0010
0000
0000
0000
,  // measure 36
1000
0000
0000
0000
,  // measure 37
1000
0000
0000
0000
,  // measure 38
0001
0000
0000
0000
,  // measure 39
0001
0000
0000
0000
,  // measure 40
0110
0000
0000
0000
,  // measure 41
0000
0000
0000
0000
,  // measure 42
0000
0000
0000
0000
,  // measure 43
0000
0000
0000
0000
,  // measure 44
1001
0000
0000
0000
,  // measure 45
0000
0000
0000
0000
,  // measure 46
0000
0000
0010
0000
,  // measure 47
0010
0000
0010
0000
,  // measure 48
0100
0100
0100
0100
,  // measure 49
0000
0000
0000
0000
,  // measure 50
0010
0010
0010
0010
,  // measure 51
0000
0000
0000
0000
,  // measure 52
1000
0000
0000
0001
0000
0000
1000
0000
,  // measure 53
0000
0001
0000
0000
1000
0000
0001
0000
,  // measure 54
0110
0000
0000
0000
,  // measure 55
0100
0000
0000
0000
,  // measure 56
1001
0000
0000
0000
,  // measure 57
0000
0000
0001
1000
,  // measure 58
0000
0000
0000
0000
,  // measure 59
0000
0000
0010
0100
,  // measure 60
0000
0000
0000
0000
,  // measure 61
0000
0000
0001
0010
,  // measure 62
0000
0000
0100
0000
0000
0100
0000
0000
,  // measure 63
0010
0000
0000
0000
,  // measure 64
0100
0000
0000
0000
,  // measure 65
0000
0000
1000
1001
,  // measure 66
0000
0000
0000
0000
,  // measure 67
0000
0000
0001
1001
,  // measure 68
0000
0000
0100
0000
0000
0100
0000
0000
,  // measure 69
0000
0010
0010
0000
,  // measure 70
0110
0000
1001
0000
,  // measure 71
0001
0100
0010
0000
,  // measure 72
1000
0000
0000
0000
0001
0000
0000
1000
,  // measure 73
0000
0000
0000
0010
0000
0000
0110
0000
;

//---------------dance-single - ----------------
#NOTEDATA:;
#CHARTNAME:;
#STEPSTYPE:dance-single;
#DESCRIPTION:;
#CHARTSTYLE:;
#DIFFICULTY:Easy;
#METER:8;
#RADARVALUES:0.329063,0.459960,0.282733,0.066525,0.000000,277.000000,243.000000,34.000000,8.000000,0.000000,0.000000,0.000000,0.000000,0.000000,0.329063,0.459960,0.282733,0.066525,0.000000,277.000000,243.000000,34.000000,8.000000,0.000000,0.000000,0.000000,0.000000,0.000000;
#CREDIT:Pandemonium X;
#NOTES:
// measure 0
0000
0000
0000
0000
,  // measure 1
0000
0000
0000
0000
,  // measure 2
0000
0000
0000
0000
,  // measure 3
0000
0000
0000
0000
,  // measure 4
0000
0000
0000
0000
0000
0000
0000
0001
,  // measure 5
0000
0000
1000
0000
,  // measure 6
0001
0000
0100
0000
,  // measure 7
0010
0100
0001
1000
,  // measure 8
1001
1010
0010
1000
,  // measure 9
0100
1000
0010
0100
,  // measure 10
0011
0101
0010
0001
,  // measure 11
0100
0010
0100
0001
,  // measure 12
1100
1010
0100
0010
,  // measure 13
1000
0001
0010
0100
,  // measure 14
0110
1100
0100
1000
,  // measure 15
0010
0100
0001
1000
,  // measure 16
0001
1000
0001
0000
1000
0000
0010
0000
,  // measure 17
1000
0010
1000
0000
0010
0000
0100
0000
,  // measure 18
0001
0100
0001
0000
0010
0000
0100
0000
,  // measure 19
0010
0001
0010
0000
0001
0000
1000
0000
,  // measure 20
1001
0010
1001
0010
,  // measure 21
1001
0100
1001
0100
,  // measure 22
1001
0010
1001
0100
,  // measure 23
1001
0110
1001
0120
,  // measure 24
1030
0010
0100
0001
,  // measure 25
0010
0100
0010
0001
,  // measure 26
1000
0100
1000
0010
,  // measure 27
0100
0001
0010
0100
,  // measure 28
0010
0001
0100
0010
,  // measure 29
1000
0001
0010
0100
,  // measure 30
1000
0100
1000
0010
,  // measure 31
0100
0010
1000
0001
,  // measure 32
0010
0010
0010
0010
,  // measure 33
0100
0100
0100
0100
,  // measure 34
1000
1000
1000
1000
,  // measure 35
0001
0001
0001
0001
,  // measure 36
0100
0000
0010
0000
,  // measure 37
1000
0000
0001
0000
,  // measure 38
0010
0000
0100
0000
,  // measure 39
1000
0000
0010
0000
,  // measure 40
1001
0000
0001
0000
,  // measure 41
0100
0000
0010
0010
,  // measure 42
0100
0000
0010
0000
,  // measure 43
1000
0000
0100
0000
,  // measure 44
0010
0000
0100
0000
,  // measure 45
1000
0000
0001
0000
,  // measure 46
0100
0000
0020
0000
,  // measure 47
0230
0000
0020
0330
,  // measure 48
1000
1000
1000
1000
,  // measure 49
0002
0000
0000
0000
,  // measure 50
0103
0100
0100
0100
,  // measure 51
0020
0000
0000
0030
,  // measure 52
1001
0000
0000
0110
0000
0000
1001
0000
,  // measure 53
0000
0110
0000
0000
1001
0000
0110
0000
,  // measure 54
2002
0000
0000
0000
,  // measure 55
0000
0000
3000
0003
,  // measure 56
1000
0010
0100
0001
,  // measure 57
0010
0100
0010
1001
,  // measure 58
1000
0001
0010
0001
,  // measure 59
0100
0010
0100
1001
,  // measure 60
1000
0001
0010
0100
,  // measure 61
0010
0100
0010
1001
,  // measure 62
0100
1001
0010
1001
,  // measure 63
0001
0000
0100
0000
0010
0000
1000
0010
,  // measure 64
1000
0001
0010
0100
,  // measure 65
0010
0000
0001
0000
0101
0000
0001
0100
,  // measure 66
0010
0100
0010
1000
,  // measure 67
0001
0000
0010
0000
0011
0000
0001
0010
,  // measure 68
0100
0010
0100
1000
,  // measure 69
0010
0000
0100
0000
1010
0000
0010
0100
,  // measure 70
0001
1000
0001
0010
,  // measure 71
0100
0010
0001
0100
,  // measure 72
0001
0000
0100
0000
0010
0000
1000
0001
,  // measure 73
0000
0010
0100
1000
0000
0000
0001
0000
;

//---------------dance-single - ----------------
#NOTEDATA:;
#CHARTNAME:;
#STEPSTYPE:dance-single;
#DESCRIPTION:;
#CHARTSTYLE:;
#DIFFICULTY:Medium;
#METER:12;
#RADARVALUES:0.463301,0.582616,0.266101,0.141366,0.058210,390.000000,358.000000,32.000000,17.000000,0.000000,0.000000,4.000000,0.000000,0.000000,0.463301,0.582616,0.266101,0.141366,0.058210,390.000000,358.000000,32.000000,17.000000,0.000000,0.000000,4.000000,0.000000,0.000000;
#CREDIT:Pandemonium X;
#NOTES:
// measure 0
0000
0000
0000
0000
,  // measure 1
0000
0000
0000
0000
,  // measure 2
0000
0000
0000
0000
,  // measure 3
0000
0000
0000
0000
,  // measure 4
0000
0000
0000
0000
0000
0000
0000
0001
,  // measure 5
0000
1000
0100
0010
,  // measure 6
0001
0100
0010
0100
,  // measure 7
0001
1000
0001
1000
0001
1000
0001
1000
,  // measure 8
0101
0000
0011
0000
0010
0010
0001
0100
,  // measure 9
0000
0010
1000
0000
0001
0000
1001
0000
,  // measure 10
0110
0000
1100
0000
0100
0100
1000
0010
,  // measure 11
0000
0100
0010
0000
1000
0000
1001
0000
,  // measure 12
0011
0000
1001
0000
0001
0001
1000
0001
,  // measure 13
0000
0100
0001
0000
0010
0000
0100
0000
,  // measure 14
0011
0000
0101
0000
0001
0001
1000
0100
,  // measure 15
0000
0010
0100
1000
0010
0100
0010
0000
,  // measure 16
0100
0001
0010
0001
0000
0010
0001
0100
,  // measure 17
0010
1000
0100
0010
0001
0000
1100
0000
,  // measure 18
0100
1000
0010
0100
0000
0100
0010
0100
,  // measure 19
0001
1000
0100
0010
0001
0000
1100
0000
,  // measure 20
0101
0000
1000
0000
1010
1000
0010
0000
,  // measure 21
0110
0000
0100
0000
0011
0001
1000
0000
,  // measure 22
0011
0110
1100
0110
,  // measure 23
0001
0100
0010
1000
0001
0000
0200
0000
,  // measure 24
0310
0000
1000
0000
0001
0010
0001
0100
,  // measure 25
0000
0010
1000
0000
0001
0010
0100
0000
,  // measure 26
0010
0000
0001
0000
0100
0010
1000
0100
,  // measure 27
0000
0010
0100
0000
1000
0000
1100
0000
,  // measure 28
0100
0000
1000
0000
0010
0100
0001
1000
,  // measure 29
0000
0001
0010
0000
0100
0000
0110
0000
,  // measure 30
0010
0000
0100
0000
0010
0001
0100
0010
,  // measure 31
0000
0100
0010
0000
1010
0000
0101
0000
,  // measure 32
0001
0100
0001
0100
0001
0100
0001
0000
,  // measure 33
1000
0100
1000
0100
1000
0100
1000
0000
,  // measure 34
1000
0010
1000
0010
1000
0010
1000
0000
,  // measure 35
0001
0010
0001
0010
0001
0010
0001
0000
,  // measure 36
0001
0100
0010
1000
,  // measure 37
0100
0010
0001
0100
,  // measure 38
0010
1000
0001
0010
,  // measure 39
0100
0010
0100
0010
0100
0010
0100
0000
,  // measure 40
1001
0000
0001
0100
,  // measure 41
0001
0000
0010
0000
0100
0010
0001
1000
,  // measure 42
0000
0000
0000
0000
,  // measure 43
0001
0100
0001
1000
,  // measure 44
0100
0010
0100
1000
,  // measure 45
0001
0000
0000
0000
,  // measure 46
0000
0000
0200
0000
,  // measure 47
0320
0000
2000
3030
,  // measure 48
0101
0001
0001
0001
,  // measure 49
4000
0004
0000
0000
0000
0000
3003
0000
,  // measure 50
1100
0100
0100
0100
,  // measure 51
4000
0004
0000
0000
0000
0000
3003
0000
,  // measure 52
0010
0100
0010
0000
0000
0000
0100
0010
0100
0000
0000
0000
0010
0100
0010
0000
,  // measure 53
0000
0000
0000
0000
0000
0000
0100
0000
0000
0010
0000
0000
0100
0000
0000
0000
0000
0000
0000
0000
0000
0000
0000
0000
0010
0000
0000
0000
1000
0000
0000
0000
0010
0000
0000
0000
0100
0000
0000
0000
0001
0000
0000
0000
0100
0000
0000
0000
,  // measure 54
0020
0000
0000
0000
,  // measure 55
1030
0001
0000
0001
0000
0000
0001
0000
0001
0000
0000
0000
1000
0000
0001
0000
,  // measure 56
0100
0010
1000
0100
,  // measure 57
0010
0000
0001
0000
0021
0000
0100
0130
,  // measure 58
1000
0010
0100
0001
,  // measure 59
1000
0000
0010
0000
2010
0000
0001
3001
,  // measure 60
0010
0001
0100
0010
,  // measure 61
1000
0000
0001
0000
0201
0000
0010
0310
,  // measure 62
0000
0000
0100
0100
0000
0100
0100
0000
,  // measure 63
0010
0100
0000
0100
0000
0000
0100
0000
0200
0000
0000
0000
0001
0000
0301
0000
,  // measure 64
1001
0100
1000
0010
1000
0001
0010
0200
,  // measure 65
0000
0310
0100
1000
0002
0000
0100
0103
,  // measure 66
0001
0010
0001
0100
0010
1000
0100
0020
,  // measure 67
0000
0130
0010
0001
2000
0000
0010
3010
,  // measure 68
0100
0001
0010
0010
0100
0010
0010
0002
,  // measure 69
0010
0010
0000
1003
0020
0000
0100
0130
,  // measure 70
0001
0100
0010
1000
0100
0010
0100
1000
,  // measure 71
0001
1000
0000
1000
0000
0000
0001
0000
2000
0000
0000
0000
0010
0000
3010
0000
,  // measure 72
0100
0100
1000
0100
0001
0010
1000
0020
,  // measure 73
0000
0100
0100
0130
0000
0000
1001
0000
;

//---------------dance-single - ----------------
#NOTEDATA:;
#CHARTNAME:;
#STEPSTYPE:dance-single;
#DESCRIPTION:;
#CHARTSTYLE:;
#DIFFICULTY:Hard;
#METER:15;
#RADARVALUES:0.666441,0.845911,0.274417,0.083157,0.457361,561.000000,528.000000,33.000000,10.000000,0.000000,0.000000,2.000000,0.000000,0.000000,0.666441,0.845911,0.274417,0.083157,0.457361,561.000000,528.000000,33.000000,10.000000,0.000000,0.000000,2.000000,0.000000,0.000000;
#CREDIT:Pandemonium X;
#NOTES:
// measure 0
0000
0000
0000
0000
,  // measure 1
0000
0000
0000
0000
,  // measure 2
0000
0000
0000
0000
,  // measure 3
0000
0000
0000
0000
,  // measure 4
0000
0000
0000
0000
0000
0000
0000
1000
,  // measure 5
0000
0001
0010
0100
,  // measure 6
0010
0001
1000
0010
,  // measure 7
0100
0000
0001
0000
0010
0000
0100
0000
1000
0001
1000
0001
1000
0001
1000
0001
,  // measure 8
1001
0000
0000
0000
1010
0000
0000
0000
0001
0100
0001
0010
0001
0000
1000
0000
,  // measure 9
0000
0000
0101
0000
0000
0000
0001
0010
0100
0000
0010
0000
0001
0000
1000
0000
,  // measure 10
1010
0000
0000
0000
1100
0000
0000
0000
1000
0010
0100
0010
1000
0000
0001
0000
,  // measure 11
0000
1000
0100
1000
0010
0100
0001
1000
,  // measure 12
1100
0000
0000
0000
1001
0000
0000
0000
0001
1000
0010
1000
0001
0000
1000
0000
,  // measure 13
0000
0000
0110
0000
0000
0000
0001
1000
0100
0000
1000
0000
0001
0000
0100
0000
,  // measure 14
0101
0000
0000
0000
0011
0000
0000
0000
0100
1000
0010
0100
0010
0000
1000
0000
,  // measure 15
0000
0000
0000
1001
0000
0000
0001
0000
0010
0000
0001
0000
0100
0000
0000
0010
0000
0000
1001
0000
0000
0000
0000
0000
,  // measure 16
1000
1000
0001
0010
0001
0100
1000
0100
,  // measure 17
0001
1000
0100
0010
0011
0000
1010
0000
,  // measure 18
1000
0001
0010
0001
1000
0010
0001
0010
,  // measure 19
1000
0100
0010
0001
0011
0000
1010
0000
,  // measure 20
0001
0100
0110
0000
0010
1000
0110
0000
,  // measure 21
0010
0001
0011
0000
0001
1000
1100
0000
,  // measure 22
0001
0001
0100
0100
0010
0010
1000
1000
,  // measure 23
0004
0040
0000
0000
0000
0000
0000
0000
0000
0000
0000
0000
0033
0000
0000
0000
,  // measure 24
0100
1000
0100
1000
0100
1000
0001
1000
0001
0100
0001
0100
0010
0000
1000
0000
,  // measure 25
0000
0000
0010
0000
0010
0100
0010
1000
0001
1000
0001
1000
0100
0000
0000
0000
,  // measure 26
0010
0000
0000
0000
0001
0000
0000
0000
0100
0010
0100
0010
0100
0000
0001
0000
,  // measure 27
0000
0000
1000
0100
1000
0000
0001
0100
0001
0000
0100
0000
0010
0000
0000
0000
,  // measure 28
1000
0000
0010
0100
0010
1000
0010
1000
0010
1000
0001
1000
0001
0000
1000
0000
,  // measure 29
0000
0000
0100
0010
0100
0000
0010
0001
1000
0001
1000
0010
1000
0000
0001
0100
,  // measure 30
0001
0000
1000
0000
0001
0000
1000
0000
0010
1000
0010
1000
0010
0000
0100
0000
,  // measure 31
0000
0000
0010
0100
0010
0000
1000
0001
1000
0000
0010
0000
1001
0000
0000
0000
,  // measure 32
0001
0100
0001
0000
0100
0000
0010
1000
0010
0000
1000
0000
0001
0010
0001
0000
,  // measure 33
0010
0100
0010
0000
0100
0000
1000
0100
1000
0000
0100
0000
0010
0001
0010
0000
,  // measure 34
0001
0100
0001
0000
0100
0000
0010
0100
0010
0000
0100
0000
0010
1000
0010
0000
,  // measure 35
1000
0001
1000
0000
0001
0000
0010
0100
0010
0000
0100
0000
1000
0100
1000
0000
,  // measure 36
0010
0000
0010
0000
0100
1000
0100
0001
,  // measure 37
0000
1000
0001
0000
0010
0000
0010
0000
,  // measure 38
0100
0000
0100
0000
0100
0001
0100
1000
,  // measure 39
0000
0001
1000
0000
0110
0000
1001
0000
,  // measure 40
0110
0000
0000
0001
1000
0100
0000
0010
,  // measure 41
0001
0000
0100
0010
0100
0000
0000
0000
0010
0000
1000
0000
0010
0000
0100
0000
,  // measure 42
0000
0000
0000
0000
,  // measure 43
0001
0000
0000
1000
0000
0000
0001
0000
0000
0000
0000
0000
0001
0000
0000
0000
0000
0000
0000
0000
0000
0001
0000
0000
0000
0000
0000
0000
0000
0000
0000
0000
0000
0000
0000
0000
1000
0000
0000
0000
0001
0000
0000
0000
1000
0000
0000
0000
,  // measure 44
0001
0000
1000
0000
0100
0000
0010
0001
0010
0001
0010
0000
0100
0000
1000
0000
,  // measure 45
0010
0000
0000
0000
,  // measure 46
0000
0000
0000
0000
0000
0000
0100
0010
0100
0000
0000
0000
0000
0000
0000
0000
,  // measure 47
0001
0000
0000
0000
0000
1000
0001
1000
0000
0000
0000
0000
0000
0000
0000
0000
,  // measure 48
0001
0001
0010
1000
0010
0010
0001
1000
,  // measure 49
0010
0000
0100
0001
0010
0100
1000
0000
1000
0100
0000
0010
0001
0000
1000
0000
,  // measure 50
0010
0010
1000
0100
0010
0010
0001
1000
,  // measure 51
0001
0100
0000
0010
1000
0000
0001
0100
0000
0010
1000
0000
0001
0000
0001
0000
,  // measure 52
1001
1000
0001
0000
0000
0000
1001
0001
1000
0000
0000
0000
1001
1000
0001
0000
,  // measure 53
0000
0000
0000
0000
0000
0000
1001
0000
0000
0001
0000
0000
1000
0000
0000
0000
0000
0000
0000
0000
0000
0000
0000
0000
0010
0000
0000
0000
0010
0000
0000
0000
0010
0000
0000
0000
0100
0000
0000
0000
0100
0000
0000
0000
0100
0000
0000
0000
,  // measure 54
1001
0000
0000
0000
,  // measure 55
1000
0001
0000
0001
0000
0000
0001
0000
0001
0000
0000
0000
1000
0000
0001
0000
,  // measure 56
0100
0100
0010
1000
0001
0001
0010
0200
,  // measure 57
0000
0310
0001
1000
1020
0000
0100
0130
,  // measure 58
0010
0010
0100
0001
1000
1000
0100
0020
,  // measure 59
0000
0130
1000
0001
1002
0000
0010
0013
,  // measure 60
0100
1000
0001
0100
0010
0100
0001
2000
,  // measure 61
0000
3100
0010
0001
0201
0000
0010
0310
,  // measure 62
1000
0001
0010
0010
0100
0010
0010
0000
,  // measure 63
0001
1000
0000
1000
0000
0000
1000
0000
1000
0000
0000
0000
0001
0000
0100
0000
,  // measure 64
0010
1000
0010
0000
0100
0000
0001
0010
0100
0000
0010
0000
0001
0000
1000
0000
,  // measure 65
0100
1000
0100
0000
0010
0000
0100
1000
0020
0000
0000
0000
0100
0000
0130
0000
,  // measure 66
0010
0100
0010
0000
1000
0000
0001
0010
0001
0000
0010
0000
0100
0000
1000
0000
,  // measure 67
0010
1000
0010
0000
0100
0000
0001
1000
0002
0000
0000
0000
0010
0000
0013
0000
,  // measure 68
0100
1000
0010
0000
0100
0000
0010
0100
0001
0000
1000
0001
0010
0000
0100
0000
,  // measure 69
1000
0100
0010
0000
0100
0000
1000
0001
0200
0000
0000
0000
0010
0000
0310
0000
,  // measure 70
1000
0010
1000
0010
0100
0001
0100
0001
1000
0001
1000
0001
0010
0001
0010
0001
,  // measure 71
1000
0001
0000
0001
0000
0000
0001
0000
0001
0000
0000
0000
1000
0000
0010
0000
,  // measure 72
0100
0100
0010
1000
0001
0001
0010
0100
,  // measure 73
0000
1000
0001
1000
0000
0000
0201
0000
,  // measure 74
0000
0000
0000
0000
,  // measure 75
0000
0000
0000
0000
,  // measure 76
0000
0000
0000
0000
,  // measure 77
0000
0000
0000
0000
,  // measure 78
0000
0300
0000
0000
;
