#VERSION:0.83;
#TITLE:B WiZ U;
#SUBTITLE:;
#ARTIST:Getty;
#TITLETRANSLIT:;
#SUBTITLETRANSLIT:;
#ARTISTTRANSLIT:;
#GENRE:;
#ORIGIN:;
#CREDIT:;
#BANNER:B WiZ U.png;
#BACKGROUND:B WiZ U-bg.png;
#PREVIEWVID:;
#JACKET:B WiZ U-jacket.png;
#CDIMAGE:;
#DISCIMAGE:;
#LYRICSPATH:;
#CDTITLE:;
#MUSIC:B WiZ U.ogg;
#OFFSET:-0.316000;
#SAMPLESTART:97.686996;
#SAMPLELENGTH:21.914000;
#SELECTABLE:YES;
#BPMS:0.000=175.000;
#STOPS:;
#DELAYS:;
#WARPS:;
#TIMESIGNATURES:0.000=4=4;
#TICKCOUNTS:0.000=4;
#COMBOS:0.000=1;
#SPEEDS:0.000=1.000=0.000=0;
#SCROLLS:0.000=1.000;
#FAKES:;
#LABELS:0.000=Song Start;
#BGCHANGES:;
#KEYSOUNDS:;
#ATTACKS:
;

//---------------dance-single - ----------------
#NOTEDATA:;
#CHARTNAME:;
#STEPSTYPE:dance-single;
#DESCRIPTION:;
#CHARTSTYLE:;
#DIFFICULTY:Beginner;
#METER:6;
#RADARVALUES:0.186911,0.321455,0.082714,0.000000,0.000000,174.000000,163.000000,11.000000,0.000000,0.000000,0.000000,0.000000,0.000000,0.000000,0.186911,0.321455,0.082714,0.000000,0.000000,174.000000,163.000000,11.000000,0.000000,0.000000,0.000000,0.000000,0.000000,0.000000;
#CREDIT:Pandemonium X;
#NOTES:
// measure 0
0000
0000
0000
0000
,  // measure 1
0000
0000
0000
0000
,  // measure 2
0000
0000
0000
0000
,  // measure 3
0000
0000
0000
0000
,  // measure 4
0000
0000
0000
0000
,  // measure 5
0001
0000
0000
0000
,  // measure 6
1000
0000
0000
0000
,  // measure 7
0001
0000
1000
0000
,  // measure 8
0001
0000
0000
0000
,  // measure 9
0100
0000
0000
0000
,  // measure 10
0010
0000
0000
0000
,  // measure 11
1000
0000
0001
0000
,  // measure 12
0110
0000
0000
0000
,  // measure 13
1001
0001
0000
0000
,  // measure 14
1000
1000
0000
0000
,  // measure 15
0010
0000
0000
0000
,  // measure 16
0100
0000
0010
0010
,  // measure 17
0100
0000
0000
0000
,  // measure 18
0001
0001
0000
0000
,  // measure 19
0010
0000
0001
0000
,  // measure 20
1000
0000
0000
0000
,  // measure 21
0100
0010
0000
0000
,  // measure 22
0100
0100
0000
0000
,  // measure 23
1000
0000
0000
0000
,  // measure 24
0001
0000
0000
0000
,  // measure 25
1000
0000
1000
0000
,  // measure 26
0001
0000
0001
0000
,  // measure 27
0100
0100
0100
0100
,  // measure 28
0100
0000
0010
0010
,  // measure 29
1001
0000
0000
0000
,  // measure 30
0000
0000
0000
0000
,  // measure 31
1000
0000
0000
0000
,  // measure 32
0001
0000
0100
0000
,  // measure 33
0010
0000
0000
0000
,  // measure 34
0100
0000
0001
0000
,  // measure 35
1000
0000
0000
0000
,  // measure 36
0100
0000
1000
0000
,  // measure 37
0010
0000
0000
0010
,  // measure 38
0010
0000
0010
0000
,  // measure 39
0110
0000
0000
0000
,  // measure 40
1001
0000
0001
0001
,  // measure 41
1000
0000
0000
0000
,  // measure 42
0010
0010
0010
0000
,  // measure 43
0100
0000
0010
0000
,  // measure 44
1000
0000
0001
0000
,  // measure 45
1000
0000
0001
0000
,  // measure 46
0110
0000
0000
0000
,  // measure 47
1000
0000
0000
0000
,  // measure 48
0000
0000
0000
0000
,  // measure 49
0001
0000
0000
0000
,  // measure 50
0000
0000
0000
0000
,  // measure 51
0100
0000
0000
0000
,  // measure 52
0000
0000
0000
0000
,  // measure 53
0010
0000
0000
0000
,  // measure 54
0000
1000
1000
1000
,  // measure 55
0001
1000
0000
1000
,  // measure 56
0000
1000
0000
0001
,  // measure 57
0000
1000
0000
1000
,  // measure 58
0000
0001
1000
0000
,  // measure 59
0001
0001
0000
0001
,  // measure 60
0000
0001
0000
0001
,  // measure 61
1000
0000
0001
0000
,  // measure 62
1000
0001
0100
0100
,  // measure 63
0010
0000
0000
0000
,  // measure 64
0100
0000
0000
0000
,  // measure 65
0001
0000
0000
0000
,  // measure 66
0010
0000
0000
0000
,  // measure 67
0100
0100
0100
0000
,  // measure 68
0010
0010
0010
0000
,  // measure 69
0001
1000
0001
1000
,  // measure 70
0110
0000
0000
0000
,  // measure 71
0001
0000
1000
0000
0000
0000
0000
0100
,  // measure 72
0000
0000
0000
0000
1000
0000
0000
0010
,  // measure 73
0000
0000
0000
0000
1000
0000
0000
0001
,  // measure 74
0000
0000
0010
0010
,  // measure 75
0100
0000
0000
0000
0010
0000
0000
0001
,  // measure 76
0000
0000
0000
0000
1000
0000
0000
1000
,  // measure 77
0000
0000
0000
0000
0001
0000
0000
0001
,  // measure 78
0000
0000
0100
0100
,  // measure 79
0110
0000
0000
0000
,  // measure 80
0000
0000
0000
0000
0010
0000
0000
0100
,  // measure 81
0000
0000
0000
0000
0010
0000
0000
0100
,  // measure 82
0000
0000
0010
0010
,  // measure 83
1000
1000
1000
0000
,  // measure 84
0001
0001
0001
0000
,  // measure 85
0100
0000
0010
0000
,  // measure 86
1001
0000
0000
0000
,  // measure 87
0001
1000
0000
0000
,  // measure 88
0010
0010
0000
0000
,  // measure 89
0100
0000
0000
0000
,  // measure 90
0001
0000
1000
0000
,  // measure 91
0010
0000
0010
0000
,  // measure 92
0100
0000
0100
0000
,  // measure 93
0001
0000
1000
0000
,  // measure 94
0110
0000
1000
0001
,  // measure 95
0110
0000
0000
0000
;

//---------------dance-single - ----------------
#NOTEDATA:;
#CHARTNAME:;
#STEPSTYPE:dance-single;
#DESCRIPTION:;
#CHARTSTYLE:;
#DIFFICULTY:Easy;
#METER:9;
#RADARVALUES:0.366303,0.464324,0.233102,0.097752,0.000000,341.000000,310.000000,31.000000,13.000000,0.000000,0.000000,0.000000,0.000000,0.000000,0.366303,0.464324,0.233102,0.097752,0.000000,341.000000,310.000000,31.000000,13.000000,0.000000,0.000000,0.000000,0.000000,0.000000;
#CREDIT:Pandemonium X;
#NOTES:
// measure 0
0000
0000
0000
0000
,  // measure 1
0000
0000
0000
0000
,  // measure 2
0000
0000
0000
0000
,  // measure 3
0000
0000
0000
0000
,  // measure 4
0000
0000
0000
0000
,  // measure 5
1001
0000
0000
0000
,  // measure 6
0110
0000
0000
0000
,  // measure 7
1001
0000
0110
0000
,  // measure 8
1001
0001
0100
0100
,  // measure 9
0010
0010
0010
0010
,  // measure 10
1000
1000
1000
1000
,  // measure 11
0001
0010
0100
1000
,  // measure 12
0202
0000
0000
0303
,  // measure 13
1010
0001
1000
1000
,  // measure 14
0001
0010
0001
0100
,  // measure 15
0100
0100
0010
1000
,  // measure 16
0100
0010
0110
1100
,  // measure 17
1001
0001
0100
0001
,  // measure 18
0010
0010
0100
1000
,  // measure 19
0001
0100
0001
0010
,  // measure 20
0100
0000
0000
0000
,  // measure 21
0011
0001
0100
0010
,  // measure 22
1000
1000
0001
0010
,  // measure 23
0001
0100
0010
0010
,  // measure 24
0200
0000
0000
0300
,  // measure 25
0010
1000
0000
0001
,  // measure 26
0000
1000
0000
0001
,  // measure 27
0100
0100
0100
0100
,  // measure 28
0010
0100
0101
1100
,  // measure 29
2000
0000
0000
0000
,  // measure 30
3001
0000
0000
0000
,  // measure 31
0010
1001
0001
1000
,  // measure 32
0010
1000
0001
0010
,  // measure 33
0100
0010
0001
1000
,  // measure 34
0010
0100
1000
0100
,  // measure 35
0020
1030
0001
0010
,  // measure 36
0100
0010
0001
0001
,  // measure 37
0010
0001
0000
0100
,  // measure 38
0001
1000
0100
1000
,  // measure 39
0020
0000
0000
0000
0000
0000
0100
0100
,  // measure 40
0130
0001
1000
1001
,  // measure 41
0001
0010
0001
0100
,  // measure 42
0010
1000
0001
0010
,  // measure 43
0100
0010
0000
0100
,  // measure 44
0000
1000
0000
0001
,  // measure 45
0100
0100
0010
0010
,  // measure 46
2002
0000
3003
0000
,  // measure 47
0010
0000
0000
0100
0000
0000
0000
0010
,  // measure 48
0000
1000
0000
0001
0000
0000
0000
0000
,  // measure 49
0010
0000
0000
0100
0000
0010
0000
0001
,  // measure 50
0000
1000
0000
0010
0000
0000
0000
0000
,  // measure 51
0100
0000
0000
0010
0000
0000
0000
0100
,  // measure 52
0000
0100
0000
0100
0000
0000
0010
0000
,  // measure 53
1000
0000
0000
0001
0000
1000
0000
0100
,  // measure 54
0000
1100
0101
1100
,  // measure 55
0001
0000
0100
0000
0000
0010
1000
0000
,  // measure 56
0001
0000
0010
0000
0000
0100
1000
0000
,  // measure 57
0100
0000
1000
0000
0000
0001
0100
0000
,  // measure 58
0001
0010
0100
0100
,  // measure 59
0010
0000
0001
0000
0000
0100
0010
0000
,  // measure 60
0100
0000
0010
0000
0000
1000
0001
0000
,  // measure 61
0010
0000
0000
0100
0000
0010
0000
0001
,  // measure 62
0000
0101
1100
0101
,  // measure 63
1000
1000
1000
1000
,  // measure 64
0100
0100
0100
0100
,  // measure 65
0010
0010
0010
0010
,  // measure 66
0001
0001
0001
0000
,  // measure 67
1000
0100
0010
0001
,  // measure 68
0001
0010
0100
1000
,  // measure 69
1000
0001
0100
0010
,  // measure 70
2002
0000
0000
3003
,  // measure 71
0010
1001
1000
0001
,  // measure 72
0010
0001
0100
0100
,  // measure 73
0100
0001
0100
0100
,  // measure 74
0100
0000
0010
0000
1000
0001
1000
0001
,  // measure 75
1000
1000
0100
0010
,  // measure 76
0100
1000
0001
0001
,  // measure 77
0001
1000
0001
0001
,  // measure 78
0001
1000
0001
0100
,  // measure 79
0020
0000
0000
0000
0000
0000
0000
0130
,  // measure 80
0000
0100
0000
0000
0010
0000
0000
1000
,  // measure 81
0000
1000
0000
0000
0001
0000
0000
0010
,  // measure 82
0000
0010
0000
0000
0001
0000
0010
0000
,  // measure 83
0100
0100
0100
1100
,  // measure 84
1000
1000
1000
0101
,  // measure 85
0001
1001
0010
0110
,  // measure 86
2002
0000
0000
3003
,  // measure 87
0100
1001
0001
1000
,  // measure 88
0010
1000
0010
0000
1000
0000
0001
0000
,  // measure 89
0010
0100
0010
0001
,  // measure 90
0100
0010
1000
1000
,  // measure 91
0001
1000
0010
1000
,  // measure 92
0001
0010
0001
1000
,  // measure 93
0010
0010
0100
0100
,  // measure 94
0010
0000
1000
0001
0010
0000
0010
0000
,  // measure 95
1001
0000
0000
0000
;

//---------------dance-single - ----------------
#NOTEDATA:;
#CHARTNAME:;
#STEPSTYPE:dance-single;
#DESCRIPTION:;
#CHARTSTYLE:;
#DIFFICULTY:Medium;
#METER:13;
#RADARVALUES:0.589737,0.716225,0.496282,0.127830,0.093993,549.000000,483.000000,66.000000,17.000000,0.000000,0.000000,0.000000,0.000000,0.000000,0.589737,0.716225,0.496282,0.127830,0.093993,549.000000,483.000000,66.000000,17.000000,0.000000,0.000000,0.000000,0.000000,0.000000;
#CREDIT:Pandemonium X;
#NOTES:
// measure 0
0000
0000
0000
0000
,  // measure 1
0000
0000
0000
0000
,  // measure 2
0000
0000
0000
0000
,  // measure 3
0000
0000
0000
0000
,  // measure 4
0000
0000
0000
0000
,  // measure 5
1001
0000
0001
0100
0000
0000
0000
0010
,  // measure 6
0000
0010
0000
0010
0000
0100
0010
1000
,  // measure 7
1001
0000
0000
1100
0000
1000
0100
0010
,  // measure 8
0000
1100
0101
1100
,  // measure 9
0001
0100
0010
1000
,  // measure 10
0001
0100
0010
1000
,  // measure 11
0000
0001
0100
0100
0010
0000
0100
0000
,  // measure 12
0001
0010
1000
0010
0001
0100
0010
0000
,  // measure 13
1001
0000
0000
0000
1010
0000
0000
0000
1000
0000
0000
1000
0000
0000
1000
0000
,  // measure 14
0100
0000
0100
0000
0100
0000
0000
0000
0010
0000
0000
0001
0000
0000
0100
0000
,  // measure 15
0010
0000
1000
0000
0001
0000
0000
0000
0010
0000
0000
0010
0000
0000
0010
0000
,  // measure 16
0100
1000
1000
1000
0002
0000
2003
0000
,  // measure 17
3010
0000
0000
0000
0101
0000
0000
0000
0001
0000
0000
0001
0000
0000
0001
0000
,  // measure 18
0010
0000
0010
0000
0010
0000
0000
0000
0100
0000
0000
0010
0000
0000
0001
0000
,  // measure 19
1000
0000
0001
0000
0100
0000
0010
1000
0010
0000
0000
0100
0000
0000
0001
0000
,  // measure 20
0011
0000
0010
0000
0100
0000
1000
0000
0002
0000
0000
0100
0000
0103
0000
0000
,  // measure 21
2010
0000
0000
0000
3100
0000
0000
0000
0010
0000
0000
0010
0000
0000
0001
0000
,  // measure 22
1000
0000
1000
0000
1000
0000
0000
0000
0001
0000
0000
0100
0000
0000
0010
0000
,  // measure 23
1000
0000
0100
0000
0001
0000
0000
0000
0100
0000
0000
1000
0000
0000
0001
0000
,  // measure 24
0100
0000
0000
0100
0000
0000
0100
0000
0000
0100
0000
0000
0100
0000
0010
0000
,  // measure 25
1001
0001
1000
0001
0000
1000
0001
1000
,  // measure 26
0000
0001
1000
0001
0000
1000
0001
1000
,  // measure 27
0100
0100
0100
0100
,  // measure 28
1001
0000
0001
0100
0020
0000
2030
0000
,  // measure 29
3001
0001
0010
0010
0100
0100
1000
1000
,  // measure 30
1001
0000
0000
0000
,  // measure 31
1010
1100
0110
0011
,  // measure 32
0101
0000
0001
0000
0000
0001
0000
0000
0001
0000
1000
0000
0110
0000
0000
0000
,  // measure 33
1010
1010
0101
0101
,  // measure 34
0001
0000
1000
0000
0000
1000
0000
0000
0100
0000
0010
0000
0100
0000
1000
0000
,  // measure 35
0020
0130
0101
0011
,  // measure 36
1001
0000
1000
0000
0000
1000
0000
0000
1000
0000
0001
0000
0110
0000
0000
0000
,  // measure 37
0000
0100
0001
0010
0000
0100
1000
0010
,  // measure 38
0100
0000
0010
0100
0001
0010
0100
1000
,  // measure 39
0002
0000
0000
0000
,  // measure 40
0103
0000
1010
0000
1100
0100
0100
0000
,  // measure 41
0011
0110
1100
1010
,  // measure 42
0101
0000
0001
0000
0000
0001
0000
0000
0001
0000
1000
0000
0110
0000
0000
0000
,  // measure 43
0100
0001
1000
0001
0000
1000
0001
1000
,  // measure 44
0000
0001
1000
0001
0000
1000
0001
1000
,  // measure 45
0100
0000
0000
0000
0100
0000
0010
0000
0001
0000
0000
0001
0000
0000
0001
0000
,  // measure 46
2000
0000
0000
0000
0000
3010
0100
0001
,  // measure 47
1001
0000
0000
1100
0000
0100
0100
1000
,  // measure 48
0000
0010
0000
0100
0000
0010
1000
0001
,  // measure 49
0010
0000
0000
1100
0000
0100
0100
0100
,  // measure 50
0000
0010
0000
0001
0000
0010
0100
1000
,  // measure 51
1100
0000
1000
1000
0000
0000
0000
0001
,  // measure 52
0000
1000
0000
0110
0000
0100
0010
1000
,  // measure 53
0001
0000
0000
0011
0000
0010
0100
1000
,  // measure 54
0000
1100
0101
1100
,  // measure 55
1001
0000
0010
0000
1000
0100
0010
0000
,  // measure 56
0100
0000
1000
0000
0001
0100
0010
0000
,  // measure 57
0100
0000
0001
0000
0010
0100
1000
0000
,  // measure 58
0100
0000
0000
0000
1000
0000
0010
0000
0100
0000
0000
0100
0000
0000
0100
0000
,  // measure 59
0001
0000
0010
0000
0100
1000
0010
0000
,  // measure 60
0100
0000
0001
0000
0010
0001
0100
0010
,  // measure 61
1000
0000
0000
0101
0000
0001
0100
0010
,  // measure 62
0000
1010
0011
1010
,  // measure 63
1000
0001
1000
0001
,  // measure 64
0010
0100
0010
0100
,  // measure 65
1000
0010
1000
0100
,  // measure 66
0010
0001
0100
0000
,  // measure 67
0010
0100
0001
0100
0010
0100
0002
0000
,  // measure 68
1003
0010
0100
0010
1000
0010
0200
0000
,  // measure 69
0301
0100
0010
1000
0001
0010
0100
1000
,  // measure 70
1001
0000
0000
0000
,  // measure 71
1010
0000
1000
0001
0010
0100
0010
0001
,  // measure 72
0000
0100
0000
0010
0010
1000
0001
0010
,  // measure 73
0000
0100
0000
0010
0010
0001
0100
0010
,  // measure 74
0000
1000
0000
0001
1000
1000
1000
0001
,  // measure 75
1000
0000
0001
0010
0100
1000
0010
0100
,  // measure 76
0000
0010
0000
1000
0001
0000
0001
0010
,  // measure 77
0000
0100
0000
0010
0001
0000
0100
0010
,  // measure 78
0000
0110
0000
0100
0010
0010
0010
0000
,  // measure 79
0100
0000
0010
1000
0001
0010
1000
0010
,  // measure 80
0000
0001
0000
0010
0200
0000
1000
1300
,  // measure 81
0000
0011
0000
0001
0200
0000
0010
0310
,  // measure 82
0000
0110
0000
0100
0001
0001
0001
0000
,  // measure 83
1000
0001
1000
0001
1000
0001
1001
0000
,  // measure 84
0010
0100
0010
0100
0010
0100
0110
0000
,  // measure 85
0001
0100
0010
1000
0001
0010
0100
1000
,  // measure 86
0002
0000
0000
0000
,  // measure 87
0103
0000
0000
0000
1001
0000
0000
0000
0001
0000
0000
0001
0000
0000
0001
0000
,  // measure 88
0100
0000
0100
0000
0100
0000
0000
0000
0010
0000
0000
1000
0000
0000
0100
0000
,  // measure 89
0010
0100
1000
0010
0100
0000
0000
0110
,  // measure 90
0000
0000
0010
0000
0100
0000
0001
0000
1000
0000
0001
0000
0100
0010
0100
0010
,  // measure 91
0100
0001
0100
0010
1000
0001
0011
0000
,  // measure 92
0001
0010
0100
1000
0010
0100
0101
0000
,  // measure 93
1001
0000
0000
0000
0001
0000
1000
0000
1001
0000
0000
0110
0000
0000
0110
0000
,  // measure 94
1001
0001
0001
0100
0020
0000
2030
0000
,  // measure 95
0002
3003
0000
0000
;

//---------------dance-single - ----------------
#NOTEDATA:;
#CHARTNAME:;
#STEPSTYPE:dance-single;
#DESCRIPTION:;
#CHARTSTYLE:;
#DIFFICULTY:Hard;
#METER:16;
#RADARVALUES:0.730458,1.071517,0.375971,0.225583,0.496282,680.000000,630.000000,50.000000,30.000000,0.000000,0.000000,13.000000,0.000000,0.000000,0.730458,1.071517,0.375971,0.225583,0.496282,680.000000,630.000000,50.000000,30.000000,0.000000,0.000000,13.000000,0.000000,0.000000;
#CREDIT:Pandemonium X;
#NOTES:
// measure 0
0000
0000
0000
0000
,  // measure 1
0000
0000
0000
0000
,  // measure 2
0000
0000
0000
0000
,  // measure 3
0000
0000
0000
0000
,  // measure 4
0000
0000
0000
0000
,  // measure 5
1001
0000
0001
1000
0000
0000
0000
0001
,  // measure 6
0000
0100
0000
1000
0000
1000
0100
0001
,  // measure 7
0101
0000
0000
1100
0000
0100
0010
0001
,  // measure 8
0000
0000
1000
0100
0002
0000
0203
0000
,  // measure 9
1300
0000
0000
1000
0100
0000
0000
0100
0010
0000
0000
0010
0001
0000
0000
0001
,  // measure 10
0100
0000
0000
0100
0010
0000
0000
0010
1000
0000
0000
1000
0001
0000
0000
0001
,  // measure 11
0010
1000
0010
0001
1000
0000
0100
0000
,  // measure 12
4000
0040
0000
0000
0000
0000
0000
0000
0000
0000
0000
0000
3030
0000
0000
0000
,  // measure 13
0101
0000
0000
0000
1010
0000
1000
0010
1000
0000
0010
0100
0000
0010
0100
0000
,  // measure 14
0001
0000
0001
0000
0001
0000
0010
0100
0010
0000
0100
1000
0000
0100
1000
0000
,  // measure 15
0010
0100
0010
0100
0010
0000
1000
0001
1000
0000
0001
1000
0000
0001
1000
0000
,  // measure 16
0010
0100
0100
0100
0210
0000
0302
0000
,  // measure 17
0013
0000
0000
0000
1001
0000
0001
1000
0001
0000
0100
0001
0000
0100
0001
0000
,  // measure 18
0010
0000
0010
0000
0010
0000
0000
0000
0100
0000
1000
0001
0000
1000
0001
0000
,  // measure 19
0110
0000
1010
0000
0001
0100
0010
1000
0001
0000
0000
1100
0000
0000
0011
0000
,  // measure 20
0004
4000
0000
0000
0000
0000
0000
0000
0000
0000
0000
0000
0000
0000
3003
0000
,  // measure 21
0220
0330
0000
0000
1001
0000
1000
0100
0010
0000
0100
1000
0000
1000
0010
0000
,  // measure 22
0100
0000
0100
0000
0100
0000
0010
0100
0001
0000
0010
0001
0000
0001
0100
0000
,  // measure 23
0010
1000
0010
1000
0010
0000
0100
0001
0010
0000
0100
1000
0000
1000
0010
0000
,  // measure 24
1001
0000
1000
0100
0000
0001
0100
0000
1000
0100
0000
0001
0100
0000
0010
0000
,  // measure 25
1000
0001
0010
1000
0000
0010
0001
0100
,  // measure 26
0000
1000
0100
0001
0000
0100
0010
1000
,  // measure 27
0001
0000
0000
1000
0010
0000
0000
0100
0001
0000
0000
0010
0100
0000
0000
0000
,  // measure 28
0110
0000
1000
0010
0110
0000
0101
0000
,  // measure 29
0002
0023
0230
2300
3002
0023
0230
2300
,  // measure 30
3001
0000
0000
0000
,  // measure 31
1001
0000
0001
0100
0010
1000
0100
0010
,  // measure 32
0100
0000
1000
0000
0001
0100
0000
0010
1000
0000
0100
0000
0110
0000
0000
0000
,  // measure 33
0010
0001
0100
0010
1000
0001
0010
0001
,  // measure 34
0100
0000
0010
0000
1000
0001
0000
0010
0200
0000
1000
0000
1300
0000
0001
0000
,  // measure 35
0400
0000
0310
1000
0100
1000
0001
0010
,  // measure 36
0100
0000
1000
0000
0001
0100
0000
0010
0100
0000
0010
0000
1010
0000
0000
0000
,  // measure 37
0000
0001
0100
1000
0000
1000
0100
0010
,  // measure 38
0100
0000
0010
1000
0100
0010
0010
0100
,  // measure 39
4000
0004
0000
0000
0000
0000
0000
0000
0000
0000
0000
0000
3003
0000
0000
0000
,  // measure 40
0110
0100
0010
1000
0001
0010
0110
1001
,  // measure 41
0110
0010
1000
0001
0010
0001
1000
0100
,  // measure 42
0010
0000
0001
0000
0000
0001
0000
0001
1000
0000
0100
0000
0020
0000
0000
0000
,  // measure 43
0130
1000
0010
0001
0000
0001
0010
1000
,  // measure 44
0000
1000
0010
0001
0000
0001
0010
1000
,  // measure 45
0001
0000
0000
0000
0001
0000
0010
0000
0001
0000
0000
1000
0000
0000
0010
0000
,  // measure 46
0100
0001
0100
0001
0100
0001
0100
0001
0100
0000
0010
0000
1000
0000
0001
0000
,  // measure 47
1001
0000
0000
1010
0000
0001
0100
0010
,  // measure 48
0000
0100
0000
0002
0000
1003
0100
0010
,  // measure 49
0100
0000
0000
1100
0000
0100
1000
0010
,  // measure 50
0000
0100
0000
0002
0000
0013
0001
0100
,  // measure 51
0010
0000
0100
0002
0000
0000
0003
1000
,  // measure 52
0000
0001
0000
0010
0000
0100
0010
0001
,  // measure 53
1000
0000
0000
1100
0000
0100
1000
0010
,  // measure 54
0000
0210
0302
0023
,  // measure 55
0130
1000
0100
0000
1000
0010
1000
0001
,  // measure 56
0000
0010
0100
0000
0010
0001
0100
0010
,  // measure 57
1000
0000
0100
1000
0000
0100
0010
0001
,  // measure 58
0000
0000
0010
0000
0100
0000
0010
0000
0001
0000
0000
0100
0000
0000
0010
0000
,  // measure 59
0100
0000
0101
0000
0000
0001
0010
0100
,  // measure 60
0000
0010
0001
0000
0100
0010
1000
0100
,  // measure 61
0010
0000
0100
1000
0000
0001
0100
0010
,  // measure 62
0000
0101
1100
0101
,  // measure 63
1001
0000
0000
0001
0010
0000
0000
0010
0100
0000
0000
0100
1000
0000
0000
1000
,  // measure 64
0010
0000
0000
0010
0100
0000
0000
0100
0001
0000
0000
0001
1000
0000
0000
1000
,  // measure 65
0100
0000
0000
0100
0010
0000
0000
0010
0001
0000
0000
0001
0100
0000
0000
0100
,  // measure 66
0010
0000
0000
0010
1000
0000
0000
1000
0001
0000
0000
0001
0010
0000
0000
0010
,  // measure 67
0100
1000
0100
1000
0001
0100
0001
0400
,  // measure 68
0310
1000
0010
1000
0001
0010
0001
0040
,  // measure 69
0430
4000
0000
0000
0000
0000
0000
0000
0000
0000
0000
0000
0000
0000
0000
0000
,  // measure 70
3300
0000
0000
0000
,  // measure 71
1001
0000
1000
1000
0001
0010
0001
0100
,  // measure 72
0000
0000
1010
0000
0000
0000
1000
0010
0100
0000
0001
0000
0010
0000
0100
0000
,  // measure 73
0000
0000
0011
0000
0000
0000
0010
0001
1000
0000
0010
0000
1000
0000
0001
0000
,  // measure 74
0000
1100
0000
0100
0010
0010
0010
0100
,  // measure 75
1000
0000
0001
0010
0100
0010
0001
1000
,  // measure 76
0000
0000
0101
0000
0000
0000
0001
0100
0010
0000
0100
0000
0001
0000
0010
0000
,  // measure 77
0000
0000
1100
0000
0000
0000
0100
0010
0001
0000
0000
0000
1000
0000
1001
0000
,  // measure 78
0000
1100
0000
0100
0010
0010
0010
0001
,  // measure 79
0100
0000
0020
1030
0002
0013
0200
2300
,  // measure 80
0000
0000
3020
0000
0000
0000
0130
0001
0010
0000
0000
0000
0010
0000
0001
0000
,  // measure 81
0000
0000
1100
0000
0000
0000
0100
1000
0010
0000
0000
0000
0100
0000
0001
0000
,  // measure 82
0000
1010
0000
1000
0010
0010
0010
1000
,  // measure 83
0100
0010
0100
0010
0100
0010
0100
0010
0100
0010
0100
0010
0100
0000
0000
0000
,  // measure 84
1000
0001
1000
0001
1000
0001
1000
0001
1000
0001
1000
0001
1000
0000
0000
0000
,  // measure 85
0010
0100
0010
0100
0010
0100
0010
0100
0001
1000
0001
1000
0001
1000
0001
4000
,  // measure 86
0004
0000
0000
3003
,  // measure 87
0110
0000
0000
0000
0101
0000
0001
0100
0010
0000
1000
0100
0000
1000
0001
0000
,  // measure 88
0100
0000
0100
0000
0100
0000
0010
1000
0001
0000
0010
0100
0000
0010
0001
0000
,  // measure 89
1000
0100
1000
0100
1000
0000
0100
0010
0001
0000
0100
0010
0000
0100
0001
0000
,  // measure 90
0010
0000
0001
0000
0100
0000
1000
0000
0100
0000
0001
0000
1000
0001
0010
0001
,  // measure 91
0200
0000
0000
0000
0301
0010
0001
0010
0001
0000
0000
0000
1000
0100
1000
0100
,  // measure 92
1000
0000
0000
0000
0001
0100
0001
0100
0001
0000
0000
0000
1000
0010
1000
0010
,  // measure 93
1000
0001
1000
0001
0100
0010
0100
0010
1000
0000
0000
1001
0000
0000
0110
0000
,  // measure 94
1001
0001
0001
0100
0020
0000
2000
3030
,  // measure 95
0101
0000
0000
0000
;
