#TITLE:Arcade Love (feat. KNVWN);
#SUBTITLE:;
#ARTIST:Newton;
#TITLETRANSLIT:;
#SUBTITLETRANSLIT:;
#ARTISTTRANSLIT:;
#GENRE:;
#CREDIT:;
#BANNER:Arcade Love (feat. KNVWN).png;
#BACKGROUND:Arcade Love (feat. KNVWN)-bg.png;
#LYRICSPATH:;
#CDTITLE:cdtitle.png;
#MUSIC:Arcade Love (feat. KNVWN).ogg;
#OFFSET:-0.080000;
#SAMPLESTART:46.445000;
#SAMPLELENGTH:21.754000;
#SELECTABLE:YES;
#BPMS:0.000000=176.000000
,200.000000=88.000000
,216.000000=176.000000
;
#STOPS:
;
#BGCHANGES:0.000=Arcade Love (feat. KNVWN).avi=1.000=1=0=0=StretchNoLoop==CrossFade==,
99999=-nosongbg-=1.000=0=0=0 // don't automatically add -songbackground-
;
#KEYSOUNDS:;
#ATTACKS:;

//---------------dance-single - ----------------
#NOTES:
     dance-single:
     :
     Beginner:
     3:
     0.128514,0.205152,0.036569,0.000000,0.000000,123.000000,118.000000,5.000000,0.000000,0.000000,0.000000,0.128514,0.205152,0.036569,0.000000,0.000000,123.000000,118.000000,5.000000,0.000000,0.000000,0.000000:
0000
0000
0000
0000
,
0000
0000
0000
0000
,
0000
0000
0000
0000
,
0000
0000
0000
0000
,
0000
0000
0000
0000
,
0000
0000
0000
0000
,
1001
0000
0000
0000
,
0000
0000
0000
0000
,
0000
0000
0000
0000
,
0000
0000
0000
0000
,
0001
0000
0000
0000
,
1000
0000
0000
0000
,
0010
0000
0000
0000
,
0000
0000
0100
0100
,
0100
0000
0000
0000
,
0010
0000
0000
0000
,
1000
0000
0000
0000
,
0000
0000
0001
0000
,
1000
0000
0000
0000
,
0100
0000
0000
0000
,
1000
0000
0000
0000
,
0010
0010
0000
0000
,
0100
0000
0000
0000
,
0001
0000
0000
0000
,
0000
1000
1000
1000
,
0000
0000
0000
0001
,
1000
0000
0010
0000
,
0100
0000
0000
0000
,
0010
0000
1000
0000
,
1001
0000
0000
0000
,
0001
0000
0010
0000
,
0100
0000
0000
0000
,
0010
0000
0001
0000
,
1001
0000
0000
0000
,
1000
0000
0001
0000
,
1000
0000
0000
0000
,
0010
0000
0100
0000
,
0010
0000
0000
0000
,
1000
0000
0000
0000
,
0100
0000
0000
0000
,
1000
0000
0000
0000
,
0001
0000
0000
0000
,
0100
0000
0010
0000
,
0100
0000
0000
0000
,
0010
0000
1000
0000
,
0001
0000
0000
0000
,
0010
0000
0000
0000
,
0100
0000
0000
0000
,
0010
0000
0000
0000
,
0001
0001
0001
0000
,
1001
0000
0001
0000
,
0000
0000
0000
1000
,
0010
0000
0000
0100
,
0000
0000
0000
0000
,
0010
0000
0000
1000
,
0000
0000
0001
0000
,
1000
0000
0000
0100
,
0000
0000
0010
0000
,
0100
0000
0000
1000
,
0000
0000
0000
0010
,
0100
0000
0001
0000
,
1001
0000
0000
0000
,
0010
0000
1000
0000
,
0100
0000
0000
0000
,
0010
0000
0001
0000
,
0100
0000
0000
0000
,
0010
0000
0000
0000
,
0100
0000
0000
0000
,
0001
0000
0000
0000
,
1000
1000
1000
0000
,
0001
0000
0000
0000
,
0010
0000
0000
0000
,
0001
0000
0000
0000
,
0100
0000
0010
0000
,
1000
0000
0000
0000
,
0001
0000
0000
0000
,
0010
0000
0001
0000
,
1000
0000
0000
0000
,
0001
0000
1000
0000
,
0010
0000
0000
0000
,
0100
0000
0001
0000
,
0010
0000
0000
0000
,
0100
0000
0000
0000
,
1000
0000
0000
0000
,
0010
0000
0000
0000
,
0100
0100
0100
0000
,
0010
0000
0000
0000
,
1000
0000
0000
0000
,
0001
0000
0000
0000
,
0010
0000
0100
0000
,
1000
0000
0000
0000
,
0010
0000
0000
0000
,
0100
0000
0010
0000
,
1000
1000
1000
0000
;

//---------------dance-single - ----------------
#NOTES:
     dance-single:
     :
     Easy:
     6:
     0.249714,0.307728,0.029255,0.014628,0.000000,239.000000,235.000000,4.000000,2.000000,0.000000,0.000000,0.249714,0.307728,0.029255,0.014628,0.000000,239.000000,235.000000,4.000000,2.000000,0.000000,0.000000:
0000
0000
0000
0000
,
0000
0000
0000
0000
,
0000
0000
0000
0000
,
0000
0000
0000
0000
,
0000
0000
0000
0000
,
0000
0000
0000
0000
,
0020
0000
0000
0000
,
0000
0000
0130
0200
,
0000
0000
0300
0000
1001
0000
0000
1000
,
0000
0000
1001
0000
0000
0001
0000
0000
,
1000
0100
1000
0010
,
0100
0001
0010
0100
,
1000
0000
0000
0100
,
0100
0000
0000
0000
,
1000
0001
0010
0001
,
0100
0001
1000
0100
,
0010
0000
0000
0100
,
0100
0000
0010
0001
,
0100
0000
0001
0000
,
1000
0000
0100
1000
,
0100
0000
1000
0000
,
0010
0000
0100
0100
,
0001
0010
0100
0010
,
0001
1000
0100
0000
,
0000
1000
1000
1000
,
0000
0000
0000
0001
,
0100
0001
0010
0100
,
0010
0001
1000
0000
,
0001
1000
0100
0010
,
0100
0000
0000
0000
,
0010
0100
1000
0010
,
0100
0001
1000
0000
,
0001
0010
0100
1000
,
1001
0000
0000
0000
,
0001
0000
1000
0000
,
0010
1000
0100
0000
,
0010
0000
0100
0000
,
1000
0100
0010
0001
,
1000
0000
0001
0000
0000
1000
0000
0000
,
0001
0000
0100
0000
,
0000
0000
0001
0000
0000
0010
0000
0000
,
0100
0000
0000
0000
,
0000
0010
0001
0100
,
0001
0001
1000
0000
,
0000
0100
0010
0100
,
1000
0010
0100
0001
,
0000
0000
1000
0000
0000
0001
0000
0000
,
1000
0000
0001
0000
,
0000
0000
0100
0000
0000
0010
0000
0000
,
1000
1000
1000
0000
,
0100
0000
1000
0000
,
0010
0000
0000
0000
0100
0000
0010
1000
,
0001
0000
0010
0000
,
0100
0000
0010
0000
,
0001
0000
0000
0001
0000
0000
0001
0000
,
0000
0001
0000
0000
0001
0000
0000
0000
,
1000
0000
0000
1000
0000
0000
1000
0000
,
0000
1000
0000
0000
1000
0000
0000
0000
,
0010
0000
0000
0010
0000
0000
0010
0000
,
0000
0010
0000
0000
0010
0000
0000
0000
,
0100
0000
0000
0100
0000
0000
0100
0000
,
0000
0000
0000
0000
,
1001
0000
0001
0000
,
1000
0100
1000
0000
,
0100
0000
1000
0000
,
0010
0100
0001
1000
,
0000
0000
0100
0000
0000
1000
0000
0000
,
0010
0000
0100
0001
,
0000
0000
1000
0000
0000
0100
0000
0000
,
0010
0010
0010
0000
,
0100
0000
1000
0000
,
0001
0100
0001
0000
,
0010
0000
0001
0000
,
1000
0100
0010
0001
,
0100
0000
0001
0000
0000
1000
0000
0000
,
0100
0000
0010
0100
,
1000
0000
0100
0000
0000
1000
0000
0000
,
0010
0000
0100
0010
,
1000
0001
0010
0001
,
0100
0001
1000
0000
,
0000
0001
0010
0100
,
1000
0100
0010
0100
,
0000
0000
1000
0000
0000
1000
0000
0000
,
0010
0000
0100
0010
,
1000
0000
0001
0000
0000
0010
0000
0000
,
0100
0100
0100
0000
,
0010
0000
0100
0000
,
0010
0001
1000
0000
,
0001
0000
1000
0000
,
0010
1000
0100
1000
,
0000
0000
0001
0000
0000
0001
0000
0000
,
1000
0000
0010
1000
,
0000
0000
0100
0000
0000
0100
0000
0000
,
0010
0010
0010
0000
;

//---------------dance-single - ----------------
#NOTES:
     dance-single:
     :
     Medium:
     10:
     0.378227,0.480608,0.351062,0.212100,0.043883,362.000000,314.000000,48.000000,29.000000,0.000000,0.000000,0.378227,0.480608,0.351062,0.212100,0.043883,362.000000,314.000000,48.000000,29.000000,0.000000,0.000000:
0000
0000
0000
0000
,
0000
0000
0000
0000
,
0000
0000
0000
0000
,
0000
0000
0000
0000
,
0000
0000
0000
0000
,
0000
0000
0000
0000
,
2001
0000
0000
0000
,
0000
0000
0010
0020
,
0000
0000
3030
0000
0100
0010
0000
1000
,
0001
0000
0100
0010
0000
1000
0001
0000
,
1000
0100
1000
0010
,
0100
0000
0001
0010
0000
0020
0000
0000
,
0000
0000
0030
0000
0000
0100
0000
0100
,
0000
0000
0000
0010
0001
0000
0100
0000
,
0010
1000
0001
0010
,
0100
0000
0010
0000
0001
0100
0000
0020
,
0000
0000
0030
0000
0000
1000
0000
1000
,
0000
0000
0001
1000
,
0100
0000
0000
1000
0000
0010
0000
0100
,
0000
0000
0010
1000
,
0001
0000
0000
0010
0000
0001
0000
0100
,
0000
0001
0000
1000
0100
0010
0001
0010
,
0100
0010
0001
0100
,
0010
0000
1000
0001
0000
0020
0000
0000
,
0030
0110
0110
0110
,
0000
0000
0000
0000
0000
0000
0100
1000
,
0100
0000
1000
0000
0010
0100
0000
0001
,
0000
0010
0000
0100
0000
0000
0010
0001
,
0100
0000
0001
0000
1000
0001
0000
2200
,
0000
0000
0000
0000
3300
0000
0001
1000
,
0010
0000
0100
0000
0001
0010
0000
0100
,
0000
0010
0000
0001
0000
0000
1000
0100
,
0010
0000
0100
0000
1000
0001
0000
0220
,
0000
0000
0000
0330
,
1000
0001
0100
0001
,
0010
0000
0100
0020
0000
0000
0000
0000
,
0000
0000
0130
1000
0010
0000
0100
0001
,
0010
0000
0100
0000
1000
0000
0001
1000
,
0000
0000
1001
0000
0000
1010
0000
0000
,
1001
0000
0000
0000
0001
0000
0010
0100
,
0000
0000
0110
0000
0000
0011
0000
0000
,
1100
0000
0000
0000
,
0000
0000
0001
0000
0100
0001
0010
0100
,
1000
0000
0100
0020
0000
0000
0000
0000
,
0030
0000
0100
0000
1000
0100
0010
0001
,
1000
0000
0001
0000
0100
0000
0001
0010
,
0000
0000
0011
0000
0000
0110
0000
0000
,
1100
0000
0000
0000
0100
0000
1000
0010
,
0000
0000
0110
0000
0000
0101
0000
0000
,
1001
0110
1001
0000
,
1000
0000
0000
0000
0000
0001
0000
0010
0000
0000
0000
0000
0000
0100
0000
0010
,
0000
0000
0000
0000
0000
0100
0000
1000
0000
0000
0000
0000
0100
0000
1000
0000
,
0020
0000
0000
0000
0030
0100
0000
0001
0000
0000
0000
0000
0000
0010
0000
0001
,
0000
0000
0000
0000
0000
1000
0000
0001
0000
0000
0000
0000
0000
0000
1000
0000
,
0002
0000
0000
0203
0000
0000
2300
0000
,
0000
0200
3000
0000
0301
0000
0000
0000
,
0002
0000
0000
0023
0000
0000
2030
0000
,
0000
3020
0000
0000
0031
0000
0000
0000
,
0002
0000
0000
2003
0000
0000
3020
0000
,
0000
2030
0000
0000
3001
0000
0000
0000
,
0002
0000
0000
0000
0013
0001
0000
1000
,
0100
0000
0010
0001
0000
1000
0100
0000
,
1001
0000
0001
0100
0001
0000
0010
0000
,
0100
0000
1000
0020
0000
0000
0000
0030
,
0000
0000
0100
0001
0010
0000
0100
1000
,
0010
0000
0100
0000
0001
0000
1000
0001
,
0000
0000
1001
0000
0000
1010
0000
0000
,
0101
0000
0000
0000
0001
0000
0010
0100
,
0000
0000
1100
0000
0000
0110
0000
0000
,
0011
1100
0011
0000
,
0000
0000
0001
0000
1000
0010
0100
0001
,
0010
0000
0100
0020
0000
0000
0000
0000
,
0030
0000
0100
0000
0010
0001
0100
0010
,
1000
0000
0001
0000
1000
0000
0001
0010
,
0000
0000
0011
0000
0000
1010
0000
0000
,
0101
0000
0000
0000
0001
0000
1000
0001
,
0000
0000
1100
0000
0000
0101
0000
0000
,
1000
0001
0000
0100
0010
0000
1000
0000
,
0001
0000
1000
0010
1000
0000
0100
0000
,
0010
0000
0100
2000
0000
0000
0000
0000
,
3000
0000
0100
1000
0010
0000
0100
0001
,
0010
0000
0100
0000
0010
0000
0001
1000
,
0000
0000
0101
0000
0000
1010
0000
0000
,
0101
0000
0000
0000
1001
0000
0001
0010
,
0000
0000
0110
0000
0000
0011
0000
0000
,
1001
0110
1001
0000
,
0000
0000
0001
0000
1000
0010
0100
0010
,
1000
0000
0001
0010
0000
0000
0000
0000
,
0000
0000
0200
0000
0310
0001
1000
0001
,
0100
0000
0001
0000
0010
0000
0100
1000
,
0000
0000
1100
0000
0000
0110
0000
0000
,
0011
0000
0000
0000
0001
0000
0100
0010
,
0000
0000
1001
0000
0000
1010
0000
0000
,
0001
0100
0000
0010
1000
0001
0010
0010
;

//---------------dance-single - ----------------
#NOTES:
     dance-single:
     :
     Hard:
     12:
     0.474352,0.617924,0.190159,0.175531,0.051197,454.000000,428.000000,26.000000,24.000000,0.000000,0.000000,0.474352,0.617924,0.190159,0.175531,0.051197,454.000000,428.000000,26.000000,24.000000,0.000000,0.000000:
0000
0000
0000
0000
,
0000
0000
0000
0000
,
0000
0000
0000
0000
,
0000
0000
0000
0000
,
0000
0000
0000
0000
,
0000
0000
0000
0000
,
0002
0000
0000
0000
,
0000
0000
1000
2000
,
0000
0000
3003
0000
0001
0100
0000
0001
,
1000
0000
0001
0010
0000
0100
1000
0000
,
1001
0000
0001
0000
0100
0010
0100
0000
,
0010
0000
1000
0000
0100
0010
0100
0000
,
1000
0000
0010
0000
0000
0100
0000
0001
,
0000
0000
0000
0010
0010
0001
1000
0100
,
0010
0000
0100
0000
1000
0001
1000
0000
,
0001
0000
0100
0000
0010
1000
0010
0000
,
0100
0000
0000
0000
0000
0001
0000
0010
,
0000
0000
0100
0000
0010
0010
0001
1000
,
0010
0000
0100
0001
0000
0010
0100
0000
,
2000
0000
3001
0000
0100
0001
0100
0010
,
1000
0000
0001
1000
0000
0100
0000
0010
,
0000
0100
0000
0010
0010
0001
1000
0010
,
1000
0000
0001
0000
1000
0100
1000
0000
,
0100
0000
1000
0000
0010
1000
0010
0000
,
0000
1001
0110
1001
,
0000
0000
0000
0000
0000
0000
0001
1000
,
0001
0000
1000
0000
0001
0100
0000
1000
,
0000
0010
0000
0001
0000
0000
1000
0001
,
1000
0000
0010
0000
0100
0001
0000
0000
,
2001
0001
0000
0001
3001
0000
1000
0001
,
1000
0000
0001
0000
1000
0100
0000
0001
,
0000
0010
0000
1000
0000
0000
0001
1000
,
0001
0000
0100
0000
0010
1000
0000
0202
,
0000
0000
0000
0303
,
1000
0000
0001
1000
0001
0000
0010
0000
,
0100
0000
0010
0002
0000
0000
0000
0003
,
0000
0000
0001
0100
1000
0000
1000
0100
,
0001
0000
1000
0000
0001
0000
1000
0001
,
1000
0100
0010
0001
1000
0100
0010
0001
,
2000
0000
0000
0000
3001
0000
1000
0001
,
1000
0000
0001
0010
0100
1000
0001
0010
,
0100
0000
0100
0000
0000
0000
1000
0100
1000
0000
0100
0000
0010
0000
0001
0000
,
1000
0000
0001
0000
1000
0100
1000
0001
,
0100
0000
0001
2000
0000
0000
0000
3000
,
0000
0000
0001
0000
0001
0010
1000
0010
,
0001
0000
1000
0000
0100
0000
1000
0001
,
1000
0100
0010
0001
1000
0100
0010
0001
,
2000
0000
0000
0000
3001
0000
0001
1000
,
0000
0000
0001
0010
0100
1000
0001
0010
,
0011
1010
1001
0000
,
1000
0000
0000
0000
0000
0001
0000
0010
0000
0000
0000
0000
0000
0001
0000
1000
,
0000
0000
0000
0000
0000
0100
0000
0010
0000
0000
0000
0000
0100
0000
0010
0000
,
0002
0000
0000
0000
0003
0100
0000
0010
0000
0000
0000
0000
0000
0100
0000
0001
,
0000
0000
0000
0000
0000
1000
0000
0010
0000
0000
0000
0000
0000
0000
1000
0000
,
0002
0000
0000
0203
0000
0000
2300
0000
,
0000
3010
0000
0000
1001
0000
0001
0000
,
2000
0000
0000
3200
0000
0000
0302
0000
,
0000
0013
0000
0000
1001
0000
1000
0000
,
0002
0000
0000
0203
0000
0000
2300
0000
,
0000
3010
0000
0000
1001
0000
0010
0000
,
1001
0000
0000
0000
0001
0100
0000
0001
,
1000
0000
1000
0100
0000
0010
0001
0000
,
1000
0000
0001
0100
0001
0000
0010
0000
,
0100
0000
1000
0020
0000
0000
0000
0000
,
0130
0000
0001
0010
1000
0000
1000
0010
,
0001
0000
1000
0000
0010
0000
0100
0010
,
1000
0010
0100
0001
1000
0010
0100
0001
,
1000
0000
0001
0010
0100
0000
0100
0010
,
0001
0100
0010
1000
0001
0100
0010
1000
,
1001
0110
1001
0000
,
1000
0000
0001
0000
0010
0100
1000
0001
,
1000
0000
0100
0020
0000
0000
0030
0000
,
0000
0000
1001
0000
1000
0100
0001
0100
,
1000
0000
0100
0000
0010
0000
0001
1000
,
0010
0100
0001
1000
0010
0100
0001
1000
,
0010
0000
1000
0100
0010
0000
0010
0100
,
1000
0001
0100
0010
1000
0001
0100
0010
,
1000
0000
0001
0000
0000
0000
0100
0010
0100
0000
0010
0000
1000
0000
0001
0000
,
0010
0000
0100
0010
0011
0000
1010
0000
,
0110
0000
0100
0002
0000
0000
0000
0000
,
0003
0000
1000
0100
0001
0000
0001
0100
,
1000
0000
0001
0000
0100
0000
0001
1000
,
0001
0001
0010
0100
0100
1000
0010
0010
,
0100
0000
0010
1000
0010
0000
0100
0001
,
0100
0000
0001
0001
0010
0100
0100
1000
,
1001
0110
1001
0000
,
0000
0000
1000
0000
0001
0010
0100
0010
,
0001
0000
0100
0020
0000
0000
0000
0000
,
0030
0000
1000
0000
0001
0010
1000
0010
,
0001
0000
1000
0000
0010
0000
0100
0001
,
0010
0010
0100
1000
1000
0010
0100
0100
,
0001
0000
1000
0001
1000
0000
0010
0100
,
0010
1000
1000
0010
0100
0100
0001
0010
,
0110
0000
1001
0000
0110
0010
1000
0001
;

//---------------dance-double - ----------------
#NOTES:
     dance-double:
     :
     Easy:
     7:
     0.269565,0.378123,0.138962,0.182845,0.000000,258.000000,239.000000,19.000000,25.000000,0.000000,0.000000,0.269565,0.378123,0.138962,0.182845,0.000000,258.000000,239.000000,19.000000,25.000000,0.000000,0.000000:
// measure 0
00000000
00000000
00000000
00000000
,  // measure 1
00000000
00000000
00000000
00000000
,  // measure 2
00000000
00000000
00000000
00000000
,  // measure 3
00000000
00000000
00000000
00000000
,  // measure 4
00000000
00000000
00000000
00000000
,  // measure 5
00000000
00000000
00000000
00000000
,  // measure 6
00200000
00000000
00000000
00000000
,  // measure 7
00000000
00000000
20300000
00020000
,  // measure 8
00000000
00000000
30030000
00000000
,  // measure 9
00000000
00000000
00000000
00000000
,  // measure 10
00100000
00000000
00001000
00000000
,  // measure 11
00010000
00000000
00000100
00001000
,  // measure 12
00000100
00000000
00001000
00000000
,  // measure 13
00000010
00000000
00000100
00000001
,  // measure 14
00000010
00000000
00000100
00000000
,  // measure 15
00010000
00000000
00001000
00001000
,  // measure 16
01000000
00000000
00100000
00000000
,  // measure 17
10000000
00000000
01000000
10000000
,  // measure 18
00100000
01000000
00010000
00100000
,  // measure 19
00001000
00000000
00010000
00010000
,  // measure 20
00000100
00001000
00000010
00000100
,  // measure 21
00000010
00000010
00000000
00000000
,  // measure 22
00000000
00000100
00000001
00001000
,  // measure 23
00000100
00001000
00000001
00001000
,  // measure 24
00000000
00001001
00001001
00001001
,  // measure 25
00000000
00000000
00000000
00000001
,  // measure 26
00000100
00000000
00000010
00000000
00001000
00000000
00000000
00000100
,  // measure 27
00000000
00010000
00000000
00001000
00000000
00000000
00100000
00000000
,  // measure 28
00010000
00000000
01000000
00000000
00100000
00000000
00000000
20020000
,  // measure 29
00000000
00000000
30030000
10000000
,  // measure 30
00010000
00000000
00100000
00000000
00001000
00000000
00000000
00010000
,  // measure 31
00000000
00000100
00000000
00010000
00000000
00000000
00000100
00000000
,  // measure 32
00001000
00000000
00000010
00000000
00000100
00000000
00000000
00002002
,  // measure 33
00000000
00000000
00000000
00003003
,  // measure 34
00000001
00000100
00000010
00001000
,  // measure 35
00000100
00000000
00000000
00020000
00000000
00000000
00000000
00000000
,  // measure 36
00030000
00001000
01000000
00100000
,  // measure 37
10000000
00000000
01000000
00000000
00100000
00000000
00010000
00100000
,  // measure 38
00000000
00000000
01000000
00000000
00000000
10000000
00000000
00000000
,  // measure 39
00100000
00000000
00000000
00000000
01000000
00000000
00100000
10000000
,  // measure 40
00000000
00000000
00020000
00000000
00000000
00230000
00000000
00000000
,  // measure 41
00002000
00000000
00000000
00303000
,  // measure 42
00000000
00010000
00000100
00001000
,  // measure 43
00000010
00000000
00000100
00000001
00000000
00000000
00000000
00000000
,  // measure 44
00000000
00000010
00000001
00000100
,  // measure 45
00000010
00000000
00001000
00000000
00000100
00000000
00010000
00000100
,  // measure 46
00000000
00000000
00010000
00000000
00000000
00001000
00000000
00000000
,  // measure 47
01000000
00000000
00100000
00100000
,  // measure 48
00000000
00000000
01000000
00000000
00000000
00001000
00000000
00000000
,  // measure 49
00011000
00011000
00011000
00000000
,  // measure 50
00100000
00000000
01000000
00000000
,  // measure 51
10000000
00000000
00000000
00000000
00100000
00000000
01000000
00100000
,  // measure 52
10000000
00000000
00010000
00000000
,  // measure 53
00100000
00000000
00001000
00000000
,  // measure 54
00010000
00000000
00000000
00001000
00000000
00000000
00010000
00000000
,  // measure 55
00000000
00001000
00000000
00000000
00011000
00000000
00000000
00000000
,  // measure 56
00001000
00000000
00000000
00010000
00000000
00000000
00001000
00000000
,  // measure 57
00000000
00010000
00000000
00000000
00011000
00000000
00000000
00000000
,  // measure 58
00000100
00000000
00000000
00010000
00000000
00000000
00001000
00000000
,  // measure 59
00000000
01000000
00000000
00000000
01001000
00000000
00000000
00000000
,  // measure 60
01000000
00000000
00000000
00002000
00000000
00000000
00020000
00000000
,  // measure 61
00000000
00000000
00000000
00033000
,  // measure 62
00010100
00010000
00000100
00001000
,  // measure 63
00000010
00000000
00000000
00000200
00000000
00000000
00000000
00000300
,  // measure 64
00000000
00000010
00001000
00000100
,  // measure 65
00010000
00000000
00001000
00000000
01000000
00000000
00100000
10000000
,  // measure 66
00000000
00000000
01000000
00000000
00000000
00010000
00000000
00000000
,  // measure 67
01000000
00000000
10000000
10000000
,  // measure 68
00000000
00000000
01000000
00000000
00000000
00100000
00000000
00000000
,  // measure 69
00110000
00110000
00110000
00000000
,  // measure 70
00100000
00001000
00010000
00000100
,  // measure 71
00001000
00000000
00000000
00000020
00000000
00000000
00000000
00000030
,  // measure 72
00000000
00000200
00000301
00000010
,  // measure 73
00000100
00000000
00000010
00000000
00000001
00000000
00001000
00000001
,  // measure 74
00000000
00000000
00001000
00000000
00000000
00000100
00000000
00000000
,  // measure 75
00000020
00000000
00000130
00000010
,  // measure 76
00000001
00000000
00000100
00000000
00000000
00000010
00000000
00000000
,  // measure 77
00002002
00000000
00000000
00000000
00000000
00000000
00000000
00003003
,  // measure 78
00001000
00000010
00001000
00000100
,  // measure 79
00010000
00000000
00000000
00000200
00000000
00000000
00000000
00000300
,  // measure 80
00000000
00010000
00001000
01000000
,  // measure 81
00100000
00000000
10000000
00000000
01000000
00000000
00100000
01000000
,  // measure 82
00000000
00000000
10000000
00000000
00000000
00010000
00000000
00000000
,  // measure 83
00100000
00000000
00001000
00010000
,  // measure 84
00000000
00000000
00000100
00000000
00000000
00001000
00000000
00000000
,  // measure 85
00001010
00001010
00001010
00000000
,  // measure 86
00000010
00001000
00000001
00000010
,  // measure 87
00000100
00000000
00000000
00000020
00000000
00000000
00000000
00000030
,  // measure 88
00000000
00000200
00010300
00001000
,  // measure 89
01000000
00000000
00001000
00000000
00010000
00000000
00000100
00001000
,  // measure 90
00000000
00000000
00000010
00000000
00000000
00000100
00000000
00000000
,  // measure 91
00000001
00000000
00000000
00000000
00001000
00000000
00000001
00000010
,  // measure 92
00000000
00000000
00000200
00000000
00000000
00020300
00000000
00000000
,  // measure 93
00002000
00000000
00000000
00000000
,  // measure 94
00033000
00000000
00000000
00000000
;

//---------------dance-double - ----------------
#NOTES:
     dance-double:
     :
     Medium:
     9:
     0.376138,0.444496,0.438827,0.212100,0.043883,360.000000,300.000000,60.000000,29.000000,0.000000,0.000000,0.376138,0.444496,0.438827,0.212100,0.043883,360.000000,300.000000,60.000000,29.000000,0.000000,0.000000:
// measure 0
00000000
00000000
00000000
00000000
,  // measure 1
00000000
00000000
00000000
00000000
,  // measure 2
00000000
00000000
00000000
00000000
,  // measure 3
00000000
00000000
00000000
00000000
,  // measure 4
00000000
00000000
00000000
00000000
,  // measure 5
00000000
00000000
00000000
00000000
,  // measure 6
01020000
00000000
00000000
00000000
,  // measure 7
00000000
00000000
00100000
00230000
,  // measure 8
00000000
00000000
00300000
00000000
00001000
00010000
00000000
00010000
,  // measure 9
00001000
00000000
00001000
00010000
00000000
00010000
00001000
00000000
,  // measure 10
00100000
01000000
10000000
00100000
,  // measure 11
01000000
00000000
00010000
00100000
00000000
00002000
00000000
00000000
,  // measure 12
00000000
00003000
00000000
00000000
00000000
00010000
00000000
00000100
,  // measure 13
00000000
00000000
00000000
00001000
00000100
00000000
00001000
00000000
,  // measure 14
00000010
00000100
00000001
00000010
,  // measure 15
00000100
00000000
00001000
00000000
00000100
00010000
00000000
00002000
,  // measure 16
00000000
00000000
00000000
00003000
00000000
01000000
00000000
00100000
,  // measure 17
00000000
00000000
00000000
00000000
10000000
01000000
00100000
00010000
,  // measure 18
00100000
00000000
00000000
00001000
00000000
00010000
00000000
00000200
,  // measure 19
00000000
00000000
00000000
00000300
00001000
00000100
00000010
00000001
,  // measure 20
00001000
00000000
00000001
00000100
00000000
00000010
00000000
00001000
,  // measure 21
00000000
00000200
00000000
00000000
00000000
00000300
00000000
00000000
,  // measure 22
00000000
00000000
00100000
00001000
00010000
00000000
00000100
00010000
,  // measure 23
00001000
00000000
00100000
01000000
00000000
20000000
00000000
00000000
,  // measure 24
30000000
10100000
01010000
10100000
,  // measure 25
00000000
00000000
00000000
00000000
00000000
00000000
10000000
01000000
,  // measure 26
00100000
00000000
00010000
00000000
00100000
00001000
00000000
00010000
,  // measure 27
00000000
00000100
00000000
00001000
00000000
00000000
00000010
00000100
,  // measure 28
00000001
00000000
00000010
00000000
00000100
00001000
00000000
00000022
,  // measure 29
00000000
00000000
00000000
00000000
00000033
00000000
00000001
00000001
,  // measure 30
00000100
00000000
00000010
00000000
00001000
00000100
00000000
00010000
,  // measure 31
00000000
00001000
00000000
00010000
00000000
00000000
00001000
01000000
,  // measure 32
00100000
00000000
10000000
00000000
00010000
00100000
00000000
22000000
,  // measure 33
00000000
00000000
00000000
33000000
,  // measure 34
10000000
00000000
01000000
10000000
00100000
00000000
01000000
00000000
,  // measure 35
00010000
00000000
00100000
00002000
00000000
00000000
00003000
00000000
,  // measure 36
00000000
00000000
00010000
00000100
00010000
00000000
00001000
00000100
,  // measure 37
00001000
00000000
00000100
00000000
00000010
00000000
00000001
00000011
,  // measure 38
00000000
00000000
00000110
00000000
00000000
00001100
00000000
00000000
,  // measure 39
00020100
00000000
00001000
00031000
,  // measure 40
00000000
00000000
00011000
00000000
00000000
00110000
00000000
00000000
,  // measure 41
22000000
00000000
33000000
00000000
,  // measure 42
10010000
00000000
10000000
00000000
00100000
01000000
00010000
00000000
,  // measure 43
00100000
00000000
00001000
00020000
00000000
00000000
00000000
00030000
,  // measure 44
00000000
00000000
00000020
00000000
00000130
00000100
00000001
00000010
,  // measure 45
00000100
00000000
00001000
00000000
00000100
00000000
00010000
00011000
,  // measure 46
00000000
00000000
01001000
00000000
00000000
01100000
00000000
00000000
,  // measure 47
10200000
00000000
01000000
01300000
,  // measure 48
00000000
00000000
10010000
00000000
00000000
00110000
00000000
00000000
,  // measure 49
00101000
00011000
00101000
00000000
,  // measure 50
00000100
00000000
00000000
00000000
00000000
00001000
00000000
00001000
00000000
00000000
00000000
00000000
00000000
00000001
00000000
00000001
,  // measure 51
00000000
00000000
00000000
00000000
00000000
00000100
00000000
00000100
00000000
00000000
00000000
00000000
00000010
00000000
00010000
00000000
,  // measure 52
00001000
00000000
00000000
00000000
00000000
00100000
00000000
00100000
00000000
00000000
00000000
00000000
00000000
01000000
00000000
01000000
,  // measure 53
00000000
00000000
00000000
00000000
00000000
10000000
00000000
10000000
00000000
00000000
00000000
00000000
00000000
00000000
00000000
00000000
,  // measure 54
00010000
00000000
00000000
00100000
00000000
00000000
00001000
00000000
,  // measure 55
00000000
00010000
00000000
00000000
00011000
00000000
00000000
00000000
,  // measure 56
00010000
00000000
00000000
00000100
00000000
00000000
00010000
00000000
,  // measure 57
00000000
00001000
00000000
00000000
00011000
00000000
00000000
00000000
,  // measure 58
00001000
00000000
00000000
01000000
00000000
00000000
00001000
00000000
,  // measure 59
00000000
00010000
00000000
00000000
00011000
00000000
00000000
00000000
,  // measure 60
00010000
00000000
00000000
00000200
00000000
00000000
00000020
00000000
,  // measure 61
00000000
00000000
00000000
00000330
,  // measure 62
00001001
00000000
00000001
00000100
00000001
00000000
00000100
00000000
,  // measure 63
00000010
00000000
00001000
00000200
00000000
00000000
00000000
00000000
,  // measure 64
00000300
00000000
00010000
00001000
00010000
00000000
00001000
00010000
,  // measure 65
00001000
00000000
01000000
00000000
00100000
00000000
10000000
11000000
,  // measure 66
00000000
00000000
01100000
00000000
00000000
00001100
00000000
00000000
,  // measure 67
00010200
00000000
00001000
00001300
,  // measure 68
00000000
00000000
00000011
00000000
00000000
00001100
00000000
00000000
,  // measure 69
00010100
00011000
00010100
00000000
,  // measure 70
00001000
00000000
01000000
00000000
00100000
10000000
00100000
00000000
,  // measure 71
01000000
00000000
00010000
00200000
00000000
00000000
00000000
00300000
,  // measure 72
00000000
00000000
00001000
00000000
00010000
00010000
00000100
00010000
,  // measure 73
00001000
00000000
00100000
00000000
00010000
00000000
01000000
01100000
,  // measure 74
00000000
00000000
10100000
00000000
00000000
01010000
00000000
00000000
,  // measure 75
00102000
00000000
00000000
00000000
00010000
00000000
00013000
00000200
,  // measure 76
00000000
00000000
00010300
00000000
00000000
00010100
00000000
00000000
,  // measure 77
00011000
00000000
00000000
00000000
00001000
00000000
01000000
00100000
,  // measure 78
10000000
00000000
01000000
10000000
01000000
00000000
10000000
00000000
,  // measure 79
00010000
00000000
01000000
00200000
00000000
00000000
00000000
00000000
,  // measure 80
00300000
00000000
01000000
00010000
00100000
00000000
01000000
10000000
,  // measure 81
00100000
00000000
01000000
00000000
00010000
00000000
00100000
00101000
,  // measure 82
00000000
00000000
00011000
00000000
00000000
00010100
00000000
00000000
,  // measure 83
00001020
00000000
00000100
00000130
,  // measure 84
00000000
00000000
00000110
00000000
00000000
00001010
00000000
00000000
,  // measure 85
00001001
00000110
00001001
00000000
,  // measure 86
00000001
00000000
00000100
00000000
00000010
00001000
00000100
00000000
,  // measure 87
00020000
00000000
00001000
00002000
00000000
00000000
00000000
00033000
,  // measure 88
00000000
00000000
01000000
00000000
00100000
10000000
01000000
00100000
,  // measure 89
00010000
00000000
00100000
00000000
00001000
00000000
00010000
00010100
,  // measure 90
00000000
00000000
00001100
00000000
00000000
00000011
00000000
00000000
,  // measure 91
00001001
00000000
00000000
00000000
00000001
00000000
00000100
00000001
,  // measure 92
00000000
00000000
00000011
00000000
00000000
00000110
00000000
00000000
,  // measure 93
00001100
00010100
00001100
00000000
;

//---------------dance-double - ----------------
#NOTES:
     dance-double:
     :
     Hard:
     12:
     0.456590,0.583595,0.234041,0.204786,0.054853,437.000000,405.000000,32.000000,28.000000,0.000000,0.000000,0.456590,0.583595,0.234041,0.204786,0.054853,437.000000,405.000000,32.000000,28.000000,0.000000,0.000000:
// measure 0
00000000
00000000
00000000
00000000
,  // measure 1
00000000
00000000
00000000
00000000
,  // measure 2
00000000
00000000
00000000
00000000
,  // measure 3
00000000
00000000
00000000
00000000
,  // measure 4
00000000
00000000
00000000
00000000
,  // measure 5
00000000
00000000
00000000
00000000
,  // measure 6
10200000
00000000
00000000
00000000
,  // measure 7
00000000
00000000
01000000
01300000
,  // measure 8
00000000
00000000
00000000
00000000
00010000
00100000
00000000
00100000
,  // measure 9
00001000
00000000
00001000
00010000
00000000
00010000
00000100
00000000
,  // measure 10
00001000
00000010
00000100
00000001
,  // measure 11
00000010
00000000
00000100
00000010
00000000
00000021
00000000
00000001
,  // measure 12
00000030
00000000
00000000
00000000
00000000
00000100
00000000
00000100
,  // measure 13
00000000
00000000
00000000
00000010
00001000
00001000
00000100
00010000
,  // measure 14
00001000
00000000
01000000
00000000
00100000
10000000
00100000
00000000
,  // measure 15
10000000
00000000
01000000
00000000
00100000
01000000
00000000
21000000
,  // measure 16
00000000
00000000
00000000
00000000
00000000
00010000
00000000
30010000
,  // measure 17
00000000
00000000
00000000
00000000
10000000
01000000
00010000
01000000
,  // measure 18
10000000
00000000
00000000
00010000
00000000
01000000
00000000
00002000
,  // measure 19
00000000
00000000
00000000
00000000
00013000
00000100
00001000
00000010
,  // measure 20
00010000
00000000
00001000
00010000
00000000
00011000
00000000
00101000
,  // measure 21
00000000
00110000
00000000
00100000
01000000
01000000
10000000
00100000
,  // measure 22
01000000
00000000
00010000
00100000
00001000
00010000
00000100
00001000
,  // measure 23
00000010
00000000
00000100
00000001
00000000
00000020
00000000
00000000
,  // measure 24
00000030
00001100
00011000
01010000
,  // measure 25
01000000
00000000
00010000
00000000
10000000
00000000
00010000
00100000
,  // measure 26
00001000
00000000
00010000
00000000
00000100
00001000
00000000
00000010
,  // measure 27
00000000
00000001
00000000
00000010
00000000
00000000
00000100
00000010
,  // measure 28
00001000
00000000
00000100
00000000
00010000
00001000
00000000
20200000
,  // measure 29
00000000
00000000
00000000
00000000
30300000
00000000
10000000
00010000
,  // measure 30
00100000
00000000
00001000
00000000
00010000
00000100
00000000
00001000
,  // measure 31
00000000
00000010
00000000
00000001
00000000
00000000
00000010
00000100
,  // measure 32
00000001
00000000
00000100
00000000
00000010
00001000
00000000
00020100
,  // measure 33
00000000
00000000
00000000
00031000
,  // measure 34
00100000
00000000
01000000
10000000
01000000
00000000
10000000
00000000
,  // measure 35
00100000
00000000
01000000
00020000
00000000
00000000
00000000
00030000
,  // measure 36
00000000
00000000
00100000
01000000
10000000
00000000
10000000
01000000
,  // measure 37
00100000
00000000
00010000
00000000
10000000
00000000
00010000
00100000
,  // measure 38
00001000
00010000
00000100
00001000
00000010
00000001
00000010
00001000
,  // measure 39
00000002
00000003
00001000
00001000
,  // measure 40
00000001
00000100
00000010
00001000
00000100
00010000
00001000
00100000
,  // measure 41
00010000
00000000
10000000
00000000
00000000
00000000
00100000
01000000
00100000
00000000
01000000
00000000
00010000
00000000
00000000
00000000
,  // measure 42
10010000
00000000
00010000
00000000
01000000
00100000
10000000
00010000
,  // measure 43
00100000
00000000
00001000
00020000
00000000
00000000
00000000
00030000
,  // measure 44
00000000
00000000
00002100
00000000
00000001
00003001
00000100
00001000
,  // measure 45
00000100
00000000
00000001
00000000
00000010
00000000
00000100
00001000
,  // measure 46
00000100
00010000
00001000
01000000
10000000
01000000
00010000
10000000
,  // measure 47
02000000
00000000
00000000
00000000
03100000
00000000
01000000
10000000
,  // measure 48
00100000
01000000
00001000
00010000
00000100
00001000
00000010
00000001
,  // measure 49
00000101
00001010
00001001
00000000
,  // measure 50
00010000
00000000
00000000
00000000
00000000
00001000
00000000
01000000
00000000
00000000
00000000
00000000
00000000
00100000
00000000
10000000
,  // measure 51
00000000
00000000
00000000
00000000
00000000
01000000
00000000
00100000
00000000
00000000
00000000
00000000
00110000
00000000
00011000
00000000
,  // measure 52
00010020
00000000
00000000
00000000
00000000
00001000
00000000
00001000
00000030
00000000
00000000
00000000
00000000
00001000
00000000
00000001
,  // measure 53
00000000
00000000
00000000
00000000
00000000
00000100
00000000
00000010
00000000
00000000
00000000
00000000
00000000
00000000
00000100
00000000
,  // measure 54
00000001
00000000
00000000
00000100
00000000
00000000
00001000
00000000
,  // measure 55
00000000
00010000
00000000
00000000
01100000
00000000
00000000
00000000
,  // measure 56
10000000
00000000
00000000
01000000
00000000
00000000
00010000
00000000
,  // measure 57
00000000
00001000
00000000
00000000
00000110
00000000
00000000
00000000
,  // measure 58
00000001
00000000
00000000
00000010
00000000
00000000
00001000
00000000
,  // measure 59
00000000
00010000
00000000
00000000
01100000
00000000
10000000
00000000
,  // measure 60
01000000
00000000
00000000
00020000
00000000
00000000
00002000
00000000
,  // measure 61
00000000
00000000
00000000
00033000
,  // measure 62
00010100
00000000
00001000
00000010
00000001
00000000
00000010
00000000
,  // measure 63
00001000
00000000
00000001
00002000
00000000
00000000
00000000
00000000
,  // measure 64
00003000
00000000
00000100
00000010
00000001
00000000
00000001
00000010
,  // measure 65
00000100
00000000
00001000
00000000
00000100
00000000
00010000
00001000
,  // measure 66
01000000
10000000
01000000
00010000
00100000
00001000
00010000
00000100
,  // measure 67
00002000
00000000
00000010
00003010
,  // measure 68
00000100
00000001
00000010
00001000
00000010
00000001
00001000
00000010
,  // measure 69
00011000
00101000
00011000
00000000
,  // measure 70
00010000
00000000
00001000
00000000
01000000
10000000
01000000
00010000
,  // measure 71
20000000
00000000
00010000
00020000
00000000
00000000
30030000
00000000
,  // measure 72
00000000
00000000
00100000
00000000
00001000
00010000
00000100
00001000
,  // measure 73
00000010
00000000
00000001
00000000
00000010
00000000
00001000
00000100
,  // measure 74
00010000
00001000
01000000
00100000
10000000
00010000
00100000
00001000
,  // measure 75
00010000
00000000
00001000
00001100
,  // measure 76
00001000
00000100
00000001
00000100
00001000
00000100
00010000
00001000
,  // measure 77
01000000
00000000
00010000
00000000
00000000
00000000
00100000
01000000
00100000
00000000
01000000
00000000
10000000
00000000
00010000
00000000
,  // measure 78
10000000
00000000
00100000
10000000
01000000
00000000
00100000
00000000
,  // measure 79
01000000
00000000
10000000
00020000
00000000
00000000
00000000
00000000
,  // measure 80
00030000
00000000
00100000
00001000
00010000
00000000
00010000
00000100
,  // measure 81
00001000
00000000
00000010
00000000
00000001
00000000
00000010
00001000
,  // measure 82
00000100
00010000
00001000
00100000
00001000
00010000
00000010
00010000
,  // measure 83
00002000
00000000
01000000
01003000
,  // measure 84
00001000
00010000
00000100
00010000
00001000
01000000
00001000
00010000
,  // measure 85
00011000
00010100
00011000
00000000
,  // measure 86
00000000
00000000
00210000
00000000
01300000
01000000
00100000
00010000
,  // measure 87
20000000
00000000
00100000
00200000
00000000
00000000
30300000
00000000
,  // measure 88
00000000
00000000
01010000
00000000
01000000
00010000
00100000
00001000
,  // measure 89
00020000
00000000
00030100
00000000
00002000
00000000
00003010
00000100
,  // measure 90
00000001
00000010
00001000
00000010
00000001
00000100
00000010
00010000
,  // measure 91
00000200
00000000
00010000
00010300
,  // measure 92
00001000
00100000
10000000
00010000
00100000
00001000
00010000
00000100
,  // measure 93
00001000
00000000
00000010
00000000
00000000
00000000
00000100
00000001
00000010
00000000
00001000
00000000
00000010
00000000
00000001
00000000
;
