#TITLE:ARIGA THESIS;
#SUBTITLE:;
#ARTIST:MYUKKE.;
#TITLETRANSLIT:;
#SUBTITLETRANSLIT:;
#ARTISTTRANSLIT:;
#GENRE:;
#CREDIT:;
#BANNER:ARIGA THESIS.png;
#BACKGROUND:ARIGA THESIS-bg.png;
#LYRICSPATH:;
#CDTITLE:;
#MUSIC:ARIGA THESIS.ogg;
#OFFSET:-0.476000;
#SAMPLESTART:36.476002;
#SAMPLELENGTH:13.723000;
#SELECTABLE:YES;
#BPMS:0.000000=140.000000
;
#STOPS:
;
#BGCHANGES:;
#KEYSOUNDS:;
#ATTACKS:;

//---------------dance-single - ----------------
#NOTES:
     dance-single:
     :
     Beginner:
     5:
     0.168175,0.310073,0.129954,0.000000,0.000000,154.000000,137.000000,17.000000,0.000000,0.000000,0.000000,0.168175,0.310073,0.129954,0.000000,0.000000,154.000000,137.000000,17.000000,0.000000,0.000000,0.000000:
// measure 0
0000
0000
0000
0000
,  // measure 1
0000
0000
0000
0000
,  // measure 2
0000
0000
0000
0000
,  // measure 3
0000
0000
0000
0000
,  // measure 4
0000
0000
0000
0000
,  // measure 5
0110
0000
0000
0000
,  // measure 6
0001
0000
1000
0000
,  // measure 7
0001
0000
0000
0000
,  // measure 8
0100
0000
0010
0000
,  // measure 9
0100
0000
0010
0000
,  // measure 10
1000
0000
0001
0000
,  // measure 11
0010
0000
0100
0000
,  // measure 12
1000
1000
1000
0000
,  // measure 13
1001
0000
0001
0000
,  // measure 14
0100
0000
0010
0000
,  // measure 15
1000
0000
0100
0000
,  // measure 16
0010
0000
0000
0000
,  // measure 17
0110
0000
0100
0000
,  // measure 18
1000
1000
0001
0001
,  // measure 19
1001
0000
0110
0000
,  // measure 20
0100
0000
0000
0000
,  // measure 21
0010
0000
1000
0000
,  // measure 22
0100
0000
0000
0000
,  // measure 23
0010
0000
0000
0000
,  // measure 24
0001
0001
1000
1000
,  // measure 25
0001
0000
0100
0000
,  // measure 26
0010
0000
0000
0000
,  // measure 27
0100
0000
0010
0000
,  // measure 28
1000
1000
0001
0001
,  // measure 29
0110
0000
0000
0000
,  // measure 30
1000
0000
0000
0000
,  // measure 31
1001
0000
0000
0000
,  // measure 32
0001
0000
0000
0000
,  // measure 33
0010
0000
0100
0000
,  // measure 34
1000
1000
1000
0000
,  // measure 35
0100
0000
1000
0000
,  // measure 36
0001
0001
0001
0000
,  // measure 37
1000
0000
0000
0000
,  // measure 38
0001
0000
0000
0000
,  // measure 39
0100
0000
0000
0000
,  // measure 40
0010
0000
0000
0000
,  // measure 41
1000
0000
0000
0000
,  // measure 42
0001
0000
0000
0000
,  // measure 43
0010
0000
0100
0000
,  // measure 44
1000
1000
1000
0000
,  // measure 45
1001
0000
0001
0000
,  // measure 46
1000
0001
1000
0000
,  // measure 47
0110
0000
0010
0000
,  // measure 48
0100
0010
0100
0000
,  // measure 49
1001
0000
1000
0000
,  // measure 50
0001
0100
0001
0000
,  // measure 51
1001
0000
0110
0000
,  // measure 52
1001
0110
1001
0000
,  // measure 53
1000
0000
0000
0000
,  // measure 54
0001
0000
0010
0000
,  // measure 55
0100
0000
1000
0000
,  // measure 56
0010
0000
0100
0000
,  // measure 57
0010
0000
1000
0000
,  // measure 58
0001
0000
0010
0000
,  // measure 59
0100
0100
0010
0010
,  // measure 60
0001
1000
0110
0000
,  // measure 61
1000
0000
0000
0000
,  // measure 62
0001
0000
0000
0000
,  // measure 63
0010
0000
0000
0000
,  // measure 64
0100
0000
1000
0000
,  // measure 65
0010
0000
0010
0000
,  // measure 66
0100
0000
0100
0000
,  // measure 67
0001
0000
0001
0000
,  // measure 68
1000
1000
1000
0000
,  // measure 69
0001
0000
0100
0000
,  // measure 70
0010
0000
1000
0000
,  // measure 71
0100
0000
0010
0000
,  // measure 72
0001
1000
0010
0100
,  // measure 73
1001
0000
0000
0010
;

//---------------dance-single - ----------------
#NOTES:
     dance-single:
     :
     Easy:
     10:
     0.377848,0.480828,0.244618,0.359283,0.000000,346.000000,314.000000,32.000000,47.000000,0.000000,0.000000,0.377848,0.480828,0.244618,0.359283,0.000000,346.000000,314.000000,32.000000,47.000000,0.000000,0.000000:
// measure 0
0000
0000
0000
0000
,  // measure 1
0000
0000
0000
0000
,  // measure 2
0000
0000
0000
0000
,  // measure 3
0000
0000
0000
0000
,  // measure 4
0000
0000
0000
0000
,  // measure 5
0220
0000
0000
0330
,  // measure 6
0001
0000
1000
0001
,  // measure 7
0220
0000
0000
0330
,  // measure 8
1000
0000
0001
1000
,  // measure 9
0001
0000
0100
0010
1000
0000
0100
0000
,  // measure 10
0001
0000
0100
0000
1000
0010
0100
0000
,  // measure 11
0010
1000
0001
0010
,  // measure 12
0110
0000
0011
0000
1100
1000
1100
0000
,  // measure 13
1001
0000
1010
0000
1000
0001
0100
0000
,  // measure 14
0010
0000
1000
0000
0100
0010
0001
0000
,  // measure 15
1000
0000
0101
0000
0001
1000
0100
0000
,  // measure 16
0001
0100
1000
0100
0001
0100
1000
0000
,  // measure 17
2001
3100
1002
0103
,  // measure 18
0010
1000
0010
1000
0010
0100
0001
0000
,  // measure 19
1200
0310
0021
0130
,  // measure 20
1002
0103
2001
3100
,  // measure 21
0020
0000
0031
0000
0200
0000
0310
1000
,  // measure 22
0002
0000
0000
0000
0000
1003
0100
1000
,  // measure 23
0020
0000
0000
0000
0130
0010
1000
0001
,  // measure 24
0020
0000
0230
0000
2300
0000
3001
1000
,  // measure 25
0200
0000
2300
0000
3100
0010
0001
1000
,  // measure 26
0020
0000
0000
0000
0000
0130
0001
1000
,  // measure 27
0002
0000
2003
0000
3010
1000
0100
1000
,  // measure 28
0002
0103
2000
3100
,  // measure 29
0012
0000
0000
0000
0000
0000
0000
1003
,  // measure 30
0020
0000
0000
0130
,  // measure 31
1002
0000
0000
0000
0000
0000
0000
1003
,  // measure 32
0020
0000
0000
0130
,  // measure 33
1001
0001
1000
0100
,  // measure 34
1000
0010
0001
0010
,  // measure 35
1000
0100
0000
0001
0000
0100
1000
0000
,  // measure 36
0010
0000
0100
0000
0001
1000
0010
0000
,  // measure 37
1000
0000
0010
0000
0100
0001
0100
0000
,  // measure 38
0001
0000
0010
0000
0100
0010
0001
0000
,  // measure 39
0010
0000
0100
0000
1000
0100
1000
0000
,  // measure 40
0100
0000
1000
0000
0010
0100
0001
0000
,  // measure 41
1000
0000
0001
0000
0010
0100
1000
0000
,  // measure 42
0100
0000
1000
0000
0010
0100
0001
0000
,  // measure 43
1000
0001
0010
0000
0100
1000
0010
0000
,  // measure 44
0100
0010
1000
0001
0020
0000
0030
0000
,  // measure 45
2100
0000
3010
0000
0100
0010
1000
0000
,  // measure 46
0201
0000
0310
0000
0100
0100
0001
0000
,  // measure 47
2100
0000
3010
0000
0100
0001
0010
0000
,  // measure 48
0210
1300
0120
0031
,  // measure 49
0201
0000
0310
0000
0100
0001
1000
0000
,  // measure 50
2100
0000
3010
0000
0100
0100
0010
0000
,  // measure 51
2010
0000
3001
0000
0010
0100
1000
0000
,  // measure 52
0001
0100
1000
0100
0002
0000
2000
0000
,  // measure 53
3003
0000
0000
0000
,  // measure 54
0001
0001
1000
1000
,  // measure 55
0010
0010
0100
0100
,  // measure 56
0001
0100
1000
0100
,  // measure 57
0001
0010
1000
0010
,  // measure 58
0001
0100
0010
1000
,  // measure 59
1001
0010
1001
0100
,  // measure 60
1001
0110
2002
3003
,  // measure 61
0001
1000
0010
1000
,  // measure 62
0100
0010
0100
1000
,  // measure 63
0001
0100
0010
1000
,  // measure 64
0001
0010
0100
0010
0001
1000
0100
0000
,  // measure 65
1000
0000
0010
0100
0001
0000
0100
0000
,  // measure 66
0010
0000
1000
0001
0010
0000
0100
0000
,  // measure 67
0010
0000
0001
0010
0100
0000
1000
0000
,  // measure 68
0100
0000
1000
0010
0100
0000
1001
0000
,  // measure 69
0001
0100
0001
0100
0010
0100
0010
0100
,  // measure 70
0010
1000
0010
1000
0001
1000
0001
1000
,  // measure 71
0001
0010
0001
0010
0100
0010
0100
1000
,  // measure 72
0200
0320
0032
2003
,  // measure 73
3001
0100
0010
1000
0002
0000
2000
0000
,  // measure 74
3003
0000
0000
0000
;

//---------------dance-single - ----------------
#NOTES:
     dance-single:
     :
     Medium:
     13:
     0.553668,0.622248,0.076443,0.473948,0.290484,507.000000,497.000000,10.000000,62.000000,0.000000,0.000000,0.553668,0.622248,0.076443,0.473948,0.290484,507.000000,497.000000,10.000000,62.000000,0.000000,0.000000:
// measure 0
0000
0000
0000
0000
,  // measure 1
0000
0000
0000
0000
,  // measure 2
0000
0000
0000
0000
,  // measure 3
0000
0000
0000
0000
,  // measure 4
0000
0000
0000
0000
,  // measure 5
0201
0010
0010
0310
,  // measure 6
1000
0000
0100
1000
0020
0000
2030
0000
,  // measure 7
3200
0010
0010
0310
,  // measure 8
0002
0103
0020
0130
,  // measure 9
0001
0010
0100
1000
0010
0001
0010
0100
,  // measure 10
0001
1000
0100
0001
0100
1000
0010
0100
,  // measure 11
0001
1000
0001
1000
0010
0100
0010
0100
,  // measure 12
1000
0100
0001
1000
0100
0010
0001
0000
,  // measure 13
1000
0000
0000
0001
0010
0000
0100
0000
1000
0000
0001
0000
0100
0000
0001
0000
,  // measure 14
0010
0100
0000
0100
0000
0000
0010
0000
0001
0000
0100
0000
0010
0000
0000
0000
,  // measure 15
1001
0000
0000
1000
0010
0000
1000
0000
0100
0000
0010
0000
0001
0000
1000
0000
,  // measure 16
0020
1030
0020
0031
0020
0130
0020
1030
,  // measure 17
0001
0100
0000
0100
0001
0000
0010
0000
0001
1000
0000
1000
0001
0000
1000
0000
,  // measure 18
0100
0001
0100
1000
0010
1000
0001
0000
,  // measure 19
1000
0100
0000
0100
1000
0000
0100
0000
0010
0001
0000
0001
0010
0000
0100
0000
,  // measure 20
1000
1000
0010
0100
0001
0001
1001
0000
,  // measure 21
2000
0000
3200
0000
0320
0000
0130
1000
,  // measure 22
0020
0000
0100
0000
1030
0100
1000
0001
,  // measure 23
0020
0000
0100
0000
0031
0010
1000
0010
,  // measure 24
0200
2300
3020
0032
,  // measure 25
0023
0000
0230
0000
0301
0100
1000
0100
,  // measure 26
0002
0000
0100
0000
1000
0000
0103
0010
,  // measure 27
2000
0000
0100
0000
3010
0100
0010
1000
,  // measure 28
0001
1000
0100
0001
0100
1000
0010
0000
,  // measure 29
0102
0000
0000
0000
0000
0000
0000
0000
0000
0000
0000
0000
0003
0000
0100
0010
,  // measure 30
2000
0000
0000
0000
0000
0000
3001
1000
,  // measure 31
2100
0000
0000
0000
0000
0000
0000
0000
0000
0000
0000
0000
3000
0000
0010
0001
,  // measure 32
0200
0000
0000
0310
,  // measure 33
1001
0000
1000
0000
0100
0100
1000
0010
,  // measure 34
0001
0001
0010
0100
0020
0000
0130
0010
,  // measure 35
1000
0001
0000
1001
0000
1000
0001
0100
,  // measure 36
0010
1000
0001
0010
1000
0010
0001
0000
,  // measure 37
1000
0100
0010
0001
0010
0010
0001
0001
,  // measure 38
0100
0010
1000
0001
1000
1000
0001
0001
,  // measure 39
1000
0010
0100
0001
0010
0010
0100
0100
,  // measure 40
0010
0001
0100
0010
1000
1000
0100
0100
,  // measure 41
0010
0000
0100
0000
1000
0000
0010
0100
0000
0010
0100
0000
0010
0000
1000
0000
,  // measure 42
0001
0000
0010
0000
0001
0000
0100
0010
0000
0100
0010
0000
0100
0000
0010
0000
,  // measure 43
1000
0000
1000
0001
1000
0000
0001
0000
1000
0000
0001
1000
0001
0000
1000
0000
,  // measure 44
0010
0000
0100
0000
0010
1000
0000
1000
0200
0000
0000
0000
0300
0000
0000
0000
,  // measure 45
0010
0000
0001
0000
0100
0000
0010
0100
0000
0100
0001
0000
1000
0000
0100
0000
,  // measure 46
0010
0000
0100
0000
1000
0010
0100
0000
0010
0000
1000
0000
0001
0000
0010
0100
,  // measure 47
1000
0000
0100
0000
1000
0000
0010
0100
0000
0100
0001
0000
0010
0100
1000
0000
,  // measure 48
0200
1300
0200
0310
0200
1300
0200
0310
,  // measure 49
0001
0000
0100
0000
0010
0000
0100
0001
0000
0010
0100
0000
0010
0001
0100
0000
,  // measure 50
0010
0000
1000
0000
0001
0000
1000
0100
0000
1000
0010
0000
0100
0010
1000
0000
,  // measure 51
0100
0010
0022
0033
0100
1000
2020
3030
,  // measure 52
0010
0000
0100
0000
0001
1000
0000
1000
0200
0000
0320
0000
0002
0000
0033
0000
,  // measure 53
1000
0100
0010
0001
,  // measure 54
1000
0000
0001
0100
0000
0100
0010
0000
0010
1000
0000
1000
,  // measure 55
0100
0000
0100
0010
0000
0010
0100
0000
0100
1000
0000
1000
,  // measure 56
0010
0000
0010
0100
0000
0100
0001
0000
0001
0010
0000
0100
,  // measure 57
0010
0000
0001
0100
0000
0010
1000
0000
0100
0010
0000
0100
,  // measure 58
1000
0000
0010
1000
0000
0010
0100
0000
0001
0010
0000
0100
,  // measure 59
0010
0001
0100
0020
0000
0000
0130
0010
1000
0200
0000
0000
,  // measure 60
0310
0000
0100
0000
1000
0000
0001
0000
0100
0000
0020
0000
2000
0000
0000
0000
0000
0000
0030
0000
0000
3000
0000
0000
,  // measure 61
0001
0000
0000
1000
0100
0000
0100
0000
0010
0000
0100
0000
1000
0000
0010
0000
,  // measure 62
0100
0010
0000
0010
0000
0000
0100
0000
0010
0000
0000
0000
1001
0000
0000
0000
,  // measure 63
0001
0000
0000
1000
0001
0000
0010
0000
0100
0000
0100
0000
0010
0000
0001
0000
,  // measure 64
1000
0100
0001
0100
1000
0010
0100
0001
,  // measure 65
0010
0000
0100
0000
1000
0000
0100
0010
0001
0000
0010
0000
0001
0000
0100
0000
,  // measure 66
0010
0000
1000
0000
0001
0000
0010
0000
0100
0000
0010
0001
0100
0000
0010
0000
,  // measure 67
1000
0000
0100
0000
0010
0000
0100
0000
1000
0000
0001
1000
0010
0000
0100
0000
,  // measure 68
0010
0000
1000
0000
0010
0000
0100
0000
0001
0000
0010
0100
1000
0000
0100
0000
,  // measure 69
0020
0031
0020
0130
0200
1300
2000
3010
,  // measure 70
0200
0310
2000
3001
0020
0130
0200
0310
,  // measure 71
0200
1300
0200
0301
0200
0310
0020
0031
,  // measure 72
0200
0000
0310
1000
0200
0000
0310
0001
0200
0000
0310
1000
0200
0000
0000
0000
,  // measure 73
0310
0001
0100
0010
2000
0000
0002
0000
,  // measure 74
3003
0000
0000
0000
;

//---------------dance-single - ----------------
#NOTES:
     dance-single:
     :
     Hard:
     16:
     0.691265,0.876804,0.252263,0.741500,0.642123,633.000000,600.000000,33.000000,97.000000,2.000000,0.000000,0.691265,0.876804,0.252263,0.741500,0.642123,633.000000,600.000000,33.000000,97.000000,2.000000,0.000000:
// measure 0
0000
0000
0000
0000
,  // measure 1
0000
0000
0000
0000
,  // measure 2
0000
0000
0000
0000
,  // measure 3
0000
0000
0000
0000
,  // measure 4
0000
0000
0000
0000
,  // measure 5
2001
0010
0010
3010
,  // measure 6
0201
0310
1002
0203
,  // measure 7
0320
1000
1000
1030
,  // measure 8
0201
0310
1200
0320
,  // measure 9
0031
0000
0100
0000
0010
0000
1000
0010
0100
0000
0001
0000
1001
0000
0000
0000
,  // measure 10
1000
0000
0100
0000
1000
0000
0010
0000
0100
0000
0001
0010
0100
0000
1000
0000
,  // measure 11
0010
0000
0100
0000
0010
0000
1000
0000
0001
0100
0010
1000
0004
0040
0000
0033
,  // measure 12
1100
0000
0101
0000
1001
0100
1001
0000
,  // measure 13
1010
0000
0000
0001
0010
0000
0100
0000
1000
0001
1000
0001
1000
0000
0100
0000
,  // measure 14
1000
0100
0010
0000
0100
0000
0100
0000
0010
0002
0000
0103
0010
0000
1000
0000
,  // measure 15
1001
0000
0000
1000
0100
0000
0010
0000
0001
1000
0001
1000
0001
0000
0010
0000
,  // measure 16
0200
0000
0301
0000
0200
0000
1300
0000
0200
0000
0310
0001
2000
0000
3010
0000
,  // measure 17
1000
0001
0000
0001
0010
0000
0100
0000
1000
0100
0000
1000
0010
0000
0100
0010
,  // measure 18
1000
0001
0100
0001
1000
0100
1000
0001
1000
0100
0010
0001
1000
0000
0001
0000
,  // measure 19
0100
0010
0000
0100
0001
0000
0010
0000
0100
0010
0100
1000
0001
0000
0100
0000
,  // measure 20
0010
0000
0001
0000
0010
0000
1000
0000
0010
0000
0001
0000
1001
0000
0000
1000
,  // measure 21
0200
0000
0000
1300
0020
0000
0000
0130
0002
0000
1003
0100
0010
0000
0100
0000
,  // measure 22
2000
0000
0100
0000
3010
0200
2300
3200
,  // measure 23
0302
0000
0100
0000
0203
0320
2030
3200
,  // measure 24
0320
0000
0000
0031
0200
0000
0000
0310
2000
0000
0000
0000
3001
0000
1000
0000
,  // measure 25
0200
0000
0000
1300
0020
0000
0000
0130
0002
0000
0103
0010
1000
0000
0001
0000
,  // measure 26
2000
0000
0010
0000
3001
0001
0010
0100
,  // measure 27
2000
0000
0000
3010
0200
0000
0000
0310
1000
0000
0100
0000
0110
0000
0011
0000
,  // measure 28
1002
0000
1003
0100
0002
0000
0103
1000
0020
0000
0031
0010
2000
0000
0000
0000
,  // measure 29
3001
0000
0000
0001
0000
0000
0001
0000
0101
0000
0000
0000
0110
0000
0010
1000
,  // measure 30
0200
0010
1000
0310
,  // measure 31
0001
0000
0000
0001
0000
0000
0001
0000
0011
0000
0000
0000
1010
0000
1000
0100
,  // measure 32
0020
0001
0100
0031
,  // measure 33
1001
0001
0200
0000
1300
0100
0001
1000
,  // measure 34
0100
0000
0001
0000
0100
0000
1000
0010
0200
0000
0000
0000
0301
0000
1000
0000
,  // measure 35
0100
0010
0000
1100
0000
0100
0001
0100
,  // measure 36
1000
0100
0010
0001
0200
0320
2030
0000
,  // measure 37
3100
0000
0010
0000
0001
0000
0100
0010
0100
0000
0010
0000
1000
0000
0100
0000
,  // measure 38
0020
0031
0200
0310
0200
0301
0002
1003
,  // measure 39
0100
0000
0010
0000
0001
0000
0100
0001
1000
0000
0100
0000
0010
0000
0100
0000
,  // measure 40
2000
3010
0200
0301
0200
0310
0020
1030
,  // measure 41
0001
0000
1000
0000
0001
0000
1000
0010
0000
M010
0001
0000
1000
0000
0001
0000
,  // measure 42
1000
0000
0010
0000
1000
0000
0001
0010
0000
001M
1000
0000
0001
0000
1000
0000
,  // measure 43
0100
0000
0010
0001
0010
0000
0100
1000
0100
0010
0001
0100
0010
1000
0000
0000
,  // measure 44
0201
0000
0310
0000
0100
0020
0000
2030
0002
0000
0000
0000
3003
0000
1000
0001
,  // measure 45
0100
0000
0001
0010
0100
0000
0010
0001
0000
1000
0001
0010
0100
0010
0001
0000
,  // measure 46
1000
0000
0000
0000
0000
0000
0010
0000
0000
0100
0000
0000
0010
0000
0100
0000
0010
0000
0100
0000
0000
0001
0000
0000
1000
0000
0000
0100
0000
0000
0020
0000
0000
0000
0000
0000
0130
0000
0000
1000
0000
0000
0010
0000
0000
0100
0000
0000
,  // measure 47
0001
0000
1000
0100
1000
0000
0100
0010
0000
0100
1000
0010
0100
0001
1000
0000
,  // measure 48
1001
0000
0000
0000
0000
0000
1000
0000
0000
0010
0000
0000
1010
0000
0000
0000
0000
0000
0001
0000
0000
0100
0000
0000
0101
0000
0000
0001
0000
0000
0010
0000
0000
0100
0000
0000
1000
0000
0001
0000
1000
0000
0001
0000
0000
0000
0000
0000
,  // measure 49
1000
0000
0100
1000
0010
0000
0010
0100
0000
0100
0010
1000
0001
0010
0100
0000
,  // measure 50
0010
0000
0000
0000
0000
0000
0001
0000
0000
0000
0000
0000
0100
0000
0010
0000
0100
0000
0010
0000
0000
1000
0000
0000
0001
0000
0000
0010
0000
0000
0100
0000
0000
0000
0000
0000
1100
0000
0000
0000
0000
0000
0000
0000
0000
0000
0000
0000
,  // measure 51
0011
0000
0010
0100
1000
0000
0010
0100
0000
0100
0010
1000
0001
0010
0100
1000
,  // measure 52
0002
0000
0203
0000
0310
1000
0010
0100
0002
0000
2003
0000
0002
0000
0000
3003
,  // measure 53
2000
3200
0320
0032
,  // measure 54
1003
0010
0100
0001
0010
0100
0010
0001
1000
0010
1000
0001
,  // measure 55
1000
0100
0010
0100
1000
0010
0100
0001
0010
0200
0000
0310
,  // measure 56
0001
0100
0010
1000
0001
0010
0100
1000
0100
0020
0000
0000
,  // measure 57
0130
0100
1000
0010
0100
0001
0010
0010
0001
0010
0100
1000
,  // measure 58
0001
0001
1000
0010
0010
1000
0001
0010
0100
1000
0001
0010
,  // measure 59
0100
0100
0100
0200
0000
0000
0310
0010
0010
0020
0000
0000
,  // measure 60
0031
0000
0100
0000
1000
0000
0100
0000
0001
0000
2000
0000
0200
0000
0000
0000
0000
0000
3000
0000
0000
0300
0000
0000
,  // measure 61
0011
0000
0000
0010
0100
0000
1000
0000
0001
0100
0001
0100
0001
0000
0010
0000
,  // measure 62
0100
1000
0100
0000
1000
0000
0010
0000
0100
0020
0000
1030
0002
0000
0010
0000
,  // measure 63
0013
0000
0000
0100
0010
0000
0001
0000
1000
0100
1000
0100
2000
0000
3002
0000
,  // measure 64
0103
0010
0100
0001
0020
0000
0130
1000
,  // measure 65
0001
0000
0000
1000
0000
0000
0100
0000
0000
0010
0001
0010
0001
0000
0000
0100
0000
0000
0001
0000
0000
1000
0000
0000
,  // measure 66
0100
0000
0000
0010
0000
0000
0001
0000
0000
0100
0000
0000
0010
0000
0000
1000
0001
1000
0001
0000
0000
1000
0000
0000
,  // measure 67
0100
0000
0000
0010
0000
0000
0100
0000
0000
1000
0000
0000
0010
0000
0000
0100
0010
0100
0010
0000
0000
1000
0000
0000
,  // measure 68
1001
0000
0110
0000
1001
0100
1001
0000
,  // measure 69
1000
2000
0010
3020
0100
0230
0001
0302
,  // measure 70
0010
0023
0100
0230
0320
0032
2003
3002
,  // measure 71
0203
1300
0200
0301
0020
1030
0020
0031
,  // measure 72
2000
0000
3100
1000
0200
0000
0310
0100
0020
0000
0031
0010
0002
0000
0000
0000
,  // measure 73
1003
0100
0010
0001
0020
0000
0400
0000
,  // measure 74
0330
0000
0000
0000
;
