#VERSION:0.83;
#TITLE:ABSOLUTE;
#SUBTITLE:;
#ARTIST:dj TAKA;
#TITLETRANSLIT:;
#SUBTITLETRANSLIT:;
#ARTISTTRANSLIT:;
#GENRE:;
#ORIGIN:;
#CREDIT:;
#BANNER:ABSOLUTE.png;
#BACKGROUND:ABSOLUTE-bg.png;
#PREVIEWVID:;
#JACKET:ABSOLUTE-jacket.png;
#CDIMAGE:;
#DISCIMAGE:;
#LYRICSPATH:;
#CDTITLE:cdtitle.png;
#MUSIC:ABSOLUTE.ogg;
#OFFSET:0.000000;
#SAMPLESTART:20.002001;
#SAMPLELENGTH:15.000000;
#SELECTABLE:YES;
#BPMS:0.000=144.000,
238.000=130.435,
239.000=123.288,
240.000=103.448,
241.000=98.000,
242.000=82.569,
243.000=58.065,
244.000=38.015;
#STOPS:;
#DELAYS:;
#WARPS:;
#TIMESIGNATURES:0.000=4=4;
#TICKCOUNTS:0.000=4;
#COMBOS:0.000=1;
#SPEEDS:0.000=1.000=0.000=0;
#SCROLLS:0.000=1.000;
#FAKES:;
#LABELS:0.000=Song Start;
#BGCHANGES:;
#KEYSOUNDS:;
#ATTACKS:
;

//---------------dance-single - ----------------
#NOTEDATA:;
#CHARTNAME:;
#STEPSTYPE:dance-single;
#DESCRIPTION:;
#CHARTSTYLE:;
#DIFFICULTY:Beginner;
#METER:3;
#RADARVALUES:0.129870,0.221818,0.100000,0.000000,0.000000,100.000000,89.000000,11.000000,0.000000,0.000000,0.000000,0.000000,0.000000,0.000000,0.129870,0.221818,0.100000,0.000000,0.000000,100.000000,89.000000,11.000000,0.000000,0.000000,0.000000,0.000000,0.000000,0.000000;
#CREDIT:Pandemonium X;
#NOTES:
// measure 0
0000
0000
0000
0000
,  // measure 1
0000
0000
0000
0000
,  // measure 2
0000
0000
0000
0000
,  // measure 3
0000
0000
0000
0000
,  // measure 4
0000
0000
0000
0000
,  // measure 5
0001
0000
0000
0000
,  // measure 6
1000
0000
0000
0000
,  // measure 7
0001
0000
1000
0000
,  // measure 8
0110
0000
0000
0000
,  // measure 9
0000
0000
0000
0000
,  // measure 10
0000
0000
0000
0000
,  // measure 11
0000
0000
0000
0000
,  // measure 12
0001
0000
0001
0000
,  // measure 13
0001
0000
0000
0000
,  // measure 14
1000
0000
1000
0000
,  // measure 15
1000
0000
0000
0000
,  // measure 16
0010
0000
0100
0000
,  // measure 17
0010
0000
0000
0000
,  // measure 18
0100
0000
0010
0000
,  // measure 19
0100
0000
0000
0000
,  // measure 20
1001
0000
0000
0000
,  // measure 21
1000
0000
0001
0000
,  // measure 22
0010
0000
0000
0000
,  // measure 23
0001
0000
1000
0000
,  // measure 24
0100
0000
0000
0000
,  // measure 25
1000
0000
0010
0000
,  // measure 26
0100
0000
0000
0000
,  // measure 27
0010
0000
0100
0000
,  // measure 28
0001
0000
0000
0000
,  // measure 29
0110
0000
0000
0000
,  // measure 30
1000
0000
0000
0000
,  // measure 31
0001
0000
1000
0000
,  // measure 32
0100
0000
0100
0000
,  // measure 33
0100
0000
0100
0000
,  // measure 34
0010
0000
0000
0000
,  // measure 35
0001
0000
0000
0000
,  // measure 36
1000
0000
1000
0000
,  // measure 37
1000
1000
1000
0000
,  // measure 38
0110
0000
0000
0010
,  // measure 39
0010
0000
0100
0000
,  // measure 40
0001
0000
0000
1000
,  // measure 41
1000
0000
0100
0000
,  // measure 42
0010
0000
0000
0000
,  // measure 43
0000
0100
0100
0100
,  // measure 44
0010
0000
0100
0000
,  // measure 45
1001
0000
0001
1000
,  // measure 46
0110
0000
0000
0010
,  // measure 47
0010
0000
0100
0000
,  // measure 48
0001
0000
0000
1000
,  // measure 49
1000
0000
0100
0000
,  // measure 50
1000
0000
0000
0000
,  // measure 51
0000
0010
0010
0010
,  // measure 52
0100
0000
0010
0000
,  // measure 53
1001
0000
0000
0000
,  // measure 54
0001
0000
1000
0000
,  // measure 55
0110
0000
0000
0000
,  // measure 56
0001
0000
1000
0000
,  // measure 57
0110
0000
0000
0000
,  // measure 58
0010
0000
0100
0000
,  // measure 59
1001
0000
0000
0000
,  // measure 60
0100
0000
0010
0000
,  // measure 61
1001
0000
0000
0000
;

//---------------dance-single - ----------------
#NOTEDATA:;
#CHARTNAME:;
#STEPSTYPE:dance-single;
#DESCRIPTION:;
#CHARTSTYLE:;
#DIFFICULTY:Easy;
#METER:5;
#RADARVALUES:0.201299,0.335455,0.109091,0.218182,0.000000,155.000000,143.000000,12.000000,24.000000,0.000000,0.000000,0.000000,0.000000,0.000000,0.201299,0.335455,0.109091,0.218182,0.000000,155.000000,143.000000,12.000000,24.000000,0.000000,0.000000,0.000000,0.000000,0.000000;
#CREDIT:Pandemonium X;
#NOTES:
// measure 0
0000
0000
0000
0000
,  // measure 1
0000
0000
0000
0000
,  // measure 2
0000
0000
0000
0000
,  // measure 3
0000
0000
0000
0000
,  // measure 4
0000
0000
0000
0000
,  // measure 5
0001
0000
0000
0000
,  // measure 6
1000
0000
0000
0000
,  // measure 7
0010
0000
0100
0000
,  // measure 8
2002
0000
0000
0000
,  // measure 9
0000
0000
0000
0000
,  // measure 10
0000
0000
0000
0000
,  // measure 11
0000
0000
3003
0000
,  // measure 12
0001
0100
0010
1000
,  // measure 13
0200
0000
0000
0000
,  // measure 14
0310
0001
0100
0010
,  // measure 15
2000
0000
0000
0000
,  // measure 16
3001
0001
1000
1000
,  // measure 17
0100
0100
1000
0010
,  // measure 18
0100
0100
0010
0010
,  // measure 19
1000
1000
0001
1000
,  // measure 20
0110
0000
0000
0000
,  // measure 21
0010
1000
0010
0100
,  // measure 22
0001
0010
0100
1000
,  // measure 23
0001
0010
0001
1000
,  // measure 24
0100
0010
0100
1000
,  // measure 25
0010
1000
0010
0100
,  // measure 26
0001
0010
0100
1000
,  // measure 27
0001
0010
0001
1000
,  // measure 28
1001
0100
0110
1000
,  // measure 29
2002
0000
3003
0000
,  // measure 30
2000
0000
0000
3000
,  // measure 31
0002
0000
0203
0000
,  // measure 32
0310
1000
0010
0100
,  // measure 33
0001
0010
0100
0000
,  // measure 34
0012
0000
0000
0000
,  // measure 35
0203
0000
0000
0000
,  // measure 36
0310
0100
0010
1000
,  // measure 37
0001
1000
0020
0000
,  // measure 38
2030
0000
0000
3100
,  // measure 39
1000
0010
0100
0001
,  // measure 40
0020
0000
0000
0130
,  // measure 41
0010
0001
1000
0010
,  // measure 42
0200
0000
0000
0000
,  // measure 43
0000
0310
1000
0001
,  // measure 44
1000
0000
0001
1000
,  // measure 45
0110
0000
0001
0100
,  // measure 46
0210
0000
0000
0310
,  // measure 47
0100
0001
1000
0100
,  // measure 48
0020
0000
0000
0130
,  // measure 49
1000
0010
0100
0001
,  // measure 50
2000
0000
0000
0000
,  // measure 51
0000
3001
0010
0100
,  // measure 52
1100
0000
0101
0000
,  // measure 53
2001
0000
0000
0000
,  // measure 54
3001
0100
0010
1000
,  // measure 55
0200
0000
0000
0000
,  // measure 56
0310
0100
1000
0010
,  // measure 57
0200
0000
0000
0000
,  // measure 58
0310
0100
0001
0010
,  // measure 59
0200
0000
0000
0000
,  // measure 60
0310
0000
0001
0000
,  // measure 61
2002
0000
3003
0000
;

//---------------dance-single - ----------------
#NOTEDATA:;
#CHARTNAME:;
#STEPSTYPE:dance-single;
#DESCRIPTION:;
#CHARTSTYLE:;
#DIFFICULTY:Medium;
#METER:8;
#RADARVALUES:0.268831,0.419318,0.109091,0.463636,0.063636,207.000000,195.000000,12.000000,51.000000,0.000000,0.000000,0.000000,0.000000,0.000000,0.268831,0.419318,0.109091,0.463636,0.063636,207.000000,195.000000,12.000000,51.000000,0.000000,0.000000,0.000000,0.000000,0.000000;
#CREDIT:Pandemonium X;
#NOTES:
// measure 0
0000
0000
0000
0000
,  // measure 1
0000
0000
0000
0000
,  // measure 2
0000
0000
0000
0000
,  // measure 3
0000
0000
0000
0000
,  // measure 4
0000
0000
0000
0000
,  // measure 5
1001
0000
0000
0000
0000
0000
0000
0100
,  // measure 6
0110
0000
0000
0000
,  // measure 7
1001
0000
0110
0000
,  // measure 8
2002
0000
0000
0000
,  // measure 9
0000
0000
0000
0000
,  // measure 10
0000
0000
0000
3003
,  // measure 11
1000
0001
0200
0000
,  // measure 12
0310
0000
1000
0000
0001
0000
0010
0100
,  // measure 13
2000
0000
0000
0000
,  // measure 14
3100
0000
1000
0000
0010
0000
0100
0001
,  // measure 15
0020
0000
0000
0000
,  // measure 16
0130
0000
0000
0100
0000
0000
0100
0000
1000
0000
0000
1000
0000
0000
1000
0000
,  // measure 17
0001
1000
0010
1000
,  // measure 18
0001
0000
0000
0001
0000
0000
0001
0000
1000
0000
0000
1000
0000
0000
1000
0000
,  // measure 19
0100
1000
0010
0100
,  // measure 20
0101
0000
0000
0000
0000
0000
0000
0000
0000
0000
0000
0001
1000
0000
1000
0000
,  // measure 21
0001
0000
0000
0001
0000
0000
0001
0000
1000
0000
0000
1000
0000
0000
1000
0000
,  // measure 22
0010
1000
0100
0010
,  // measure 23
0001
0000
0000
0001
0000
0000
0001
0000
0010
0000
0000
0010
0000
0000
0010
0000
,  // measure 24
0100
0010
0100
0000
0010
0000
0001
0000
,  // measure 25
1000
0000
0000
1000
0000
0000
1000
0000
0010
0000
0000
0010
0000
0000
0010
0000
,  // measure 26
0100
0001
0010
0100
,  // measure 27
1000
0000
0000
1000
0000
0000
1000
0000
0100
0000
0000
0100
0000
0000
0100
0000
,  // measure 28
1100
1000
0010
0100
,  // measure 29
0001
0100
0010
1000
0001
0000
0000
0000
,  // measure 30
2000
0000
0000
0000
,  // measure 31
3002
0000
0023
0000
,  // measure 32
0130
0010
0100
0000
0010
0001
0010
0000
,  // measure 33
0001
0100
0010
1000
0002
0000
0000
0000
,  // measure 34
2003
0000
0000
0000
,  // measure 35
3200
0000
0000
0000
,  // measure 36
0310
0001
0010
0000
0010
0100
0010
0000
,  // measure 37
0010
0001
0010
0100
2000
0000
3000
0000
,  // measure 38
2001
0000
0000
3002
,  // measure 39
0203
0320
2030
3200
,  // measure 40
0320
0000
0000
0230
,  // measure 41
2300
3020
0230
0302
,  // measure 42
0023
0000
0000
0000
,  // measure 43
0000
0230
0320
0032
,  // measure 44
2003
0000
0000
3002
,  // measure 45
2003
0000
0000
0000
3001
0010
0100
1000
,  // measure 46
0020
0000
0000
0230
,  // measure 47
0320
2030
3002
0023
,  // measure 48
0230
0000
0000
0320
,  // measure 49
0032
0203
0302
2003
,  // measure 50
3200
0000
0000
0000
,  // measure 51
0000
0320
0230
1300
,  // measure 52
1001
0000
0110
0000
,  // measure 53
1000
0100
0010
0001
1000
0100
0010
0001
,  // measure 54
1000
0000
0001
0100
0001
0000
0100
0010
,  // measure 55
0200
0000
0000
0000
,  // measure 56
0310
0000
1000
0001
0010
0000
0100
1000
,  // measure 57
0002
0000
0000
0000
,  // measure 58
0103
0000
0001
0100
0001
0000
1000
0010
,  // measure 59
2000
0000
0000
0000
,  // measure 60
3001
0000
0000
0000
0000
0000
0000
0000
0000
0000
0000
0000
1000
0000
0000
0000
0000
0000
0100
0000
0000
0000
0000
0000
0110
0000
0000
0000
0000
0000
0000
0000
0000
0000
0000
0000
0001
0000
0000
0000
0000
0010
0000
0000
0000
0000
0000
0000
,  // measure 61
0220
0000
0330
0000
;

//---------------dance-single - ----------------
#NOTEDATA:;
#CHARTNAME:;
#STEPSTYPE:dance-single;
#DESCRIPTION:;
#CHARTSTYLE:;
#DIFFICULTY:Hard;
#METER:12;
#RADARVALUES:0.397403,0.531136,0.127273,0.509091,0.127273,306.000000,292.000000,14.000000,56.000000,0.000000,0.000000,0.000000,0.000000,0.000000,0.397403,0.531136,0.127273,0.509091,0.127273,306.000000,292.000000,14.000000,56.000000,0.000000,0.000000,0.000000,0.000000,0.000000;
#CREDIT:Pandemonium X;
#NOTES:
// measure 0
0000
0000
0000
0000
,  // measure 1
0000
0000
0000
0000
,  // measure 2
0000
0000
0000
0000
,  // measure 3
0000
0000
0000
0000
,  // measure 4
0000
0000
0000
0000
,  // measure 5
1001
0000
0000
0000
0000
0000
0000
0100
,  // measure 6
1001
0000
0000
0000
,  // measure 7
0110
0000
1001
0000
,  // measure 8
1001
0100
0100
0100
,  // measure 9
0010
0010
0010
0010
,  // measure 10
0100
0010
0100
0010
,  // measure 11
1001
0110
1001
0000
,  // measure 12
1000
0000
0010
1000
0010
0000
1000
0000
0001
0000
0010
0100
0010
0000
0001
0000
,  // measure 13
2000
0100
0100
3100
,  // measure 14
0010
0000
0100
0001
0100
0000
0010
0000
1000
0000
0001
0010
0001
0000
1000
0000
,  // measure 15
0200
0010
0010
0310
,  // measure 16
0100
0000
0000
0100
0000
0000
1000
0000
0001
0000
0000
0100
0000
0000
0010
0000
,  // measure 17
1000
0010
0100
0001
,  // measure 18
0010
0000
0000
0010
0000
0000
0100
0000
0010
0000
0000
0001
0000
0000
1000
0000
,  // measure 19
0001
0100
0010
1000
,  // measure 20
2001
0000
0000
0000
0000
0000
0000
0000
3000
0000
0000
0001
1000
0000
1000
0000
,  // measure 21
0001
0000
1000
0010
0000
0000
1000
0000
0001
0000
1000
0010
0000
0000
0100
0000
,  // measure 22
0001
0010
0100
1000
,  // measure 23
0001
0000
0010
0001
0000
0000
0100
0000
0001
0000
0010
0001
0000
0000
0010
0000
,  // measure 24
0100
0000
0100
0000
1000
0000
0000
0001
0000
1000
0000
0000
0010
0000
0000
0000
,  // measure 25
1000
0000
0001
0100
0000
0000
0001
0000
1000
0000
0001
0100
0000
0000
0010
0000
,  // measure 26
1000
0001
0010
0100
,  // measure 27
1000
0000
0100
0010
0000
0000
0100
0000
1000
0000
0100
0010
0000
0000
0100
0000
,  // measure 28
1000
0010
0100
0001
,  // measure 29
1000
0100
0010
0001
1001
0000
0000
0000
,  // measure 30
0201
0010
0001
0010
,  // measure 31
0302
0013
0200
1300
,  // measure 32
0001
0100
0001
0100
0010
0100
0010
0100
,  // measure 33
0010
1000
0010
1000
0002
0000
0000
0000
,  // measure 34
2003
0100
0010
0100
,  // measure 35
3200
0010
1000
0310
,  // measure 36
0100
0010
0100
0010
0001
1000
0001
1000
,  // measure 37
0001
0010
0100
1000
0020
0000
0000
0000
,  // measure 38
0230
0001
0010
0302
,  // measure 39
0023
0230
2300
3002
,  // measure 40
2003
0010
0010
3200
,  // measure 41
0320
0230
2300
3020
,  // measure 42
0230
0001
0001
0001
,  // measure 43
0301
2000
3020
0230
,  // measure 44
0302
0103
0020
1030
,  // measure 45
2002
0000
3003
0000
2000
3200
0320
0032
,  // measure 46
0023
0001
0001
0230
,  // measure 47
0320
0032
0203
2300
,  // measure 48
3200
0010
0010
0302
,  // measure 49
2003
3002
0023
0230
,  // measure 50
2300
0100
0100
0100
,  // measure 51
3100
0020
0032
0203
,  // measure 52
0310
0020
0130
1001
,  // measure 53
1000
0001
1000
0100
0001
0100
1000
0001
,  // measure 54
0100
0000
0010
1000
0100
0000
0010
0000
0100
0000
0010
0001
1000
0000
0100
0000
,  // measure 55
2000
0010
0100
3010
,  // measure 56
0100
0000
0001
1000
0010
0000
1000
0000
0100
0000
0010
0001
1000
0000
0100
0000
,  // measure 57
2000
0001
0010
3001
,  // measure 58
0010
0000
0100
0001
0010
0000
0100
0000
1000
0000
0100
1000
0010
0000
0100
0000
,  // measure 59
0002
0000
0010
0000
0100
0000
1003
0001
,  // measure 60
1000
0000
0000
0000
0000
0000
0100
0000
0000
0010
0000
0000
0001
0000
0000
0000
0000
0000
0010
0000
0000
0000
0000
0000
0100
0000
0000
0000
0000
0000
0010
0000
0000
0001
0000
0000
0100
0000
0000
0000
0000
0010
0000
0000
0000
0000
0000
0000
,  // measure 61
2002
0000
3003
0000
;

//---------------dance-single - ----------------
#NOTEDATA:;
#CHARTNAME:;
#STEPSTYPE:dance-single;
#DESCRIPTION:;
#CHARTSTYLE:;
#DIFFICULTY:Challenge;
#METER:15;
#RADARVALUES:0.659740,0.866591,0.218182,0.336364,0.745455,508.000000,484.000000,24.000000,37.000000,0.000000,0.000000,0.000000,0.000000,0.000000,0.659740,0.866591,0.218182,0.336364,0.745455,508.000000,484.000000,24.000000,37.000000,0.000000,0.000000,0.000000,0.000000,0.000000;
#CREDIT:Pandemonium X;
#NOTES:
// measure 0
0000
0000
0000
0000
,  // measure 1
0000
0000
0000
0000
,  // measure 2
0000
0000
0000
0000
,  // measure 3
0000
0000
0000
0000
,  // measure 4
0000
0000
0000
0000
,  // measure 5
0110
0000
0000
0000
0000
0000
0000
0001
,  // measure 6
1001
0000
0000
0000
,  // measure 7
1100
0000
0011
0000
,  // measure 8
2001
0100
0001
0001
,  // measure 9
0100
0100
0001
0001
,  // measure 10
0100
0001
0100
0001
,  // measure 11
3100
0010
0100
1000
0010
0100
0001
1000
0001
0000
1000
0001
0010
0000
0010
0001
,  // measure 12
0100
0000
0000
0010
0100
0010
0100
0000
0000
0001
0000
0000
0010
0000
0000
0100
1000
0100
1000
0000
0000
0001
0000
0000
,  // measure 13
0100
0010
0100
0010
1000
0010
1000
0010
0100
0010
0100
0010
1000
0010
1000
0010
,  // measure 14
0100
0000
0000
0001
1000
0001
1000
0000
0000
0100
0000
0000
0010
0000
0000
0100
0010
0100
0010
0000
0000
0001
0000
0000
,  // measure 15
0100
0010
0100
0010
0100
0001
0100
0001
0100
0010
0100
0010
0100
0001
0100
0001
,  // measure 16
0100
0000
0010
2000
0000
0000
3100
0000
0010
0000
0100
2000
0000
0000
3001
0000
,  // measure 17
0100
0010
0100
0000
0010
1000
0000
0010
0000
1000
0000
0001
0000
0010
0000
0100
,  // measure 18
0010
0000
0001
0200
0000
0000
0310
0000
1000
0000
0010
0200
0000
0000
0310
0000
,  // measure 19
1000
0100
1000
0100
0000
0000
0100
0010
0000
0001
0000
0010
0000
0100
0000
0010
,  // measure 20
0001
0010
0100
0010
0000
0001
0010
0100
1000
0001
0010
0100
0010
0000
0010
0000
,  // measure 21
1001
0000
0001
0200
0000
0000
0301
0000
1000
0000
0001
0200
0000
0000
0310
0000
,  // measure 22
1000
0100
1000
0000
0001
0100
0000
0001
0000
0010
0100
1000
0001
1000
0001
1000
,  // measure 23
0001
0000
0001
0020
0000
0000
0031
0000
1000
0000
0001
0020
0000
0000
0031
0000
,  // measure 24
0100
0000
0010
0000
1000
0000
0000
1010
0000
0101
0000
0001
0010
0100
1000
0001
,  // measure 25
1001
0000
0100
0020
0000
0000
1030
0000
0001
0000
0100
0020
0000
0000
1030
0000
,  // measure 26
0100
0010
0100
0000
0010
0001
0000
0100
0000
0001
0000
1000
0000
0001
0000
0010
,  // measure 27
0001
0000
1000
0200
0000
0000
0310
0000
0100
0000
1000
0200
0000
0000
0310
0000
,  // measure 28
0110
0100
0010
0001
,  // measure 29
1000
0100
0010
0001
1000
0100
0010
0100
1000
0000
0000
0000
0000
0000
0000
0000
,  // measure 30
2010
0100
0010
0001
,  // measure 31
3020
0100
2030
0100
,  // measure 32
3001
0000
0001
0000
1000
0000
1000
0010
0100
0000
0100
0000
0001
0000
0001
0010
,  // measure 33
0100
0100
1000
2000
0002
0000
0000
3003
,  // measure 34
0201
0010
0001
0010
,  // measure 35
0302
0010
1000
0013
,  // measure 36
0001
0001
0010
0010
1000
1000
0010
0010
,  // measure 37
0001
0001
1000
2000
0002
0000
3003
0000
,  // measure 38
1100
0000
0000
0000
0011
0000
0000
0000
0010
0001
0000
0001
0010
0000
0100
0000
,  // measure 39
1000
0000
0000
0000
1010
0000
0000
0000
0010
0100
0000
0100
0010
0000
1000
0000
,  // measure 40
0001
0010
0100
0000
0010
0000
0001
0100
0000
0001
0100
0000
0010
0000
0010
0000
,  // measure 41
1000
0001
1000
0000
0001
0000
0010
0100
0000
0010
0100
0000
1000
0000
0100
0000
,  // measure 42
0010
0000
0000
0000
0110
0000
0000
0000
0100
1000
0000
1000
0010
0000
0100
0000
,  // measure 43
0001
0000
0000
0000
0011
0000
0000
0000
0010
0001
0000
0001
0100
0000
0010
0000
,  // measure 44
1010
0100
0101
0001
,  // measure 45
1002
0000
0000
0000
2003
3200
0320
0032
,  // measure 46
1003
0000
0100
0000
1000
0000
0010
0000
0100
0010
0000
0010
1000
0000
0001
0000
,  // measure 47
0010
0100
0000
0100
1000
0000
0100
0000
0010
0100
0000
0100
1000
0000
0001
0000
,  // measure 48
0100
0001
0000
0010
0100
0000
0010
0000
0001
1000
0000
0010
1000
0000
0100
0000
,  // measure 49
0010
0100
0000
1000
0010
0000
0100
0000
0001
1000
0000
0010
0100
0000
0010
0000
,  // measure 50
1000
0001
0000
0010
0100
0000
0010
0000
0100
1000
0000
1000
0010
0000
0100
0000
,  // measure 51
0001
0100
0000
0100
0010
0000
0100
0000
0001
1000
0000
1000
0100
0000
0010
0000
,  // measure 52
0011
0000
0100
0000
1100
0000
1000
0001
,  // measure 53
2000
3200
0302
0203
2300
3020
0032
0023
,  // measure 54
0130
0000
0000
0010
1000
0010
0100
0000
0000
0001
0000
0000
0010
0000
0000
0100
1000
0100
0010
0000
0000
0100
0000
0000
,  // measure 55
1000
0001
1000
0001
0100
0010
0100
0010
1000
0001
1000
0001
0100
0010
0100
0010
,  // measure 56
1000
0000
0000
0001
0010
0001
0100
0000
0000
0001
0000
0000
1000
0000
0000
0100
0010
0100
1000
0000
0000
0001
0000
0000
,  // measure 57
0100
0010
0100
0010
1000
0001
1000
0001
0100
0010
0100
0010
1000
0001
1000
0001
,  // measure 58
0100
0000
0000
0010
1000
0010
0100
0000
0000
0001
0000
0000
0010
0000
0000
0100
0010
0100
1000
0000
0000
0001
0000
0000
,  // measure 59
1000
0001
1000
0001
0100
0010
0100
0010
1000
0001
1000
0001
0100
0010
0100
0010
,  // measure 60
1000
0000
0000
0000
0000
0000
0100
0000
0010
0000
0001
0000
1000
0000
0000
0000
0000
0000
0010
0000
0000
0000
0000
0000
1001
0000
0000
0000
0000
0000
1000
0000
0001
0000
1000
0000
0100
0000
0000
0000
0000
0010
0000
0000
0000
0000
0000
0000
,  // measure 61
0220
0030
0300
0000
;
