#TITLE:27th Style;
#SUBTITLE:;
#ARTIST:三代目 "dj TAKA & DAYBREAKERS";
#TITLETRANSLIT:;
#SUBTITLETRANSLIT:;
#ARTISTTRANSLIT:;
#GENRE:;
#CREDIT:;
#BANNER:27th style.png;
#BACKGROUND:27th style-bg.png;
#LYRICSPATH:;
#CDTITLE:;
#MUSIC:27th style.ogg;
#OFFSET:0.589000;
#SAMPLESTART:13.810000;
#SAMPLELENGTH:14.400000;
#SELECTABLE:YES;
#BPMS:0.000000=150.000000
;
#STOPS:246.250000=0.400000,
249.250000=0.600000,
251.750000=0.600000
;
#BGCHANGES:4.000=27th style.avi=1.000=1=0=1===CrossFade==,
99999=-nosongbg-=1.000=0=0=0 // don't automatically add -songbackground-
;
#KEYSOUNDS:;
#ATTACKS:;

//---------------dance-single - ----------------
#NOTES:
     dance-single:
     :
     Beginner:
     3:
     0.127960,0.287910,0.079975,0.000000,0.000000,112.000000,102.000000,10.000000,0.000000,0.000000,0.000000,0.127960,0.287910,0.079975,0.000000,0.000000,112.000000,102.000000,10.000000,0.000000,0.000000,0.000000:
0000
0000
0000
0000
,
0000
0000
0000
0000
,
0000
0000
0000
0000
,
0000
0000
0000
0000
,
0000
0000
0000
0000
,
1000
0000
0000
0000
,
0001
0000
0000
0000
,
0100
0000
0010
0000
,
1001
0000
0000
0000
,
0001
0000
0000
0000
,
1000
0000
0000
0000
,
0010
0000
0000
0000
,
1000
0000
0000
0000
,
0100
0000
0000
0000
,
0010
0000
0000
0000
,
0100
0000
0000
0000
,
1000
0000
0001
0000
,
1000
0000
0000
0000
,
0010
0000
0000
0000
,
0100
0000
0000
0000
,
0001
0000
0000
0000
,
0010
0000
0000
0000
,
0100
0000
0000
0000
,
1000
0000
0000
0000
,
0010
0000
0000
0000
,
1001
0000
0001
0000
,
1000
0000
0000
0000
,
0110
0000
0100
0000
,
0010
0000
0000
0000
,
1001
0000
0001
0001
,
1000
0000
0000
0000
,
1001
0000
1000
1000
,
0001
1000
0001
1000
,
0110
0000
0000
0000
,
0000
0000
0000
0000
,
0000
0000
0000
0000
,
0001
0000
1000
0000
,
0010
0000
0000
0000
,
0100
0000
0000
0000
,
0001
0000
0000
0000
,
0010
0000
0000
0000
,
0100
0000
0000
1000
,
1000
0000
0000
0010
,
0010
0000
0000
0100
,
0100
0000
0000
0001
,
1000
0000
0000
0100
,
0010
0000
0000
0100
,
0100
0000
0000
0010
,
1001
0000
0000
0000
,
0001
0000
0000
0000
,
1000
0000
0000
0000
,
0010
0000
0000
0000
,
0110
0000
0000
0000
,
0001
0000
0000
0000
,
1000
0000
0000
0000
,
0100
0000
0000
0000
,
1000
0000
0000
0000
,
0010
0000
0000
0000
,
0100
0000
0000
0000
,
0010
0000
0000
0000
,
1000
1000
1000
0000
,
0001
0000
0000
0010
,
0000
0000
0000
0100
0000
0000
0000
0000
,
1000
0000
0000
0000
,
0001
0000
1000
0000
,
0001
0001
0001
0000
,
0100
0000
0010
0000
,
0100
0100
0100
0000
,
0010
1001
1000
0000
,
0001
0001
0001
0000
,
1000
1000
1000
0000
,
0010
0100
0010
0000
,
1001
0000
0000
0000
;

//---------------dance-single - ----------------
#NOTES:
     dance-single:
     :
     Easy:
     6:
     0.246780,0.318900,0.055983,0.039988,0.000000,216.000000,209.000000,7.000000,5.000000,0.000000,0.000000,0.246780,0.318900,0.055983,0.039988,0.000000,216.000000,209.000000,7.000000,5.000000,0.000000,0.000000:
0000
0000
0000
0000
,
0000
0000
0000
0000
,
0000
0000
0000
0000
,
0000
0000
0000
0000
,
0000
0000
0000
0000
,
0001
0100
0001
0100
,
0010
1000
0010
1000
,
0001
0000
1000
0000
,
0010
0000
0010
0000
0010
0010
0010
0000
,
0100
0000
0000
0000
0000
0000
0000
0001
,
0010
0000
0000
0000
0000
0000
0000
0010
,
0100
0000
0000
0000
0000
0000
0000
0100
,
1000
0000
0001
1000
0000
0010
0100
0000
,
0001
0000
0000
0000
0000
0000
0000
0010
,
0001
0000
0000
0100
,
0010
0000
0000
0000
,
1000
1000
1000
1000
,
0001
1000
0010
0000
,
1000
0100
0010
0000
,
0100
1000
0010
0000
,
0100
0001
0010
0000
,
0001
0000
1000
0000
0010
0100
0010
0000
,
1000
0000
0000
0001
,
1000
0000
0100
0000
,
1000
0001
0100
0001
,
0010
0000
0001
0000
,
1000
0001
0100
1000
,
0100
0000
0001
0000
,
0010
0010
0010
0000
,
1001
0000
0000
0000
1000
0001
1000
0000
,
0001
0010
0001
0000
,
0100
0000
0010
1000
,
0100
0001
0100
1000
,
0001
0100
0010
2000
,
3100
0010
0100
0100
,
1000
0001
0100
0020
,
0130
0001
0010
0010
,
0100
0000
1000
0000
0100
1000
0100
0000
,
1000
0000
0010
0000
1000
0010
1000
0000
,
0001
0000
0100
0000
0001
0100
0001
0000
,
0020
0000
0000
0030
,
0100
1000
0001
0000
,
1000
0001
0100
0000
,
0010
0100
0001
0000
,
0010
0100
1000
0000
,
0100
1000
0010
0000
,
0100
0010
1000
0000
,
0001
0010
0100
0000
,
0110
0000
0000
0000
,
0010
0000
0000
0001
0000
0000
1000
0000
,
0001
0000
0000
0100
0000
0000
0010
0000
,
1000
0000
0000
0100
0000
0000
1000
0000
,
1001
0000
0000
0110
0000
0000
1001
0000
,
0001
1000
0010
0010
,
1000
0001
0100
0100
,
0001
1000
0010
0010
,
1000
0001
0100
0100
,
0001
0010
0100
1000
,
0100
0001
0100
0000
,
0010
0001
0100
0000
,
0010
1000
0100
0000
,
0010
0000
0000
0100
,
0000
0000
0000
1000
0000
0000
0000
0000
,
0001
0000
0000
0000
,
1000
0001
0100
0000
,
0001
0010
0100
0000
,
0010
0001
0100
0000
,
0010
1000
0100
0000
,
0011
0100
1000
0000
,
1000
0001
0100
0000
,
0001
1000
0010
0000
,
0100
0010
1000
0000
,
2002
0000
3003
0000
;

//---------------dance-single - ----------------
#NOTES:
     dance-single:
     :
     Medium:
     10:
     0.415870,0.521837,0.119963,0.127960,0.139956,364.000000,349.000000,15.000000,16.000000,0.000000,0.000000,0.415870,0.521837,0.119963,0.127960,0.139956,364.000000,349.000000,15.000000,16.000000,0.000000,0.000000:
0000
0000
0000
0000
,
0000
0000
0000
0000
,
0000
0000
0000
0000
,
0000
0000
0000
0000
,
0000
0000
0000
0000
,
0001
0000
0001
0000
0001
1000
0010
0000
,
0010
0000
0010
0000
0010
1000
0100
0000
,
1000
0100
0001
0000
0001
0100
1000
0000
,
1001
0000
1001
0000
1001
1000
0020
0000
,
0130
0000
0001
0000
0010
0100
1000
0000
,
0100
0000
1000
0000
0010
1000
0001
0000
,
0010
0000
0100
0000
0010
0001
0100
0000
,
0001
0100
0010
1000
0100
0010
0001
0000
,
1000
0000
0001
0000
0010
0010
0100
0000
,
0010
0000
0001
0000
1000
1000
0100
0000
,
0010
0000
0100
0000
1000
1000
0010
0000
,
0100
1000
0100
0010
1000
0001
0010
0000
,
0100
0000
0000
0000
1000
0000
0000
0000
0001
0000
0000
0010
0000
0000
0000
0000
,
0001
0000
0000
0000
0100
0000
0000
0000
0010
0000
0000
1000
0000
0000
0000
0000
,
0100
0000
0000
0000
1000
0000
0000
0000
0010
0000
0000
0010
0000
0000
0000
0000
,
0100
0000
0000
0000
0001
0000
0000
0000
0010
0000
0000
0001
0000
0000
0000
0000
,
1000
0000
0000
0001
0100
0000
0000
0000
0010
0000
0010
0000
0010
0000
0000
0000
,
1000
0000
0000
0100
0000
0000
0010
0000
0000
0000
0001
0000
0011
0000
0000
0000
,
0001
0000
0100
0000
0010
1000
0100
0000
,
0010
0000
0001
0000
0010
0100
1000
0000
,
0010
0000
0000
0000
0100
0100
1000
0000
,
0100
0000
1000
0000
0010
0000
0100
0010
,
1000
0000
0000
0001
0010
0010
0001
0000
,
1000
0000
0001
0100
0010
0000
1000
0000
,
0101
0000
0000
0001
0010
0010
0010
0000
,
0001
0000
1000
0100
0010
0000
0100
0000
,
1001
0000
0000
0001
1000
0010
1000
0000
,
0001
0000
0100
0000
1000
0100
0001
0000
,
2000
0000
3100
0000
0010
0001
2000
0000
,
3002
0000
0103
0000
0001
0100
0010
0100
,
0002
0000
0013
0000
0100
0010
0001
0000
,
0020
0000
0130
0000
0010
0001
1000
0100
,
0010
0000
0010
0000
0010
0010
0010
0000
,
0100
0000
0100
0000
0100
0100
0100
0000
,
1000
0000
1000
0000
1000
1000
1000
0000
,
0020
0000
2030
0000
3100
0010
0001
0000
,
0010
0000
0000
0001
0000
0000
0100
0000
0000
0000
0010
0000
1000
0000
0000
0000
,
0100
0000
0000
1000
0000
0000
0010
0000
0000
0000
0000
0000
0100
0000
0010
0000
,
1000
0000
0000
0001
0000
0000
0010
0000
0000
0000
0000
0000
0001
0000
0010
0000
,
0100
0000
0000
0010
0000
0000
0001
0000
0000
0000
0000
0000
1000
0000
0000
0000
,
0010
0000
0000
1000
0000
0000
0100
0000
0000
0000
0010
0000
0011
0000
0000
0000
,
0001
0000
0000
1000
0000
0000
0100
0000
0000
0000
0010
0000
0110
0000
0000
0000
,
0100
0000
0000
1000
0000
0000
0010
0000
0000
0000
0000
0000
0100
0000
0010
0000
,
1000
0000
0000
0001
0000
0000
0020
0000
0000
0000
0000
0000
0030
0000
0000
0000
,
0100
0000
0000
0010
0000
0000
0001
0000
0000
1000
0000
0000
0001
0000
1000
0000
,
0010
0000
0000
1000
0000
0000
0100
0000
0000
0010
0000
0000
0100
0000
1000
0000
,
0010
0000
0000
0100
0000
0000
0001
0000
0000
0010
0000
0000
0100
0000
0010
0000
,
0011
0000
0000
0011
0000
0000
1100
0000
0000
1100
0000
0000
1000
0000
0001
0000
,
0101
0000
0001
0000
1000
0010
0001
0010
,
1000
0000
0001
0000
1000
0100
0001
0100
,
1000
0000
0001
0000
1000
0100
0001
0100
,
1000
0000
0001
0000
1000
0010
0001
0010
,
1000
0000
0010
0000
0100
0001
0010
0100
,
2000
3200
0020
0330
,
0200
2300
0010
3010
,
0100
0000
0010
1000
0001
0000
1001
0000
,
0001
0000
0000
0100
0000
0000
0001
0000
0000
0010
0100
0000
0010
0000
0000
0001
,
0000
0000
1000
0000
0000
0010
0100
0000
0000
0010
0000
0000
1000
0000
0000
0001
,
0010
0000
0000
0100
0000
0000
0010
0000
0000
0000
0100
0000
1000
0000
0000
0000
,
0001
0000
0001
0000
1000
0000
0001
0000
0010
0000
0000
0010
0000
0000
0100
0000
,
1000
0000
0000
0000
0001
0000
0000
0000
0100
0000
0000
0010
0000
0000
0000
0000
,
1000
0000
1000
0000
0100
0000
1000
0000
0010
0000
0000
0010
0000
0000
0100
0000
,
0001
0010
0100
1000
,
0001
0000
1000
0000
0001
0000
0001
0000
0010
0000
0000
0010
0000
0000
0100
0000
,
0010
0001
1000
0010
,
0100
0000
0100
0000
0010
0000
1000
0000
0001
0000
0000
1000
0000
0000
0100
0000
,
0010
0000
0000
0000
0001
0000
0000
0000
1000
0000
0000
0010
0000
0000
0000
0000
,
2002
0000
3003
0000
;

//---------------dance-single - ----------------
#NOTES:
     dance-single:
     :
     Hard:
     14:
     0.635230,0.719775,0.711778,0.471853,0.339894,556.000000,467.000000,89.000000,59.000000,0.000000,0.000000,0.635230,0.719775,0.711778,0.471853,0.339894,556.000000,467.000000,89.000000,59.000000,0.000000,0.000000:
0000
0000
0000
0000
,
0000
0000
0000
0000
,
0000
0000
0000
0000
,
0000
0000
0000
0000
,
0000
0000
0000
0000
,
0001
1000
0001
1000
0010
0010
0100
0100
,
0001
1000
0001
1000
0100
0100
0010
0010
,
0001
0100
1000
0000
0100
0010
1000
0000
,
1001
0000
0110
0000
1001
0110
1001
0000
,
1001
0001
1000
0100
0001
0100
1000
0000
,
1001
1000
0001
0100
1000
0100
0001
0000
,
0101
0001
0100
0010
1000
0100
0001
0000
,
0101
0001
0100
1000
0010
0100
0001
0000
,
1010
1000
0010
0001
0010
1000
0100
0000
,
0011
0001
0010
1000
0010
0001
1000
0000
,
0110
1000
0001
0010
1000
0010
0001
0000
,
0110
1000
0001
1000
0100
0001
0100
0000
,
0011
0000
0010
0000
0100
0000
1000
0000
2100
0000
0000
3010
0000
0000
0000
0000
,
1001
0000
0001
0000
0010
0000
0001
0000
0201
0000
0000
0310
0000
0000
0000
0000
,
1010
0000
0010
0000
1000
0000
0001
0000
0021
0000
0000
0130
0000
0000
0000
0000
,
0010
0000
0001
0000
0100
0000
0001
0000
2001
0000
0000
3010
0000
0000
0000
0000
,
0120
0000
0000
1030
0200
0000
0000
0000
0310
0000
0010
0000
0100
0000
0000
0000
,
0011
0000
0000
1100
0000
0000
0101
0000
0000
0000
0010
0000
1001
0000
0000
0000
,
0101
0001
0100
0010
1001
0010
0110
0000
,
1100
0100
0010
0001
1001
0100
0110
0000
,
1001
0000
0000
0000
0000
0000
0001
0000
0010
0000
0100
0010
0000
0000
0000
0000
,
0100
1000
0010
0001
0010
1000
0001
0000
,
1100
0000
0000
0000
0000
0000
0010
0000
0001
0000
1000
0001
0000
0000
0000
0000
,
0010
0000
0001
0000
0100
0000
0010
0000
0110
0000
0000
0101
0000
0000
0000
0000
,
0220
0000
0330
1000
0001
0001
1000
0000
,
0001
0000
0100
0000
0010
0100
0010
0000
1000
0000
0000
0100
0000
0000
0000
0000
,
0011
0000
0000
0100
1000
1000
0010
0000
,
0110
0010
0110
0100
1001
0010
1001
0000
,
0002
0000
0000
1003
0001
0000
0001
0000
0010
0100
0010
0100
4000
0000
0000
0000
,
3002
0000
0000
0103
0010
0000
0010
0000
1000
0001
1000
0001
0020
0000
0130
1000
,
0002
0000
0000
0103
0001
0000
0001
0000
1000
0010
1000
0010
0400
0000
0000
0000
,
0302
0000
0000
0013
0100
0000
0100
0000
0010
0100
0010
0100
2000
0000
0000
0000
,
3020
0000
1030
0000
0020
0000
0130
0000
0001
0100
0001
0100
0040
0000
0000
0000
,
2030
0000
3001
0000
2000
0000
3010
0000
1000
0100
1000
0100
0010
0000
0010
0001
,
0200
0000
0301
0000
0200
0000
0310
0000
0100
0010
0100
0010
4000
0000
0000
0000
,
3002
0000
0000
0103
0001
0000
0001
0000
0100
0010
0100
0001
1000
0000
0000
0000
,
1001
0000
0000
0101
0000
0000
0011
0000
0000
0000
0010
0000
0100
0000
1000
0000
,
1100
0000
0000
1010
0000
0000
0101
0000
0000
0000
0001
0000
0100
0000
0010
0000
,
1010
0000
0000
0011
0000
0000
1001
0000
0000
0000
1000
0000
0001
0000
0010
0000
,
0110
0000
0000
1100
0000
0000
0011
0000
0000
0000
1000
0000
0100
0000
0010
0000
,
0011
0000
0000
0101
0000
0000
1010
0000
0000
0000
1000
0000
1010
0000
0000
0000
,
0011
0000
0000
1010
0000
0000
1001
0000
0000
0000
1000
0000
0100
0000
0001
0000
,
0101
0000
0000
1100
0000
0000
1001
0000
0000
0000
1000
0000
0001
0000
0010
0000
,
0110
0000
0000
1001
0000
0000
0110
0000
0000
0000
0000
0000
0000
0000
0000
0000
,
1000
0001
0000
0001
1000
0000
1000
0010
0000
0010
1000
0000
0001
0000
0001
0000
,
0010
0001
0000
0001
0100
0000
0100
0001
0000
0001
1000
0000
0010
0100
0010
0000
,
0100
0010
0000
0010
1000
0000
1000
0001
0000
0001
0010
0000
0100
0010
0100
0000
,
0011
0000
0000
1010
0000
0000
0011
0000
0000
1010
0000
0000
0010
0000
0100
0000
,
0101
0000
0010
1000
0200
0302
0203
2300
,
3010
0000
0100
1000
0200
0320
2030
3002
,
0013
0000
0100
0010
0002
0023
2030
3020
,
0130
0000
0010
0001
0200
0302
2003
3020
,
0130
0000
0000
0000
0001
0000
1000
0000
0020
0030
0020
0000
0200
0030
0020
0300
,
1030
0000
0000
0000
0100
0000
0010
0000
0002
0003
0002
0000
2000
0003
3002
0000
,
1003
0000
0000
0000
0010
0000
0100
0000
0002
0003
0002
0000
0200
0003
0310
0000
,
1010
0000
1000
0000
1100
0000
1000
0000
1001
0000
0000
0110
0000
0000
0000
0000
,
1000
0000
0000
0100
0000
0000
0010
0000
0000
0001
1000
0000
0010
0000
0000
0100
,
0000
0000
0010
0000
0000
1000
0100
0000
0000
0010
0000
0000
0100
0000
0000
1000
,
0001
0000
0000
0010
0000
0000
0001
0000
0000
0000
0100
0000
0020
0000
0000
0000
,
1030
0010
0100
0000
0001
0000
0010
0000
0210
0000
0000
1300
0000
0000
0001
0000
,
0011
0000
0100
0000
0010
0000
0001
0000
0201
0000
0000
0310
0000
0000
0000
0000
,
1000
0010
1000
0000
0010
0000
1000
0000
1002
0000
0000
0013
0000
0000
0100
0000
,
1100
0000
0001
0000
0100
0000
0010
0000
0210
0000
0000
0301
0000
0000
0000
0000
,
1000
0001
1001
0000
1000
0000
0001
0000
0012
0000
0000
1003
0000
0000
0001
0000
,
0101
0000
0001
0000
1000
0000
0100
0000
0210
0000
0000
1300
0000
0000
0000
0000
,
0010
0001
0100
0000
0010
0000
1000
0000
1020
0000
0000
0130
0000
0000
0010
0000
,
1010
0000
1000
0000
0100
0000
0010
0000
0021
0000
0000
0130
0000
0000
0000
0000
,
2002
0000
0000
0000
,
0000
0000
0000
0000
,
0000
0000
0000
0000
,
3003
0000
0000
0000
;

//---------------dance-double - ----------------
#NOTES:
     dance-double:
     :
     Easy:
     6:
     0.231928,0.345492,0.143955,0.007998,0.000000,203.000000,185.000000,18.000000,1.000000,0.000000,0.000000,0.231928,0.345492,0.143955,0.007998,0.000000,203.000000,185.000000,18.000000,1.000000,0.000000,0.000000:
// measure 0
00000000
00000000
00000000
00000000
,  // measure 1
00000000
00000000
00000000
00000000
,  // measure 2
00000000
00000000
00000000
00000000
,  // measure 3
00000000
00000000
00000000
00000000
,  // measure 4
00000000
00000000
00000000
00000000
,  // measure 5
10000000
00000000
00010000
00000000
,  // measure 6
00100000
00000000
00001000
00000000
,  // measure 7
00010000
00000000
00000100
00000000
,  // measure 8
00001001
00000110
00001001
00000110
,  // measure 9
00000001
00000100
00000010
00000000
,  // measure 10
00000100
00000010
00001000
00000000
,  // measure 11
00000100
00010000
00001000
00000000
,  // measure 12
01000000
10000000
01000000
00010000
,  // measure 13
10000000
01000000
00100000
00000000
,  // measure 14
01000000
10000000
00010000
00000000
,  // measure 15
00100000
00001000
00010000
00000000
,  // measure 16
00000100
00000001
00000100
00001000
,  // measure 17
00000010
00000010
00000010
00000000
,  // measure 18
00000100
00000100
00000100
00000000
,  // measure 19
00000001
00000001
00000001
00000000
,  // measure 20
00001000
00001000
00001000
00000000
,  // measure 21
00001100
00000000
00010100
00000000
,  // measure 22
00001000
01000000
00100000
10100000
,  // measure 23
10000000
01000000
00010000
01000000
,  // measure 24
10000000
00100000
00010000
00100000
,  // measure 25
10000000
00000000
00010000
00000000
,  // measure 26
00100000
00100000
00001000
00001000
,  // measure 27
00010000
00000000
00000100
00000000
,  // measure 28
00001000
00000010
00000100
00000000
,  // measure 29
00001001
00000000
00000000
00000000
00000001
00001000
00000001
00000000
,  // measure 30
00000001
00000100
00000010
00000000
,  // measure 31
00001010
00000000
00000000
00000000
00000010
00001000
00000010
00000000
,  // measure 32
00000010
00010000
00001000
01000000
,  // measure 33
01100000
00000000
00000000
00000000
,  // measure 34
10000000
00000000
00000000
00000000
,  // measure 35
01000000
00000000
00000000
00000000
,  // measure 36
00100000
00000000
00000000
00000000
,  // measure 37
00001000
00010000
00001000
00010000
,  // measure 38
00001000
00010000
00001000
00010000
,  // measure 39
00001000
00010000
00001000
00010000
,  // measure 40
00001000
00000000
00000000
00000000
,  // measure 41
00100000
00000000
00000000
00001000
,  // measure 42
00100000
00000000
00000000
00001000
,  // measure 43
00010000
00000000
00000000
00010000
,  // measure 44
00000100
00000000
00000000
00001000
,  // measure 45
00000010
00000000
00000000
00000100
,  // measure 46
00000001
00000000
00000000
00000010
,  // measure 47
00000100
00000000
00000000
00000100
,  // measure 48
00001100
00000000
00000000
00000000
,  // measure 49
00000100
00000000
00010000
00000000
,  // measure 50
00001000
00000000
01000000
00000000
,  // measure 51
00100000
00000000
10000000
00000000
,  // measure 52
11000000
00000000
00000000
00000000
,  // measure 53
10000000
01000000
00010000
01000000
,  // measure 54
10000000
00100000
00010000
00100000
,  // measure 55
10000000
00010000
00100000
00001000
,  // measure 56
00010000
00000100
00001000
00000010
,  // measure 57
00000100
00000001
00000010
00000100
,  // measure 58
00000010
00000010
00000020
00000030
,  // measure 59
00000100
00000000
00010000
00000000
,  // measure 60
00001000
00010000
00011000
00000000
,  // measure 61
01001000
00000000
00000000
01100000
,  // measure 62
00000000
00000000
00000000
11000000
00000000
00000000
00000000
00000000
,  // measure 63
00110000
00000000
00000000
00000000
,  // measure 64
00001000
00100000
00001000
00000000
,  // measure 65
00010000
00000100
00001000
00000000
,  // measure 66
00000010
00000100
00000001
00000000
,  // measure 67
00000010
00000010
00000100
00000000
,  // measure 68
00000010
00000100
00000010
00000000
00000100
00000000
00000000
00000000
,  // measure 69
00000010
00000001
00000100
00000000
,  // measure 70
00000010
00010000
00001000
00000000
,  // measure 71
01000000
00100000
10000000
00000000
,  // measure 72
01010000
00000000
00000000
00000000
;

//---------------dance-double - ----------------
#NOTES:
     dance-double:
     :
     Medium:
     10:
     0.431865,0.521837,0.351890,0.207935,0.111965,378.000000,334.000000,44.000000,26.000000,0.000000,0.000000,0.431865,0.521837,0.351890,0.207935,0.111965,378.000000,334.000000,44.000000,26.000000,0.000000,0.000000:
// measure 0
00000000
00000000
00000000
00000000
,  // measure 1
00000000
00000000
00000000
00000000
,  // measure 2
00000000
00000000
00000000
00000000
,  // measure 3
00000000
00000000
00000000
00000000
,  // measure 4
00000000
00000000
00000000
00000000
,  // measure 5
10000000
00100000
01000000
00010000
,  // measure 6
00100000
00001000
00010000
00000100
,  // measure 7
00000010
00000001
00000100
00000000
00000010
00001000
00000100
00000000
,  // measure 8
00001100
00000000
00001100
00000000
00001100
00000100
00020100
00000000
,  // measure 9
00031000
00000000
01000000
00000000
00100000
00000000
10000000
01000000
,  // measure 10
01100000
00000000
00100000
00000000
00001000
00000000
00010000
00000100
,  // measure 11
00010100
00000000
00000100
00000000
00010000
00000000
00000100
00001000
,  // measure 12
00000010
00000000
00000001
00000010
00000000
00000010
00001000
00000000
,  // measure 13
00001100
00000000
00010000
00000000
00001000
00000000
01000000
00100000
,  // measure 14
10000000
00000000
01000000
00000000
00010000
00000000
01000000
00100000
,  // measure 15
00010000
00000000
00100000
00000000
00001000
00000000
00010000
00000100
,  // measure 16
00001100
00000000
00000011
00000000
00001100
00000011
00001100
00000000
,  // measure 17
00000001
00001000
00000001
00001000
00000200
00000000
00001300
00000000
,  // measure 18
00000010
00001000
00000010
00001000
00000200
00000000
00010300
00000000
,  // measure 19
00001000
01000000
00001000
01000000
00200000
00000000
10300000
00000000
,  // measure 20
01000000
00100000
01000000
10000000
00020000
00000000
10030000
00000000
,  // measure 21
10100000
00000000
00110000
00000000
00010000
00010000
00010000
00000000
,  // measure 22
00100000
00000000
00000000
00001000
00000000
00000000
00010000
00000000
00000000
00000000
00001000
00000000
00011000
00000000
00000000
00000000
,  // measure 23
00010000
00000000
00000100
00000000
00001000
00000010
00000100
00000000
,  // measure 24
00000001
00000000
00000010
00000000
00000100
00000010
00000001
00000000
,  // measure 25
00001001
00000000
00000000
00000000
00000000
00000000
00000001
00000000
00000100
00000000
00000000
00000100
00000000
00000000
00000000
00000000
,  // measure 26
00000010
00000000
00001000
00000000
00000100
00000000
00010000
00001000
,  // measure 27
01000000
00000000
00000000
00000000
00000000
00000000
00000000
00000000
00100000
00000000
00000000
10000000
00000000
00000000
00000000
00000000
,  // measure 28
01000000
00000000
00100000
00000000
00010000
00000000
01000000
00000000
00001000
00000000
00000000
01001000
00000000
00000000
00000000
00000000
,  // measure 29
00011000
00000000
00000000
00010000
00000100
00000100
00000100
00000000
,  // measure 30
00001000
00000000
00000010
00000100
00000010
00000000
00001001
00000000
,  // measure 31
00000011
00000000
00000000
00000000
00000001
00000001
00000001
00000000
,  // measure 32
00000010
00000001
00000100
00001000
00010000
01000000
10000000
00000000
,  // measure 33
10020000
00230000
02300000
13000000
,  // measure 34
20000000
30200000
02300000
03001000
,  // measure 35
00020000
00030200
00002300
00003010
,  // measure 36
00000020
00002030
00003020
00000230
,  // measure 37
00000301
00000000
00000010
00000000
00000100
00000100
00000100
00000000
,  // measure 38
00001000
00000000
00000100
00000000
00010000
00010000
00010000
00000000
,  // measure 39
00000100
00000000
00010000
00000000
00001000
00001000
00001000
00000000
,  // measure 40
00200000
00302000
02003000
03200000
,  // measure 41
10300000
00000000
00000000
10000000
00000000
00000000
10000000
00000000
00000000
00000000
01000000
00000000
10000000
00000000
00000000
00000000
,  // measure 42
01000000
00000000
00000000
01000000
00000000
00000000
01000000
00000000
00000000
00000000
00100000
00000000
00010000
00000000
00000000
00000000
,  // measure 43
00100000
00000000
00000000
00100000
00000000
00000000
00001000
00000000
00000000
00000000
00000000
00000000
00010000
00000000
00000100
00000000
,  // measure 44
00010000
00000000
00000000
00000100
00000000
00000000
00001000
00000000
00000000
00000000
00000000
00000000
00000010
00000000
00000000
00000000
,  // measure 45
00000100
00000000
00000000
00000100
00000000
00000000
00000001
00000000
00000000
00000000
00000010
00000000
00000100
00000000
00000000
00000000
,  // measure 46
00001000
00000000
00000000
00001000
00000000
00000000
00001000
00000000
00000000
00000000
00000100
00000000
00010000
00000000
00001000
00000000
,  // measure 47
01000000
00000000
00000000
01000000
00000000
00000000
00100000
00000000
00000000
00000000
00000000
00000000
01000000
00000000
00100000
00000000
,  // measure 48
10010000
00000000
00000000
00010000
00000000
00000000
00100000
00000000
00000000
00000000
00000000
00000000
00000000
00000000
00000000
00000000
,  // measure 49
00001000
00000000
00000000
00010000
00000000
00000000
00000100
00000000
00000000
00010000
00000000
00000000
00001000
00000000
00100000
00000000
,  // measure 50
00001000
00000000
00000000
01000000
00000000
00000000
00001000
00000000
00000000
00010000
00000000
00000000
00000100
00000000
00010000
00000000
,  // measure 51
00001000
00000000
00000000
00010000
00000000
00000000
00001000
00000000
00000000
01000000
00000000
00000000
00001000
00000000
00010000
00000000
,  // measure 52
00000200
00000000
00000000
00010300
00000000
00000000
00002000
00000000
00000000
01003000
00000000
00000000
00100000
00000000
01000000
00000000
,  // measure 53
01001000
00000000
01000000
00000000
00100000
00100000
00100000
00000000
,  // measure 54
01000000
00000000
00010000
00000000
00100000
00100000
00100000
00000000
,  // measure 55
00001000
00000000
00010000
00000000
00000100
00000100
00000100
00000000
,  // measure 56
00001000
00000000
00000010
00000000
00000100
00000100
00000100
00000000
,  // measure 57
00000001
00000000
00000100
00000001
00000000
00000001
00000010
00000000
,  // measure 58
00000011
00001100
00000011
00000000
,  // measure 59
00000001
00000100
00000010
00000000
,  // measure 60
00000100
00000000
00000000
00000000
00000010
00000000
00000000
00000000
00001010
00000000
00000000
00001100
00000000
00000000
00000000
00000000
,  // measure 61
00000100
00000000
00000000
00010000
00000000
00000000
00001000
00000000
00000000
01000000
00100000
00000000
10000000
00000000
00000000
01000000
,  // measure 62
00000000
00000000
00100000
00000000
00000000
00010000
00100000
00000000
00000000
00001000
00000000
00000000
00010000
00000000
00000000
00000100
,  // measure 63
00010000
00000000
00000000
00000100
00000000
00000000
00001000
00000000
00000000
00000000
00000010
00000000
00000100
00000000
00000001
00000000
,  // measure 64
00001000
00001000
00001000
00000000
00001100
00000000
00000011
00000000
,  // measure 65
00000001
00000001
00000001
00000000
00000101
00000000
00000110
00000000
,  // measure 66
00000010
00000010
00000010
00000000
00001010
00000000
00001100
00000000
,  // measure 67
00000100
00000100
00010000
00001000
00001000
00000000
00011000
00000000
,  // measure 68
00001000
01000000
01001000
00000000
01000000
00000000
01100000
00000000
,  // measure 69
10000000
10000000
10000000
00000000
00010000
00000000
00110000
00000000
,  // measure 70
00100000
00100000
00100000
00000000
01000000
00000000
11000000
00000000
,  // measure 71
01100000
00110000
00011000
00001100
,  // measure 72
00000220
00000000
00000330
00000000
;

//---------------dance-double - ----------------
#NOTES:
     dance-double:
     :
     Hard:
     14:
     0.616950,0.664493,0.655795,0.503843,0.287910,540.000000,458.000000,82.000000,63.000000,0.000000,0.000000,0.616950,0.664493,0.655795,0.503843,0.287910,540.000000,458.000000,82.000000,63.000000,0.000000,0.000000:
// measure 0
00000000
00000000
00000000
00000000
,  // measure 1
00000000
00000000
00000000
00000000
,  // measure 2
00000000
00000000
00000000
00000000
,  // measure 3
00000000
00000000
00000000
00000000
,  // measure 4
00000000
00000000
00000000
00000000
,  // measure 5
10000000
01000000
10000000
01000000
00010000
01000000
10000000
00010000
,  // measure 6
01000000
00010000
01000000
00010000
01000000
10000000
01000000
00010000
,  // measure 7
00100000
00001000
00010000
00000000
00000100
00010000
00001000
00000000
,  // measure 8
00001100
00000000
00000110
00000000
00000011
00000010
00000010
00000000
,  // measure 9
00001001
00000001
00000100
00001000
01000000
00010000
10010000
00000000
,  // measure 10
10000000
01000000
00010000
00001000
00000010
00000001
00001000
00000000
,  // measure 11
00000001
00000100
00001000
00010000
00100000
10000000
01000000
00000000
,  // measure 12
10000000
01000000
00010000
00001000
00010000
00000100
00001000
00000000
,  // measure 13
00001100
00000100
00000010
00000001
00000100
00000010
00001001
00000000
,  // measure 14
00001010
00000010
00001000
00000100
00010000
00001000
00101000
00000000
,  // measure 15
00110000
00100000
01000000
10000000
00100000
01000000
01010000
00000000
,  // measure 16
10000000
01000000
00010000
00001000
00000010
00000001
00001001
00000000
,  // measure 17
00000001
00000000
00000100
00000000
00000001
00000000
00001000
00000000
00001100
00000000
00000000
00010100
00000000
00000000
00001000
00000000
,  // measure 18
00010000
00000000
00001000
00000000
01000000
00000000
00100000
00000000
10100000
00000000
00000000
11000000
00000000
00000000
00000000
00000000
,  // measure 19
10000000
00000000
01000000
00000000
10000000
00000000
00010000
00000000
00110000
00000000
00000000
01010000
00000000
00000000
00000000
00000000
,  // measure 20
01000000
00000000
00001000
00000000
00010000
00000000
00000100
00000000
00001100
00000000
00000000
00000110
00000000
00000000
00000000
00000000
,  // measure 21
00001001
00000000
00000000
00000010
00000100
00000000
00000000
00000000
00000001
00000000
00000001
00000000
00000001
00000000
00000000
00000000
,  // measure 22
00001001
00000000
00000000
00001010
00000000
00000000
00010100
00000000
00000000
00000000
00001000
00000000
00011000
00000000
00000000
00000000
,  // measure 23
00001000
00100000
10000000
00100000
00010000
10000000
00010000
00000000
,  // measure 24
01000000
00001000
00010000
00000010
00000001
00000010
00001000
00000000
,  // measure 25
00000202
00000000
00000000
00000000
00000303
00000000
00000001
00000000
00000100
00000000
00000010
00001000
00000000
00000000
00000000
00000000
,  // measure 26
00000100
00010000
00001000
00010000
00000100
00000000
00010000
00000100
,  // measure 27
00020200
00000000
00000000
00000000
00030300
00000000
00001000
00000000
00100000
00000000
00010000
01000000
00000000
00000000
00000000
00000000
,  // measure 28
10100000
00000000
10000000
00000000
00010000
00000000
00100000
00000000
00101000
00000000
00000000
00011000
00000000
00000000
00000000
00000000
,  // measure 29
00002002
00000000
00003003
00000001
00000010
00000010
00000100
00000000
,  // measure 30
00000010
00000000
00000100
00000000
00001000
00000010
00000100
00000000
00000101
00000000
00000000
00001010
00000000
00000000
00000000
00000000
,  // measure 31
00011000
00000000
00000000
00001000
01000000
00001000
00010000
00000000
,  // measure 32
00001000
01000000
10000000
01000000
00001000
00010000
00010100
00000000
,  // measure 33
00020000
00000000
00000000
00030100
00010000
00000000
00010000
00000000
00000010
00000100
00000010
00000100
00000002
00000000
00000000
00000000
,  // measure 34
00000013
00000000
00000000
00000100
00010000
00000000
00010000
00000000
00001000
00100000
00001000
00100000
00001000
00000000
00100000
00001000
,  // measure 35
02000000
00000000
00000000
03100000
10000000
00000000
10000000
00000000
01000000
00100000
01000000
00100000
02000000
00000000
00000000
00000000
,  // measure 36
13000000
01000000
00010000
01000000
10000000
01000000
00010000
01000000
,  // measure 37
10000000
01000000
00010000
00001000
00000010
00000001
00001001
00000000
,  // measure 38
00000001
00000100
00001000
00010000
00100000
10000000
10010000
00000000
,  // measure 39
10000000
00100000
00010000
00001000
00000100
00000001
00001001
00000000
,  // measure 40
00010200
00000000
00000000
00010300
00002000
00000000
02003000
00000000
03100000
10000000
00100000
10000000
01000000
00000000
00000000
00000000
,  // measure 41
01100000
00000000
00000000
00110000
00000000
00000000
00011000
00000000
00000000
00000000
00010000
00000000
00000100
00001000
00000100
00001000
,  // measure 42
00001100
00000000
00000000
00000011
00000000
00000000
00001001
00000000
00000000
00000000
00000000
00000000
00000010
00000100
00000010
00000100
,  // measure 43
00000110
00000000
00000000
00001010
00000000
00000000
00001100
00000000
00000000
00000000
00000000
00000000
00001000
00000000
00000100
00000000
,  // measure 44
00000110
00000000
00000000
00001100
00000000
00000000
00011000
00000000
00000000
00000000
00000000
00000000
00001000
00000000
00000000
00000000
,  // measure 45
01001000
00000000
00000000
01100000
00000000
00000000
10100000
00000000
00000000
00000000
10000000
00000000
01100000
00000000
00000000
00000000
,  // measure 46
10100000
00000000
00000000
01100000
00000000
00000000
01010000
00000000
00000000
00000000
01000000
00000000
00010000
00100000
00010000
00100000
,  // measure 47
00110000
00000000
00000000
00101000
00000000
00000000
00021000
00000000
00000000
00000000
00000000
00000000
00031000
00000000
00100000
00000000
,  // measure 48
00002000
00000000
00000000
00023000
00000000
00000000
00000020
00000000
00000000
00000000
00030030
00000000
00000000
00000000
00000000
00000000
,  // measure 49
00000100
00000010
00000000
00001000
00000001
00000000
00000100
00000010
00000000
00001000
00000001
00000000
00000100
00000000
00000100
00000000
,  // measure 50
00000010
00001000
00000000
00001000
00000100
00000000
00000100
00010000
00000000
00010000
00001000
00000000
00001000
01000000
00100000
00000000
,  // measure 51
00100000
01000000
00000000
00010000
10000000
00000000
00100000
01000000
00000000
00010000
10000000
00000000
00100000
00000000
10000000
00000000
,  // measure 52
11000000
00000000
00000000
01100000
00000000
00000000
00110000
00000000
00000000
00011000
00000000
00000000
00010000
00000000
00000100
00000000
,  // measure 53
00001100
00000000
00000100
00000200
00010000
00020300
00032000
00023000
,  // measure 54
00030100
00000000
00010000
00020000
00001000
00032000
00203000
00320000
,  // measure 55
10030000
00000000
10000000
20000000
32000000
03020000
02030000
23000000
,  // measure 56
30100000
00000000
01000000
20000000
32000000
03020000
00230000
00302000
,  // measure 57
00013000
00000000
00200000
00302000
00023000
00030200
00020300
00032000
,  // measure 58
00103000
00000000
00002000
00023000
00030200
00020300
00032000
02003000
,  // measure 59
03100000
00000000
00200000
20300000
32000000
03020000
00032000
00003200
,  // measure 60
00000310
00000011
00001100
00000011
,  // measure 61
00000001
00000000
00000000
00000100
00000000
00000000
00000010
00000000
00000000
00001100
00000100
00000000
00010000
00000000
00000000
00001000
,  // measure 62
00000000
00000000
01000000
00000000
00000000
10100000
10000000
00000000
00000000
01000000
00000000
00000000
00100000
00000000
00000000
00110000
,  // measure 63
01000000
00000000
00000000
10000000
00000000
00000000
00010000
00000000
00000000
00000000
00100000
00000000
00001000
00000000
00010000
00000000
,  // measure 64
00000010
00000100
00000010
00000000
00000100
00000000
00000001
00000000
00000021
00000000
00000000
00000130
00000000
00000000
00000010
00000000
,  // measure 65
00000001
00000000
00001000
00000000
00000010
00000000
00001000
00000000
00001200
00000000
00000000
00010300
00000000
00000000
00000000
00000000
,  // measure 66
00001000
01000000
00001000
00000000
01000000
00000000
00100000
00000000
20100000
00000000
00000000
31000000
00000000
00000000
00100000
00000000
,  // measure 67
01000000
00000000
10000000
00000000
00010000
00000000
01000000
00000000
02010000
00000000
00000000
03001000
00000000
00000000
00000000
00000000
,  // measure 68
00010000
00001000
00011000
00000000
00010000
00000000
00000100
00000000
00002100
00000000
00000000
00003010
00000000
00000000
00000100
00000000
,  // measure 69
00000001
00000000
00000010
00000000
00000100
00000000
00001000
00000000
00001200
00000000
00000000
00010300
00000000
00000000
00000000
00000000
,  // measure 70
00001000
01000000
00001000
00000000
01000000
00000000
00100000
00000000
20100000
00000000
00000000
31000000
00000000
00000000
10000000
00000000
,  // measure 71
01000000
00000000
00100000
00000000
00010000
00000000
00100000
00000000
00102000
00000000
00000000
00013000
00000000
00000000
00000000
00000000
,  // measure 72
00022000
00033000
00000000
00000000
;
