#TITLE:-65℃;
#SUBTITLE:;
#ARTIST:D.J.Amuro;
#TITLETRANSLIT:;
#SUBTITLETRANSLIT:;
#ARTISTTRANSLIT:;
#GENRE:;
#CREDIT:;
#BANNER:-65C.png;
#BACKGROUND:-65C-background.png;
#LYRICSPATH:;
#CDTITLE:;
#MUSIC:-65C.ogg;
#OFFSET:-0.017000;
#SAMPLESTART:0.020000;
#SAMPLELENGTH:15.484000;
#SELECTABLE:YES;
#BPMS:0.000000=186.000000
;
#STOPS:
;
#BGCHANGES:0.000=-65c.avi=1.000=1=0=0=StretchNoLoop==CrossFade==,
99999=-nosongbg-=1.000=0=0=0 // don't automatically add -songbackground-
;
#KEYSOUNDS:;
#ATTACKS:;

//---------------dance-single - ----------------
#NOTES:
     dance-single:
     :
     Beginner:
     6:
     0.204098,0.519816,0.242150,0.024215,0.000000,177.000000,147.000000,30.000000,3.000000,0.000000,0.000000,0.204098,0.519816,0.242150,0.024215,0.000000,177.000000,147.000000,30.000000,3.000000,0.000000,0.000000:
0000
0000
0000
0000
,
0000
0000
0000
0000
,
0000
0000
0000
0000
,
0000
0000
0000
0000
,
0000
0000
0000
0000
,
0000
0000
0000
0000
,
0000
0000
0000
0000
,
0000
0000
0000
0000
,
1000
0000
0100
0000
,
1000
0000
0010
0000
,
0100
0000
0000
0000
,
0000
0010
0000
0000
0100
0000
0001
0000
,
1000
0000
0000
0001
0000
0000
0000
0000
,
0000
0000
0010
0100
,
1000
0000
0000
0100
,
1001
0000
0000
0000
,
0001
0000
0000
0000
,
0100
0000
0000
0000
,
0010
0000
0000
0000
,
1000
0000
0100
0000
,
0010
0000
0000
0000
,
0100
0000
0000
0000
,
1000
0000
0001
0000
,
0100
0000
0010
0010
,
1001
0000
0000
0000
,
0110
0000
0000
0000
,
0101
0000
0000
0000
,
1100
0000
0000
0000
,
1001
0000
0000
0000
,
1010
0000
0000
0000
,
0101
0000
0001
0000
,
0010
0000
0100
0000
,
1000
0000
0000
1000
0000
0000
0000
0000
,
1000
0000
0000
1000
0000
0000
0000
0000
,
1000
0000
0000
1000
0000
0000
0000
0001
,
0000
0000
0000
0000
,
0110
0000
0000
0000
,
0010
0000
0000
0000
,
0100
0000
0000
0000
0000
0000
0000
0001
,
0000
0000
0000
0000
,
1000
0000
0100
0000
,
1000
0000
0010
0000
,
0100
0000
0001
0000
,
0010
0000
0100
0000
,
0010
0000
0001
0000
,
0100
0000
0010
0010
,
0100
0000
0010
0000
,
1000
0000
0001
0000
,
1001
0000
1001
0000
,
1001
0000
1001
0000
,
0110
0000
0110
0000
,
0110
0000
0110
0000
,
1001
0000
0110
0000
,
1001
0000
0110
0000
,
1001
0000
1001
0000
,
1001
0110
1001
0110
,
1001
0000
0000
0000
,
0000
0000
0000
0000
,
0000
0000
0000
0000
,
0000
0000
0000
0000
,
0000
0000
0000
0000
,
0000
0000
0000
0000
,
0000
0000
0000
0000
,
0000
0000
1000
0000
,
0001
0000
0100
0000
,
0000
0000
0000
0000
,
0001
0000
0010
0000
,
0200
0000
0000
0000
0000
0300
0000
0000
,
1000
0000
0100
0000
,
0010
0000
0001
0000
,
1000
0000
0001
0000
,
0110
0000
0000
0000
,
1000
1000
1000
1000
,
1000
1000
1000
0000
,
0001
0001
0001
0001
,
0001
0001
0001
0000
,
0100
0100
0100
0100
,
0010
0010
0010
0010
,
0100
0100
0010
0010
,
0100
0010
1000
0001
,
1000
0000
0000
0000
,
0001
0000
0000
0000
,
0010
0000
0000
0000
,
0100
0000
0010
0000
,
0001
0000
0000
0000
,
1000
0000
0000
0000
,
0010
0000
0100
0000
,
0001
0000
1000
0000
,
0001
0001
1000
1000
,
0001
0100
0010
1000
,
2002
0000
0000
0000
,
0000
0000
0000
0000
,
3003
0000
0000
0000
;

//---------------dance-single - ----------------
#NOTES:
     dance-single:
     :
     Easy:
     11:
     0.420880,0.668335,0.371297,0.387440,0.000000,365.000000,319.000000,46.000000,48.000000,0.000000,0.000000,0.420880,0.668335,0.371297,0.387440,0.000000,365.000000,319.000000,46.000000,48.000000,0.000000,0.000000:
0000
0000
0000
0000
,
0000
0000
0000
0000
,
0000
0000
0000
0000
,
0000
0000
0000
0000
,
0000
0000
0000
0000
,
0000
0000
0000
0000
,
0000
0000
0000
0000
,
0000
0000
0000
0000
1000
0000
0100
0020
,
0000
0000
0000
0000
,
0000
0130
1000
0010
,
0100
0000
0000
0002
0000
0000
0000
0000
,
0000
0000
0000
0000
1003
0001
0000
0200
,
0000
0000
0000
0000
,
0000
0310
0100
0000
0010
0000
1000
0000
,
0001
0010
0100
0010
0000
0001
0001
0001
,
1000
0100
0010
0001
0010
0100
1001
0000
,
1000
0000
1100
0000
0000
1000
0010
0000
,
0100
0000
0001
0010
0000
0010
0200
0000
,
1300
0000
1001
0000
0000
0001
0100
0000
,
0001
0000
0010
0100
0000
0010
0001
0100
,
0010
0000
1010
0000
0000
1000
0001
0000
,
0010
0000
0100
0010
0000
0100
1000
0010
,
0100
0020
2030
3002
,
0023
0000
0230
0000
0320
0000
0100
0130
,
0010
0000
0100
2000
0000
3020
0000
0000
,
0130
0000
0010
2000
0000
3001
0020
0000
,
0130
0000
0010
0002
0000
2003
0000
0000
,
3010
0000
1000
0200
0000
0310
0100
1000
,
0010
0000
0100
0002
0000
0023
0000
0000
,
0130
0000
0010
0200
0000
0310
0001
0100
,
0010
0200
0320
2030
,
3002
2003
3200
0320
,
0031
0000
0000
2000
0000
0000
3000
0000
,
0001
0000
0000
2000
0000
0000
3000
0000
,
0001
0000
0000
2000
0000
0000
3000
0200
,
0000
0000
0000
0000
0000
0000
0000
0310
,
0100
0000
1000
0200
0000
0000
0300
0000
,
0010
0000
0001
0200
0000
0000
0300
0000
,
0010
0000
1000
0200
0000
0000
0000
0020
,
0000
0000
0330
0100
,
1001
0000
1000
0000
0001
0100
0001
0000
,
0100
0000
0010
0000
1000
0100
0010
0000
,
0100
0000
1000
0000
0001
0000
0100
0001
,
0000
0010
0100
0000
0010
0000
1001
0000
,
0001
0000
0100
0010
0000
1000
0100
0000
,
0010
0100
0000
0010
0001
0100
0010
0000
,
0100
0000
0001
0010
0000
0100
0010
0001
,
0000
1000
0010
0000
0100
0000
0001
0000
,
1001
0101
1001
0101
,
1001
0101
1001
0101
,
1001
1100
1001
1100
,
1001
1100
1001
1100
,
1001
1010
1001
1010
,
1001
1010
1001
1010
,
1001
0011
1001
0011
,
1001
0110
1001
0110
,
1001
0000
0001
0000
1000
0000
0000
0001
,
0000
0001
0000
0000
1000
0000
0001
0000
,
1000
0000
0000
0001
0001
0000
0000
0000
,
1000
0000
0000
0001
0000
0000
1000
0000
,
0001
0000
0000
1000
0000
0000
0001
0000
,
0000
0000
1000
1000
,
0001
0000
0000
1000
,
0001
0000
0000
1000
0001
0010
0100
1000
,
0010
0100
0202
0000
,
0000
0000
0000
0000
0000
0000
0303
0010
,
1000
0001
0010
0100
,
2002
0000
0000
0000
0000
3003
0000
0000
,
2000
0000
3200
0000
,
0320
0000
0032
0000
,
1003
0100
0010
0001
,
1001
0000
0000
0000
,
0001
0001
0001
0001
,
0001
0001
0100
0010
,
1000
1000
1000
1000
,
1000
1000
0100
0010
,
0100
1000
0010
0100
,
0001
0010
0100
0010
,
0001
0100
0010
1000
,
0001
0000
0010
0000
0100
1000
0100
1000
,
0100
0000
1000
0010
0000
0100
0000
0000
,
0010
0000
1000
0001
0000
0010
0100
0000
,
0010
0000
0001
0100
0000
0010
0000
0000
,
0100
0000
0010
1000
0000
0001
0010
0100
,
1000
0000
0100
1000
0000
0010
0000
0000
,
0100
0000
0010
0100
0000
0010
1000
0001
,
0010
0100
1000
0100
,
0001
0100
1000
0010
,
1010
0101
1010
0101
,
0002
0023
0230
2300
,
0002
0000
0000
0000
,
0000
0000
0000
0000
,
3003
0000
0000
0000
;

//---------------dance-single - ----------------
#NOTES:
     dance-single:
     :
     Medium:
     15:
     0.626131,0.853983,0.298652,0.460086,0.221971,543.000000,506.000000,37.000000,57.000000,0.000000,0.000000,0.626131,0.853983,0.298652,0.460086,0.221971,543.000000,506.000000,37.000000,57.000000,0.000000,0.000000:
0000
0000
0000
0000
,
0000
0000
0000
0000
,
0000
0000
0000
0000
,
0000
0000
0000
0000
,
0000
0000
0000
0000
,
0000
0000
0000
0000
,
0000
0000
0000
0000
,
0000
0000
0000
0000
0001
0100
0001
0020
,
0000
0000
0000
0000
,
0030
0100
1000
1000
0100
1000
0010
1000
,
0002
0000
0000
2000
0000
0000
0000
0000
,
0000
0000
3003
0000
1000
0001
0000
0200
,
0000
0000
0000
0000
,
0300
0010
1000
1000
0001
0010
0100
0010
,
0001
0001
1000
0020
0000
1030
1000
1000
,
0001
0010
1000
0010
0001
0100
1001
0000
,
1000
0001
0010
0100
0000
2100
0000
0000
,
3010
0100
0001
0020
0000
0100
0230
0000
,
1300
0100
0010
0100
0000
0021
0000
0000
,
0130
0100
0010
0001
0000
0001
0100
1000
,
0100
0010
1000
2001
0000
3100
0000
0000
,
0010
0010
0100
2000
0000
3001
0010
0100
,
0020
0000
0031
0100
0010
0001
0010
0100
,
0002
0000
0000
0000
0203
0000
0000
0000
0310
0000
1000
0000
0001
1000
0001
0000
,
1000
0100
0010
0011
0000
0201
0000
0300
,
0001
0100
0010
0210
0000
0301
0021
0000
,
0130
1000
0010
1010
0000
1200
0000
0300
,
0010
0010
0100
2000
0000
3001
0010
1000
,
0010
0100
1000
1010
0000
0102
0000
0003
,
1000
1000
0001
0021
0000
0130
1000
0010
,
0200
0000
0310
0100
0010
1000
0100
1000
,
0200
0000
0320
0000
0130
0010
0001
1000
,
1001
0000
0000
0202
0000
0000
0303
0000
,
1000
0000
0000
0202
0000
0000
0303
0000
,
1000
0000
0000
0202
0000
0000
0300
0020
,
0000
0000
0000
0000
0000
0000
0000
0000
0000
0000
0000
0000
0033
0000
0100
0010
,
0100
0000
1000
0000
0010
0000
0100
0001
0000
1000
0100
0000
0010
0000
0000
0000
,
0100
0000
1000
0000
0010
0000
0100
0010
0000
1000
0001
0000
0010
0000
0010
0000
,
0100
0000
0010
0000
0001
0000
0100
0010
0000
0100
0001
0000
1000
0000
0200
0000
,
0000
0000
0000
0000
0000
0000
0310
0100
,
1100
0000
0000
0100
0010
0000
0000
0010
0001
0000
0100
0000
0010
0000
0000
0100
,
0010
0000
0000
0010
1000
0000
0000
1000
0001
0000
0010
0000
0200
0000
0000
0000
,
1300
1000
0001
0100
0010
0010
1000
0200
,
0000
0310
0001
0100
0010
0001
0010
1000
,
0001
0000
1000
0001
1000
0000
0001
0000
1000
0001
1000
0000
0001
0000
1000
0001
,
1000
0000
0000
0001
0100
0000
0010
0000
1000
0000
0100
0000
0020
0000
0000
0000
,
0130
0000
0010
0100
0010
0000
0100
0000
0010
0100
0010
0000
0100
1000
0002
0000
,
0000
0103
0001
0100
0010
0001
0010
1000
,
0001
0000
0000
1000
0001
0000
0000
0001
1000
0000
0000
1000
0010
0000
0100
0000
,
0001
0000
0000
0010
0100
0000
0000
0100
0010
0000
0000
0010
0100
0000
1000
0000
,
0010
0000
0000
1000
0001
0000
0000
0001
1000
0000
0000
1000
0001
0000
0010
0000
,
0100
0000
0000
0010
0100
0000
0000
0100
0010
0000
0000
0010
0100
0000
1000
0000
,
0010
1000
0001
1000
0010
1000
0001
0010
,
0100
1000
0001
0100
0010
0100
0001
0010
,
0001
1000
0100
0010
0001
0010
0100
1000
,
1001
0000
0000
0001
0100
0000
0000
0010
1000
0000
1000
0000
0001
0000
0001
0000
,
0110
0000
1000
0000
0001
0000
0000
1000
,
0000
1000
0000
0000
0001
0000
1000
0000
,
0001
0000
0000
0100
0100
0000
0000
0000
,
0010
0000
0000
1000
0000
0000
0100
0000
,
0001
0000
0000
0100
0000
0000
1000
0000
,
0000
0000
1100
0101
,
1100
0000
0000
1000
,
1001
0000
0000
0110
1000
0100
0010
0001
,
1000
0001
0100
0001
0020
0000
0000
0000
,
0000
0000
0000
0000
0000
0000
0000
0130
,
1000
1000
0001
0001
0100
0100
0010
0010
,
4000
0004
0000
0000
0000
0000
0000
0000
0000
0000
3003
0000
0000
0000
0000
0000
,
2000
0000
3020
0000
,
0032
0000
0203
0000
,
1300
0001
1000
1000
0001
1000
0001
0001
,
1001
0000
1000
0000
0100
0000
0010
0001
0100
0000
0010
0000
1001
0000
0000
0000
,
1000
0100
1000
0100
1000
0100
1000
0100
,
1000
0100
1000
0100
1000
0100
0010
0001
,
0100
0010
0100
0010
0100
0010
0100
0010
,
0100
0010
0100
0010
0100
0010
1000
0001
,
0010
0010
0001
0100
0010
0010
0100
0010
,
1000
0100
0010
1000
0010
0100
1000
0010
,
0100
1000
0100
0001
0100
0001
0010
0100
,
0001
0000
0100
0000
1000
0000
0010
0000
0100
0010
0100
0010
0100
0010
0100
0000
,
0001
0100
0010
1010
0000
0202
0000
0303
,
0001
0010
0100
2100
0000
3010
0120
0000
,
1030
0001
0010
0110
0000
2200
0000
3300
,
1000
0100
0010
0120
0000
0031
0010
1000
,
0010
0001
0100
0110
0000
0202
0000
0303
,
0001
0100
0001
2001
0000
3001
0010
0100
,
0020
0000
0000
0000
0032
0000
0000
0000
0103
0010
0100
0010
0100
0010
0100
0010
,
0200
0000
0000
0000
0320
0000
0000
0000
1030
0001
1000
0001
1000
0001
1000
0001
,
1000
0000
0000
0100
0010
0000
0000
0010
0001
0000
0000
0010
0100
0000
0000
0100
,
1000
0000
1000
0000
0010
0000
0010
0000
0100
0010
1000
0001
0100
0010
1000
0002
,
2000
0000
0000
0000
,
0000
0000
0000
0000
,
3003
0000
0000
0000
;

//---------------dance-single - ----------------
#NOTES:
     dance-single:
     :
     Hard:
     17:
     0.807168,1.225281,0.395512,0.468157,0.678021,700.000000,651.000000,49.000000,58.000000,0.000000,0.000000,0.807168,1.225281,0.395512,0.468157,0.678021,700.000000,651.000000,49.000000,58.000000,0.000000,0.000000:
0000
0000
0000
0000
,
0000
0000
0000
0000
,
0000
0000
0000
0000
,
0000
0000
0000
0000
,
0000
0000
0000
0000
,
0000
0000
0000
0000
,
0000
0000
0000
0000
,
0000
0000
0000
0000
1000
0100
1000
0020
,
0000
0000
0000
0000
,
0030
0100
0001
0010
0001
1000
0001
0010
,
0200
0000
0000
2000
0000
0000
0000
0000
,
0000
0000
0000
3300
0100
0020
0000
0002
,
0000
0000
0000
0000
,
0033
0010
1000
0010
0001
0100
0001
1000
,
0100
0001
0100
2000
0000
0010
0010
3010
,
0100
0001
1000
0010
0001
0010
1000
0100
,
1001
0000
0001
0000
1000
0000
0010
1000
0000
0100
0010
0000
0011
0000
0001
0000
,
1000
0000
0001
0000
0010
0000
0100
0010
0000
0100
1000
0000
0200
0000
0000
0000
,
0310
0000
0001
0000
0101
0000
0001
0010
0000
0001
1000
0000
1001
0000
0001
0000
,
1000
0000
0010
0000
0110
0000
0100
0001
0000
0010
0100
0000
0010
0000
0001
0000
,
1000
0000
0010
0000
0110
0000
0100
0001
0000
0010
0100
0000
1000
0000
0100
0000
,
1000
0000
0001
0000
0101
0000
0001
0010
0000
0100
0010
0000
0001
0000
1000
0000
,
0020
0000
0000
0000
0130
0001
0100
0000
0010
1000
0010
0000
1000
0001
1000
0000
,
0200
0000
0000
0000
0320
0000
0000
0000
0031
0000
1000
0000
0002
0203
0320
0000
,
0130
0001
0010
0021
0000
0200
0000
0330
,
0110
0010
0001
2001
0000
3001
0201
0000
,
0301
0010
0100
2100
0000
0020
0000
3030
,
1010
0010
0100
0102
0000
0013
1000
0010
,
0011
0010
0100
2100
0000
0002
0000
3003
,
0101
0100
0010
2000
0000
3001
0010
1000
,
0010
0000
0000
0000
0100
0010
0001
0000
0010
0100
1000
0000
0100
0010
0001
0000
,
2001
3002
0203
0320
,
1030
0000
0000
0022
0000
0000
0033
0000
,
1000
0000
0000
0022
0000
0000
0033
0000
,
1000
0000
0000
0022
0000
0000
0003
0200
,
0000
0000
0000
0000
0000
0000
0000
0000
0000
0000
0330
0000
0000
0000
0200
2300
,
3001
0000
0100
0000
0010
0000
1000
0001
0000
0010
0100
0000
1000
0000
0000
0000
,
0100
0000
1000
0000
0010
0000
1000
0010
0000
0100
0010
0000
1000
0000
0000
0000
,
0001
0000
0010
0000
0100
0000
0010
0001
0000
0100
0010
0000
1000
0000
1200
0000
,
1000
0000
0000
0000
0010
0000
0000
0000
1300
0000
0000
0000
0010
0100
0001
1000
,
0100
0000
0000
0100
0010
0000
0000
0010
0001
0000
0100
0000
0010
0000
1000
0001
,
0010
0000
0000
0100
0010
0000
0000
0010
0100
1000
0010
0100
0002
0000
0000
0013
,
0100
1000
0010
0000
0100
0001
0010
0000
0100
0010
0100
0010
0001
0100
0020
0000
,
0000
0000
0130
0000
0001
0000
1000
0000
0001
0010
0100
1000
0001
0100
0010
1000
,
0001
0000
1000
0001
1000
0000
0001
0000
1000
0001
1000
0000
0001
0000
1000
0001
,
1000
0000
0000
0100
1000
0010
0100
0001
0010
0100
0010
0001
1000
0000
0000
0100
,
1000
0001
1000
0000
0001
0000
1000
0001
1000
0000
0001
0000
1000
0001
0200
0000
,
0000
0000
0310
1000
0100
0000
0010
0001
1000
0000
0001
0100
0010
0000
1000
0000
,
0001
0000
0000
1000
0100
0000
0000
0100
0010
0000
0000
0010
0001
0000
0100
0000
,
0010
0000
0000
0100
0001
0000
0000
1000
0010
0000
0000
0100
0010
0000
1000
0000
,
0001
0000
0000
0001
0010
0000
0000
0010
0100
0000
0000
0100
1000
0000
0001
0000
,
0100
0000
0000
0001
0010
0000
0000
0100
1000
0000
0000
0100
0010
0000
0100
0000
,
1000
0000
0001
0100
0001
0000
0100
0010
0100
0000
0010
1000
0010
0000
1000
0000
,
0100
0000
0010
0001
0010
0000
0001
0100
0001
0000
1000
0010
1000
0000
0100
0000
,
0010
0000
0100
0010
0001
0100
0010
1000
0001
0010
0001
1000
0100
0000
0010
0000
,
0100
0000
1000
0010
0100
0000
0010
1000
0001
0000
0010
0001
0100
0010
1000
0100
,
0000
0000
0011
0000
1100
0000
0000
0011
,
0000
0011
0000
0000
0101
0000
1010
0000
,
0101
0000
0000
1000
1000
0000
0000
0000
,
0011
0000
0000
1010
0000
0000
0101
0000
,
1001
0000
0000
1100
0000
0000
0101
0000
,
0000
0000
0101
0011
,
0101
0000
0000
1001
,
1100
0000
0000
1000
0001
0010
1000
0010
,
0001
0001
0010
0001
0200
0000
0000
0000
,
0000
0000
0000
0000
0000
0000
0000
0000
0000
0000
0000
0000
0300
0000
0001
1000
,
0010
1000
0001
0010
0100
1000
0100
0010
,
0004
4000
0000
0000
0000
0000
0000
0000
0000
0000
0000
0000
3003
0000
0000
0000
,
1200
0000
0000
0310
0001
0000
0100
0000
0120
0000
0000
0130
0001
0000
1000
0000
,
1200
0000
0000
0310
0001
0000
1000
0000
1020
0000
0000
0130
0010
0000
1000
0000
,
0100
0010
0001
0010
0100
1000
0010
0100
,
0001
0000
1000
0000
1010
0000
1000
0001
0010
0000
0100
0000
0011
0000
0000
0000
,
1000
0100
1000
0000
0001
0100
0001
0000
1000
0100
1000
0000
0001
0100
0001
0000
,
1000
0100
1000
0000
0001
0100
0001
0000
1000
0100
0010
0001
1000
0100
0010
0001
,
1000
0010
1000
0000
0001
0010
0001
0000
1000
0010
1000
0000
0001
0010
0001
0000
,
1000
0010
1000
0000
0001
0010
0001
0000
1000
0100
0010
0001
0010
0100
0010
0001
,
1000
0100
0010
0001
1000
0100
0010
0001
0010
0100
0010
0001
1000
0100
0010
0100
,
1000
0001
1000
0001
0100
0010
0100
0010
1000
0001
0100
0010
1000
0001
0100
0010
,
1000
0100
1000
0100
0010
0100
0010
0100
0010
0001
0010
0001
0100
0001
0100
0001
,
0010
0100
0010
0100
0010
0100
0010
0100
2000
3002
2003
3002
2003
3200
0320
0000
,
0130
0100
1000
0100
0100
1000
0100
0100
,
1000
0100
0100
1000
0100
0100
0100
0000
,
0010
0010
0001
0010
0010
0001
0010
0010
,
0001
0010
0010
0001
0010
0100
1000
0001
,
0010
0001
0100
0000
0010
1000
0001
0000
0010
0100
0010
0000
0100
1000
0001
0000
,
0100
0010
1000
0000
0001
0010
0100
0000
1000
0100
1000
0000
0001
0100
0010
0000
,
2000
0000
0000
0000
3100
1000
0010
0100
0010
1000
0001
0010
0100
0010
0001
0100
,
0020
2030
3200
0320
,
0031
0000
0001
0100
0010
0000
0100
0001
1000
0000
0100
0010
0001
0000
0010
0100
,
1000
0000
1100
0000
0011
0000
0101
0000
0100
0010
1000
0001
0100
0010
1000
0001
,
0020
0000
0000
0000
,
0000
0000
0000
0000
,
0030
0000
0000
0000
;

//---------------dance-single - ----------------
#NOTES:
     dance-single:
     :
     Challenge:
     18:
     0.970907,1.262410,0.734523,0.516587,0.972637,842.000000,751.000000,91.000000,64.000000,0.000000,0.000000,0.970907,1.262410,0.734523,0.516587,0.972637,842.000000,751.000000,91.000000,64.000000,0.000000,0.000000:
// measure 0
0000
0000
0000
0000
,  // measure 1
0000
0000
0000
0000
,  // measure 2
0000
0000
0000
0000
,  // measure 3
0000
0000
0000
0000
,  // measure 4
0000
0000
0000
0000
,  // measure 5
0000
0000
0000
0000
,  // measure 6
0000
0000
0000
0000
,  // measure 7
0000
0000
0000
0000
1000
0100
0010
0100
,  // measure 8
2000
0010
0001
3010
,  // measure 9
1000
0010
0100
0010
1000
0001
0010
0100
,  // measure 10
2000
0000
3010
0200
0001
0000
0001
0000
,  // measure 11
0010
0000
0310
0000
0100
0002
0000
0013
,  // measure 12
0200
1000
0010
1300
,  // measure 13
0100
1000
0100
0100
1000
0100
0010
0001
,  // measure 14
1000
0001
1000
0001
1000
0001
1000
0001
1000
0001
1000
0001
1000
0001
1000
0001
,  // measure 15
1000
0000
0011
0000
1100
0000
0001
0010
0100
0000
0010
0000
1001
0000
0000
0000
,  // measure 16
1000
0000
0010
0000
0101
0000
0001
0010
0000
0100
2000
0000
0000
0000
3010
0000
,  // measure 17
1000
0000
0001
0000
1001
0000
1000
0010
0000
0100
0010
0000
2000
0000
0000
0000
,  // measure 18
3100
0000
0010
0000
0011
0000
0010
0001
0000
1000
0020
0000
0000
0000
0130
0000
,  // measure 19
0001
0000
1000
0000
1010
0000
1000
0001
0000
0010
0100
0000
0010
0001
1000
0000
,  // measure 20
0010
0000
0100
0000
0110
0000
0100
0001
0000
0010
0200
0000
0000
0000
1300
0000
,  // measure 21
0001
0000
1000
0000
1100
0000
0100
0010
0000
0100
1000
0000
0010
0000
0100
0000
,  // measure 22
0001
0000
0000
0000
1000
0010
1000
0001
1000
0100
1000
0001
1000
0010
1000
0001
,  // measure 23
0010
0000
0000
0000
0100
0010
0001
0100
0010
1000
0001
1000
0200
2300
3020
0000
,  // measure 24
0130
0001
0010
0210
0000
2000
0000
3300
,  // measure 25
1100
0010
0021
0230
0000
1300
1020
0000
,  // measure 26
0130
0001
0010
0120
0000
2000
0000
3030
,  // measure 27
1001
0100
1200
0320
0000
0031
0010
0100
,  // measure 28
1100
0100
0010
0012
0000
0023
0000
0030
,  // measure 29
0210
1300
0010
0210
0000
0310
0100
0001
,  // measure 30
2000
0000
0000
0000
3001
0010
0001
0100
0001
1000
0001
0010
0001
1000
0001
0100
,  // measure 31
0002
0000
0000
0000
2003
0000
0000
0000
3100
0010
0001
1000
0100
0010
0001
1000
,  // measure 32
0020
0000
0000
0200
0000
0000
0330
0000
,  // measure 33
0020
0000
0000
0200
0000
0000
0330
0000
,  // measure 34
0020
0000
0000
0200
0000
0000
0030
0002
,  // measure 35
0000
0000
0000
0000
0000
0000
0000
0000
0000
0000
0000
0000
0000
0000
0000
0000
0000
0000
0000
0000
0000
0000
0000
0000
0000
0000
0000
0000
0000
0000
0000
0000
0000
0000
0000
0000
0000
0000
0000
0000
0000
0000
0000
0000
0000
0000
0000
0000
0000
0000
0000
0000
0000
0000
0000
0000
0000
0000
0000
0000
0000
0000
0000
0000
0000
0000
0000
0000
0000
0000
0000
0000
0000
0000
0000
0000
0000
0000
0000
0000
0000
0000
0000
0000
0000
0000
0000
0000
0000
0000
0000
0000
0000
0000
0000
0000
0000
0000
0000
0000
0000
0000
0000
0000
0000
0000
0000
0000
0000
0000
0000
0000
0000
0000
0000
0000
0000
0000
0000
0000
0000
0000
0000
0000
0000
0000
0000
0000
0000
0000
0000
0000
0000
0000
0000
0000
0000
0000
0000
0000
0000
0000
0000
0000
0303
0000
0000
0000
0000
0000
0000
0000
0000
0000
0000
0000
0000
0000
0000
0000
0000
0000
0000
0000
0000
0000
0000
0000
2000
0000
0000
0000
0000
0000
0000
0000
3000
0000
0000
0000
0002
0000
0000
0000
0000
0000
0003
0000
0000
0000
0000
0000
,  // measure 36
2000
3000
0100
0000
0011
0000
0010
0100
0000
1000
0010
0000
0110
0000
0000
0000
,  // measure 37
0100
0000
0001
0000
0011
0000
0010
0001
0000
1000
0100
0000
0010
0000
0100
1000
,  // measure 38
0010
0000
0100
0000
0001
0000
0010
0100
0000
1000
0010
0000
1010
0000
0020
0000
,  // measure 39
1000
0000
0000
0000
0130
0000
0010
1000
0000
0100
1000
0000
0010
0100
0001
1000
,  // measure 40
0100
0000
0010
0100
1000
0000
0100
0010
0001
1000
0010
0100
0001
0000
1000
0010
,  // measure 41
0100
0000
0001
0010
0100
1000
0010
0100
0001
0010
0001
1000
0100
0000
0000
0010
,  // measure 42
0100
1000
0010
0100
0001
0010
0001
0100
0010
1000
0100
0010
0100
1000
0002
0000
,  // measure 43
0000
0000
0103
0001
1000
0001
0100
0001
1000
0001
0010
0100
1000
0100
0010
0100
,  // measure 44
1000
0100
0010
0001
2000
0000
3001
0010
0100
1000
0002
0000
1003
0100
0010
0001
,  // measure 45
2000
0000
3001
0010
0100
1000
0001
0010
0100
1000
0100
0010
0002
0000
0000
1003
,  // measure 46
0001
0100
0010
1000
0002
0000
0103
0010
1000
0001
2000
0000
3100
0010
0100
2000
,  // measure 47
0000
0000
3100
0010
0100
1000
0010
0100
0001
0010
0100
1000
0001
0000
1000
0000
,  // measure 48
1001
0001
1001
1000
1001
0001
1001
1000
,  // measure 49
1100
0100
0110
0010
0011
0001
0101
0000
,  // measure 50
1001
1000
1001
0001
1001
1000
1001
0001
,  // measure 51
0011
0010
0110
0100
1100
1000
1010
0000
,  // measure 52
1010
0010
0110
0100
0101
0001
0011
0010
,  // measure 53
0110
0100
1100
1000
1001
0001
0101
1000
,  // measure 54
1001
0010
1001
0100
1001
0010
1001
0100
,  // measure 55
0101
0000
1000
0001
1001
0000
0001
1000
1001
0000
1000
0010
0110
0000
0101
0000
,  // measure 56
1001
0000
0001
0000
0100
0000
0000
1000
,  // measure 57
0000
0010
0000
0000
0001
0000
1000
0000
,  // measure 58
1001
0000
0000
0010
0010
0000
0000
0000
,  // measure 59
1001
0000
0000
0101
0000
0000
1001
0000
,  // measure 60
1000
0000
0000
0100
0000
0000
0001
0000
,  // measure 61
0000
0000
0010
1000
,  // measure 62
1001
0000
0000
0101
,  // measure 63
1010
0000
0000
1000
0200
0302
0203
2300
,  // measure 64
3010
0001
0010
1000
0002
0000
0000
0000
,  // measure 65
0000
0000
0000
0000
0000
0000
0000
0000
0000
0000
0000
0000
0003
0000
0010
0001
,  // measure 66
0100
0010
1000
0001
0010
0001
1000
0100
0010
0001
0010
0100
1000
0100
0010
0001
,  // measure 67
0100
0000
0000
0000
0000
0000
0000
0000
0000
0000
0010
0000
0000
0000
0000
0000
0000
0000
0000
0100
0000
0000
0000
0000
0000
0000
0000
0000
0000
0010
0000
0000
0000
0000
0000
0000
0000
0000
0100
0000
0000
0000
0000
0000
0000
0000
0000
0000
0010
0000
0000
0000
0000
0000
0000
0000
0000
0000
0100
0000
0000
0000
0000
0000
0000
0000
0000
0010
0000
0000
0000
0000
0000
0000
0000
0000
0000
0100
0000
0000
0000
0000
0000
0000
0000
0000
0010
0000
0000
0000
0000
0000
0000
0000
0000
0000
0100
0000
0000
0000
0000
0000
0000
0000
0000
0000
0010
0000
0000
0000
0000
0000
0000
0000
0000
0100
0000
0000
0000
0000
0000
0000
0000
0000
0000
0010
0000
0000
0000
0000
0000
0000
0000
0000
0100
0000
0000
0000
0000
0000
0000
0000
0000
0000
0010
0000
0000
0000
0000
0000
0000
0000
0000
0000
0000
0000
0000
0000
0000
0000
0000
0000
0000
0000
0000
0000
0000
0000
0000
0000
0000
0000
0000
0000
0000
0000
0000
0000
0000
0000
0000
0000
0000
0000
0000
0000
0000
0000
0000
0000
0000
0000
,  // measure 68
4000
0000
3400
0000
,  // measure 69
0340
0000
0034
0000
,  // measure 70
1003
0100
0010
0001
1000
0010
1000
0001
0010
0100
1000
0010
1000
0001
0010
0001
,  // measure 71
1000
0000
0001
0000
0101
0000
0001
0100
0010
0000
1010
0000
1001
0000
0000
0000
,  // measure 72
1000
0010
0100
0001
1000
0010
0100
0001
1000
0010
0100
0001
1000
0010
0100
0001
,  // measure 73
1000
0010
0100
0001
1000
0010
0100
0001
1000
0100
0010
0100
1000
0001
0010
0100
,  // measure 74
1000
0001
0100
0010
1000
0001
0100
0010
1000
0001
0100
0010
1000
0001
0100
0010
,  // measure 75
1000
0001
0100
0010
1000
0001
0100
0010
1000
0100
0010
0100
1000
0001
0010
0100
,  // measure 76
1000
0001
0100
0010
1000
0001
0010
0100
1000
0100
0010
0100
1000
0001
0010
0100
,  // measure 77
1000
0100
1000
0001
0100
0001
0010
0001
1000
0010
1000
0001
0010
0100
1000
0001
,  // measure 78
0100
0001
0100
0001
1000
0010
1000
0010
1000
0001
1000
0001
0010
0100
0010
0100
,  // measure 79
1000
0100
1000
0010
0100
0001
0100
0010
2000
3002
2003
3200
0320
0032
0023
0031
,  // measure 80
0101
0101
0100
0101
0101
0001
0101
0101
,  // measure 81
0100
0101
0101
0001
0100
0010
1000
0000
,  // measure 82
0110
0110
0100
0110
0110
0010
0110
0110
,  // measure 83
0010
0000
0110
0000
1010
0000
1000
0000
0001
0010
0100
0010
0001
0010
0100
1000
,  // measure 84
0001
0100
0010
1000
0001
0010
0100
0010
0001
0100
0010
1000
0100
0010
0100
1000
,  // measure 85
0010
0100
0001
0010
0100
0010
0001
0100
0010
1000
0100
0010
0001
0010
0100
1000
,  // measure 86
0020
0000
0000
0000
1030
0100
0010
0001
1000
0100
0010
0100
1000
0001
0100
0010
,  // measure 87
0200
0000
0000
0000
0320
0000
0000
0000
1030
0001
0010
0100
1000
0001
1000
0001
,  // measure 88
1000
0000
0001
0100
0101
0000
1000
0010
1010
0000
1000
0100
1100
0000
0001
0100
,  // measure 89
0101
0000
0101
0000
1010
0000
1010
0000
1000
0100
0001
0100
1000
0010
0001
0020
,  // measure 90
0200
0000
0000
0000
,  // measure 91
0000
0000
0000
0000
,  // measure 92
0330
0000
0000
0000
;
