#TITLE:the shadow;
#SUBTITLE:;
#ARTIST:kors k;
#MUSIC:the shadow.ogg;
#BANNER:;
#BACKGROUND:the shadow-bg.png;
#LYRICSPATH:;
#CDTITLE:;
#SAMPLESTART:101.940;
#SAMPLELENGTH:13.518;
#OFFSET:1.105;
#BPMS:0.000000=156.000000;
#STOPS:;
#TIMESIGNATURES:;
#BGCHANGES:;
#FGCHANGES:;
#ATTACKS:;
#SPEEDS:;
#SCROLLS:;

//---------------dance-single - Pandemonium X---------------
#NOTES:
     dance-single:
     Pandemonium X:
     Beginner:
     6:
     0,0,0,0,0:
// measure 0
0000
0000
0000
0000
,  // measure 1
0000
0000
0000
0000
,  // measure 2
0000
0000
0000
0000
,  // measure 3
0000
0000
0000
0000
,  // measure 4
0000
0000
0000
0000
,  // measure 5
1001
0000
0000
0000
,  // measure 6
0000
0000
0000
0000
,  // measure 7
0000
0000
0000
0000
,  // measure 8
0001
0001
1000
1000
,  // measure 9
0001
0200
0000
0000
,  // measure 10
0000
0000
0000
0300
,  // measure 11
0010
0000
0010
0000
,  // measure 12
1000
1000
1000
1001
,  // measure 13
0001
0020
0000
0000
,  // measure 14
0000
0000
0030
0100
,  // measure 15
1000
0000
0001
0000
,  // measure 16
0110
0000
0000
0000
,  // measure 17
1000
0020
0000
0000
,  // measure 18
0000
0000
0030
0100
,  // measure 19
0001
0000
1000
0000
,  // measure 20
0001
0001
0001
1001
,  // measure 21
1000
0200
0000
0000
,  // measure 22
0310
0010
0001
0001
,  // measure 23
1000
0000
0001
0000
,  // measure 24
0110
0000
0000
0000
,  // measure 25
1001
0000
0000
0000
,  // measure 26
0100
0000
0000
0000
,  // measure 27
1001
0000
0000
0000
,  // measure 28
0010
0000
0000
0000
,  // measure 29
1001
0000
0001
0000
,  // measure 30
1001
0000
1000
0000
,  // measure 31
1001
0001
1001
1000
,  // measure 32
1001
0110
1001
0000
,  // measure 33
0001
0001
0001
0000
,  // measure 34
1000
1000
1000
0000
,  // measure 35
0010
0010
0100
0100
,  // measure 36
0001
1000
0001
0110
,  // measure 37
1000
1000
0001
0001
,  // measure 38
0010
0010
0100
0100
,  // measure 39
1000
1000
0100
0100
,  // measure 40
0010
0000
0000
0000
,  // measure 41
0100
0000
1000
0000
,  // measure 42
0010
0000
0100
0100
,  // measure 43
0001
0000
0001
0000
,  // measure 44
1000
1000
1000
1001
,  // measure 45
0001
0000
1000
0000
,  // measure 46
0010
0000
0100
0000
,  // measure 47
0001
0000
1000
0000
,  // measure 48
0020
0000
0000
0030
,  // measure 49
0110
0000
0000
0000
,  // measure 50
0000
0000
0000
0000
,  // measure 51
0000
0000
0000
0000
,  // measure 52
0000
0000
0000
0000
,  // measure 53
0000
0000
0000
0000
,  // measure 54
0000
0000
0000
0000
,  // measure 55
0000
0000
0000
0000
,  // measure 56
0000
0000
0000
0000
,  // measure 57
0000
0001
0000
0000
,  // measure 58
0000
1000
0000
0000
,  // measure 59
0000
0001
0000
0000
,  // measure 60
0000
1000
0000
0000
,  // measure 61
0000
0001
0000
1000
,  // measure 62
0000
0001
0000
1000
,  // measure 63
0001
1000
0001
1000
,  // measure 64
0001
0001
0001
1000
,  // measure 65
1001
0000
0110
0000
0000
1001
0000
0000
,  // measure 66
0110
0000
0000
0000
,  // measure 67
1000
1000
0000
0001
,  // measure 68
1000
0001
0000
0010
,  // measure 69
0100
0010
0000
0100
,  // measure 70
1000
0100
0010
0001
,  // measure 71
0100
0001
0000
0100
,  // measure 72
0010
0100
0000
0010
,  // measure 73
1000
1000
0001
0001
,  // measure 74
0100
0000
0010
0200
,  // measure 75
0301
1000
0100
0000
,  // measure 76
1000
0001
0100
0000
,  // measure 77
0001
1000
0010
0000
,  // measure 78
1001
1000
0001
0001
,  // measure 79
0010
0001
1000
0000
,  // measure 80
0001
1000
0100
0000
,  // measure 81
0010
0000
0100
0000
,  // measure 82
1000
0000
0001
0000
,  // measure 83
0000
0000
0000
0000
,  // measure 84
1001
0000
0000
0000
;

//---------------dance-single - Pandemonium X---------------
#NOTES:
     dance-single:
     Pandemonium X:
     Easy:
     9:
     0,0,0,0,0:
// measure 0
0000
0000
0000
0000
,  // measure 1
0000
0000
0000
0000
,  // measure 2
0000
0000
0000
0000
,  // measure 3
0000
0000
0000
0000
,  // measure 4
0000
0000
0000
0000
,  // measure 5
1001
0000
0000
0000
,  // measure 6
0000
0000
0000
0000
,  // measure 7
0000
0000
0000
0000
,  // measure 8
0001
0000
0001
0000
0001
1000
0001
1000
,  // measure 9
0001
0010
0200
0000
0010
0000
0010
0000
,  // measure 10
0310
0100
0010
0001
,  // measure 11
0100
0010
0100
0010
,  // measure 12
1000
0001
1000
0001
1000
0001
1000
0000
,  // measure 13
0001
1000
0200
0000
0010
0000
0310
0000
,  // measure 14
0100
0000
1000
0000
0010
0000
0100
0100
,  // measure 15
0001
1000
0010
1000
,  // measure 16
1001
0001
1001
1000
,  // measure 17
0001
0100
0020
0000
0100
0000
0100
0000
,  // measure 18
0130
0010
0100
1001
,  // measure 19
1000
0001
0010
0001
,  // measure 20
0100
0010
0100
0010
0100
0010
0100
0000
,  // measure 21
0001
1000
0200
0000
0010
0000
1000
0000
,  // measure 22
0310
0001
0010
0001
1000
0100
2000
0000
,  // measure 23
3010
0100
0001
1000
,  // measure 24
0001
0010
0100
1000
,  // measure 25
1001
0000
0000
0000
0000
0000
0000
1000
,  // measure 26
1000
0000
0000
0001
0000
1000
0000
0000
,  // measure 27
1001
0000
0000
0000
0000
0000
1000
0001
,  // measure 28
0001
0000
0000
1000
0000
0001
0000
1000
,  // measure 29
1001
0000
0110
0000
,  // measure 30
1001
0000
0110
0000
,  // measure 31
1001
0110
1001
0110
,  // measure 32
1000
0001
1000
0001
1000
0001
0000
0000
,  // measure 33
0100
0001
0010
0000
,  // measure 34
0100
0010
0001
0000
,  // measure 35
0010
0100
1000
0010
,  // measure 36
0100
0001
0100
0001
0100
0001
0100
0000
,  // measure 37
0001
1000
0100
0000
0010
0000
0100
0000
,  // measure 38
1000
0100
0010
0001
,  // measure 39
0010
0100
0010
0001
,  // measure 40
2002
0000
0000
3003
,  // measure 41
1000
0010
1000
0001
,  // measure 42
0010
0000
0100
0000
1000
0100
0010
0001
,  // measure 43
1000
0001
0100
0001
,  // measure 44
0010
0100
0010
0100
0010
0100
0010
0000
,  // measure 45
0001
0010
0100
1000
,  // measure 46
0010
0100
0001
1000
,  // measure 47
0001
0100
0010
1000
,  // measure 48
0002
0023
0230
2300
,  // measure 49
3001
0000
0000
0000
,  // measure 50
0000
0000
0000
0000
,  // measure 51
0000
0000
0000
0000
,  // measure 52
0000
0000
0000
0000
0000
0000
0000
0001
,  // measure 53
0000
0000
0000
0000
0000
0000
0000
1000
,  // measure 54
0000
0000
0000
0000
0000
0000
0000
0001
,  // measure 55
0000
0000
0000
0000
0000
0000
0000
1000
,  // measure 56
0000
0000
0000
0000
,  // measure 57
0000
1001
0000
0000
,  // measure 58
0000
0110
0000
0000
,  // measure 59
0000
1001
0000
0000
,  // measure 60
0000
0110
0000
0000
,  // measure 61
0000
1001
0000
0110
,  // measure 62
0000
1001
0000
0110
,  // measure 63
1001
0110
1001
0110
,  // measure 64
0001
1000
0001
1000
0001
1000
0200
0000
,  // measure 65
0310
0100
1000
1000
0000
0010
0000
0100
,  // measure 66
0002
2003
0000
0000
,  // measure 67
3001
0100
0001
0010
,  // measure 68
0100
1000
0100
1000
,  // measure 69
0010
0100
0001
0010
,  // measure 70
0100
0010
0001
1000
,  // measure 71
1001
0001
0010
0001
,  // measure 72
0100
0010
0100
0001
,  // measure 73
1000
0100
0010
0001
,  // measure 74
0010
0000
0100
0000
0010
0001
0200
0000
,  // measure 75
0310
0000
0000
1000
0000
0000
0010
0000
1000
0000
0000
0000
0100
0000
0000
0000
,  // measure 76
0010
0000
0000
0100
0000
0000
0010
0000
0001
0000
0000
0000
1000
0000
0000
0000
,  // measure 77
0001
0000
0000
0100
0000
0000
0001
0000
0010
0000
0000
0000
0100
0000
1000
0000
,  // measure 78
0010
0000
0000
0100
0000
0000
0001
0000
1000
0000
0000
0000
0001
0000
0000
0000
,  // measure 79
1000
0000
0000
0100
0000
0000
0010
0000
0100
0000
1000
0000
0010
0000
0000
0000
,  // measure 80
0100
0000
0000
0010
0000
0000
0100
0000
0001
0000
0010
0000
0100
0000
0000
0000
,  // measure 81
0010
0000
0000
0001
0000
0000
0100
0000
0010
0000
1000
0000
0001
0000
0000
0000
,  // measure 82
0010
0000
0000
0100
0000
0000
0010
0000
0001
0000
1000
0000
0001
0000
0000
0000
,  // measure 83
0000
0000
0000
0000
,  // measure 84
0110
0000
0000
0000
;

//---------------dance-single - Pandemonium X---------------
#NOTES:
     dance-single:
     Pandemonium X:
     Medium:
     13:
     0,0,0,0,0:
// measure 0
0000
0000
0000
0000
,  // measure 1
0000
0000
0000
0000
,  // measure 2
0000
0000
0000
0000
,  // measure 3
0000
0000
0000
0000
,  // measure 4
0000
0000
0000
0000
,  // measure 5
2001
0000
0000
3001
,  // measure 6
0200
0000
0000
0320
0000
0000
2030
0000
,  // measure 7
0000
3200
0000
0000
0000
0000
0000
0000
,  // measure 8
0010
0000
0010
0000
0310
1000
0010
0001
,  // measure 9
1000
0001
1000
0001
1000
0001
1000
0001
,  // measure 10
0100
0001
0100
0001
0100
0001
0100
0001
,  // measure 11
1000
0100
1000
0100
1000
0100
1000
0100
,  // measure 12
1000
1000
0001
0001
0100
0100
0002
0000
,  // measure 13
0103
0010
1000
0010
1000
0010
1000
0010
,  // measure 14
0100
0001
0100
0001
0100
0001
1000
1000
,  // measure 15
0100
0010
0100
0010
0100
0010
0100
0010
,  // measure 16
0001
1000
0000
1000
0000
0000
0001
0000
1000
0010
1000
0000
0002
0000
0000
0000
,  // measure 17
0103
0010
0100
0010
0100
0010
0100
0010
,  // measure 18
1000
0001
1000
0001
1000
0001
1001
1000
,  // measure 19
0001
0010
0001
0010
0001
0010
0001
0010
,  // measure 20
0100
0100
1000
1000
0010
0010
0200
0000
,  // measure 21
0310
0001
0010
1000
0001
1000
0001
1000
,  // measure 22
0001
0001
1000
1000
0010
0010
0200
0302
,  // measure 23
0013
0100
0010
0100
0010
0100
0010
0100
,  // measure 24
0000
1100
1100
0000
1001
0000
0101
0000
,  // measure 25
0001
0000
0000
1001
0000
0000
0000
0000
0000
0000
0000
0000
0000
0000
1000
0001
,  // measure 26
1000
0000
0000
1001
0000
1001
0000
0000
,  // measure 27
1000
0000
0000
1001
0000
0000
0000
0000
0000
0000
0000
0000
1000
0000
0001
1000
,  // measure 28
0001
0000
0000
1001
0000
1001
0000
0001
,  // measure 29
2000
0000
0000
3001
0000
0000
0010
0000
0200
0000
0000
1300
0000
0000
0100
0000
,  // measure 30
0020
0000
0000
0031
0000
0000
0010
0000
0200
0000
0000
1300
0000
0000
0100
0000
,  // measure 31
0010
0001
0100
0010
1000
0001
0010
0100
,  // measure 32
1000
0000
0001
0000
0100
0000
0010
0000
1000
0001
1000
0001
1000
0000
0000
0000
,  // measure 33
0001
0100
0001
0010
0100
0010
0000
0100
,  // measure 34
0010
0001
0100
0010
0100
0010
0000
0100
,  // measure 35
0001
0010
0100
1000
0100
0010
0100
1000
,  // measure 36
0001
0001
1000
1000
0010
0010
0200
0000
,  // measure 37
0301
0100
1000
0100
0010
1000
0001
0010
,  // measure 38
1000
0010
0001
0010
0100
1000
0100
0010
,  // measure 39
0100
1000
0001
0100
1000
0100
0001
1000
,  // measure 40
0100
0000
0010
0001
0000
0010
0100
0000
2000
0000
0001
0000
3002
0000
0000
0000
,  // measure 41
0103
0001
0010
0000
0100
1000
0010
0000
,  // measure 42
0100
0001
0010
0000
0100
0100
0010
0010
,  // measure 43
0100
1000
0010
0000
0100
0001
1000
0000
,  // measure 44
0001
0001
1000
1000
0100
0010
0021
0000
,  // measure 45
0130
0000
0010
0000
0001
0000
0100
0000
0010
0000
1000
0000
0001
0000
0010
0200
,  // measure 46
0000
0000
1300
0000
0001
0100
0000
0010
1000
0000
0100
0000
0010
0000
0001
0000
,  // measure 47
1000
0001
0000
0100
0000
0001
0000
0010
0000
0001
0000
1000
0100
0000
0010
0000
,  // measure 48
0002
0023
0230
2300
,  // measure 49
3001
0000
0000
0000
,  // measure 50
0000
0000
0000
0000
,  // measure 51
0000
0000
0000
0000
,  // measure 52
0000
0000
0000
0000
0000
0000
0000
0001
,  // measure 53
0000
0001
0000
0000
0001
0000
0000
0000
0000
0000
1000
0000
0000
0000
0001
0000
,  // measure 54
0000
0001
0000
0000
0001
0000
0000
0000
0000
1000
0000
1000
0001
0000
1000
0000
,  // measure 55
0000
1000
0000
0000
1000
0000
0000
0000
0000
0000
0001
0000
0000
0000
1000
0000
,  // measure 56
1000
0000
0001
0000
1000
0000
0001
0000
1000
0001
0000
0001
1000
0000
0020
0000
,  // measure 57
0130
0001
1001
0000
1000
0000
0001
2000
,  // measure 58
3100
0000
0011
0000
0010
0000
0100
0020
,  // measure 59
0031
0000
1001
0000
1000
0000
0001
2000
,  // measure 60
3100
0000
0011
0000
0010
0000
0100
0020
,  // measure 61
0031
0000
1001
0000
1000
0001
1001
0000
,  // measure 62
0001
1000
1001
0000
1000
0001
1001
0000
,  // measure 63
0110
1001
0110
1001
,  // measure 64
0110
0001
1000
0001
1000
0001
0020
0230
,  // measure 65
1300
0000
0010
0000
0100
0000
0001
0000
0000
0101
0000
0000
0000
0000
0000
1010
0000
0000
0000
0000
0000
1001
0000
0000
,  // measure 66
2000
0002
0000
3000
,  // measure 67
0013
0100
0010
0000
0001
0000
0100
0000
0010
0000
1000
0000
0001
0000
0010
0000
,  // measure 68
0100
1000
0100
0000
1000
0000
0010
0000
0100
0000
0001
0000
0010
0000
0100
0000
,  // measure 69
0010
0001
0010
0000
0001
0000
0100
0000
0001
0000
1000
0000
0100
0000
0010
0000
,  // measure 70
0100
0010
0100
0000
0010
0000
0001
0000
0100
0000
0010
0100
0000
0100
0001
0000
,  // measure 71
1000
0010
1000
0000
0010
0000
0100
0000
0001
0000
0010
0000
0100
0000
0010
0000
,  // measure 72
0001
0010
0001
0000
0010
0000
0001
0000
0100
0000
0010
0000
1000
0000
0001
0000
,  // measure 73
1000
0100
1000
0000
0001
0000
0100
0000
0001
1000
0001
1000
0001
1000
0001
1000
,  // measure 74
0100
0001
0100
1000
0010
0100
0201
0000
,  // measure 75
0310
0000
0000
1000
0000
0000
0100
0000
0110
0000
0000
0000
0010
0000
0001
0000
,  // measure 76
0100
0000
0000
0010
0000
0000
1000
0000
1010
0000
0000
0000
0010
0000
0100
0000
,  // measure 77
0001
0000
0000
0010
0000
0000
0001
0000
0011
0000
0000
0000
0010
0000
0110
0000
,  // measure 78
0100
0000
0000
1000
0000
0000
0010
0000
0110
0000
0000
0000
1001
0000
0000
0000
,  // measure 79
0001
0100
0010
1000
0001
0010
0100
0010
,  // measure 80
0000
0000
0001
0000
0000
0000
0010
0000
0100
0000
0000
0100
1000
0000
0000
1000
,  // measure 81
0010
0000
0000
0010
0100
0000
0000
0100
0001
0000
0000
0001
1000
0000
0000
1000
,  // measure 82
0200
0000
0000
0000
0000
0000
0000
0310
,  // measure 83
0100
0000
0000
1000
0000
0000
0010
0000
0100
0000
0001
0000
1000
0000
0000
0000
,  // measure 84
0110
0000
0000
0000
;

//---------------dance-single - Pandemonium X---------------
#NOTES:
     dance-single:
     Pandemonium X:
     Hard:
     16:
     0,0,0,0,0:
// measure 0
0000
0000
0000
0000
,  // measure 1
0000
0000
0000
0000
,  // measure 2
0000
0000
0000
0000
,  // measure 3
0000
0000
0000
0000
,  // measure 4
0000
0000
0000
0000
,  // measure 5
1001
0002
0000
1003
,  // measure 6
0002
0000
0000
0010
0000
0000
0010
0000
0000
0000
0000
0000
2003
0000
0000
0000
,  // measure 7
0000
3002
0000
0000
0000
0000
0000
0000
,  // measure 8
0100
0000
0000
0000
0100
0000
0000
0000
0100
0000
0100
0000
0103
0010
0100
0001
,  // measure 9
1000
0001
1000
0001
1000
0100
1000
0100
,  // measure 10
1000
0010
1000
0010
0100
0001
0100
0001
,  // measure 11
1000
0001
1000
0001
0010
0001
0010
0001
,  // measure 12
1000
0100
1000
0100
0010
0001
0010
0001
1000
0010
0100
0001
0020
0000
0000
0000
,  // measure 13
0130
1000
0100
1000
0010
0100
0010
0100
,  // measure 14
0001
0100
0001
0100
0010
1000
0002
2003
,  // measure 15
3100
0000
0010
0000
0100
0000
0010
0000
0001
0000
0010
0000
0001
0000
0010
0100
,  // measure 16
1000
0001
0000
0001
0000
0000
2000
0000
3100
0000
0010
0100
2000
0000
3002
0000
,  // measure 17
0013
0001
0010
0001
0010
0100
0010
0100
,  // measure 18
1000
0100
1000
0001
1000
0001
1001
1000
,  // measure 19
0010
0100
0010
0100
0001
0100
0001
2000
,  // measure 20
3001
0010
0001
0010
0100
1000
0100
1000
0001
0100
0010
1000
0200
0000
0000
0000
,  // measure 21
0310
0001
0010
0001
0010
0100
0010
0100
,  // measure 22
1000
2000
0001
3002
0010
0023
0230
2300
,  // measure 23
3001
0000
1000
0000
0001
0000
1000
0000
0100
0000
1000
0000
0100
0000
1000
0100
,  // measure 24
0000
0011
1100
0000
2000
0000
3002
0000
,  // measure 25
0103
0000
0000
1010
0000
0000
0000
0000
0000
0000
0000
0000
0000
0000
1000
0100
,  // measure 26
0010
0000
0000
1001
0000
0001
0010
0100
,  // measure 27
1000
0000
0000
0011
0000
0000
0000
0000
0000
0000
0000
0000
1001
0000
0001
0010
,  // measure 28
0100
0000
0000
1100
0000
1000
0010
0100
,  // measure 29
0201
0000
0000
0310
0000
0000
1000
0000
2010
0000
0000
3100
0000
0000
0010
0000
,  // measure 30
0021
0000
0000
0130
0000
0000
1000
0000
2100
0000
0000
3010
0000
0000
0100
0000
,  // measure 31
0001
0000
1000
0001
1000
0000
0001
1000
0001
0000
1000
0001
1000
0000
0001
1000
,  // measure 32
0001
0100
0001
0100
0010
0100
0010
0100
0010
1000
0010
1000
0200
0000
0000
0000
,  // measure 33
0310
0100
1000
0010
0001
0010
0000
0100
,  // measure 34
1000
0100
0001
0010
1000
0010
0000
1000
,  // measure 35
0010
0001
1000
0010
0001
0100
1000
0001
,  // measure 36
1000
0100
1000
0100
0010
0001
0010
0001
1000
0010
0100
0001
0020
0000
0000
0000
,  // measure 37
0130
0001
0100
1000
0001
0010
1000
0010
,  // measure 38
0100
1000
0100
0001
1000
0100
0010
0001
,  // measure 39
0010
0100
0001
0100
1000
0010
0100
0001
,  // measure 40
1001
0000
1000
0010
0000
1000
0002
0000
0000
0000
0013
0000
0012
0000
0000
0000
,  // measure 41
1003
0010
1000
0000
0010
0100
0000
0000
0010
0100
0010
0000
0100
0000
0001
0000
,  // measure 42
0010
0001
0010
0000
0001
1000
0000
0000
1010
0000
0101
0000
0011
0000
1100
0000
,  // measure 43
1000
0001
1000
0000
0001
1000
0000
0000
0100
1000
0100
0000
1000
0001
1000
0000
,  // measure 44
0001
0100
0001
0100
0010
0100
0010
0100
0010
0000
0010
0100
0002
0000
0000
0000
,  // measure 45
1003
0000
0100
0010
0001
0000
0010
0100
1000
0000
0001
0100
0000
0100
0010
1000
,  // measure 46
0001
0010
0100
1000
0001
1000
0000
0100
0010
0000
0010
0000
0001
1000
0001
1000
,  // measure 47
0100
0010
0000
0011
0000
1100
0000
0101
0000
1010
0000
0010
1000
0001
0010
0100
,  // measure 48
1000
0001
1000
0001
1000
0001
1000
0001
1000
0001
1000
0001
1000
0001
1000
0000
,  // measure 49
1001
0000
0000
0000
,  // measure 50
0000
0000
0000
0000
,  // measure 51
0000
0000
0000
0000
,  // measure 52
0000
0000
0000
0000
0000
0000
0000
0001
,  // measure 53
0000
0001
0000
0000
1000
0000
0000
0000
0000
0000
0000
0100
0000
0000
0010
0000
,  // measure 54
0000
0010
0000
0000
0001
0000
0000
0000
0000
0010
0000
0010
0100
1000
0100
1000
,  // measure 55
0000
0100
0000
0000
0010
0000
0000
0000
0000
0000
0000
0001
0000
0000
0001
0000
,  // measure 56
1000
0000
1000
0000
0001
0000
0001
0000
1000
0000
0001
0100
0010
0000
0100
0010
,  // measure 57
1000
0001
0100
0000
1001
0000
0000
0000
0001
1000
0001
0000
0000
1000
0001
0000
,  // measure 58
1000
0000
0001
0000
1001
0000
0000
1000
0001
1000
0001
0000
0000
0000
1000
0000
,  // measure 59
0001
1000
0001
0000
1001
0000
0000
0000
1000
0001
1000
0000
0000
0001
1000
0000
,  // measure 60
0001
0000
1000
0000
1001
0000
0000
1000
0001
1000
0001
0000
0000
1000
0001
0000
,  // measure 61
1000
0001
1001
0000
0001
0100
1010
0000
,  // measure 62
1000
0100
0011
0000
0001
0100
1010
0000
,  // measure 63
0101
1001
0011
1001
,  // measure 64
0101
0011
0110
1100
0110
1001
2000
3002
,  // measure 65
0103
0000
0010
0000
0100
0000
0001
0000
0000
1001
0000
0000
0000
0000
0000
0110
0000
0000
0000
0000
0000
1001
0000
0000
,  // measure 66
2000
0002
0000
3000
,  // measure 67
0103
0010
0100
0000
0010
1000
0010
0000
1000
0100
1000
0000
0100
0010
0100
0000
,  // measure 68
0010
0001
0010
0000
0001
0100
0001
0000
0100
0010
0100
0000
0010
1000
0010
0000
,  // measure 69
1000
0001
1000
0000
0001
0010
0001
0000
0010
0100
0010
0000
0100
1000
0100
0000
,  // measure 70
1000
0010
1000
0000
0010
0000
0100
0010
0100
0001
0000
0010
0100
0010
0001
1000
,  // measure 71
0001
0010
0001
0000
0010
0100
0010
0000
0100
1000
0100
0000
1000
0010
1000
0000
,  // measure 72
0010
0100
0010
0000
0100
0001
0100
0000
0001
0010
0001
0000
0010
0100
0010
0000
,  // measure 73
0100
0000
1000
0000
0010
0000
0100
0000
0001
1000
0001
1000
0010
0100
0010
0100
,  // measure 74
0002
0103
0020
1030
0200
0310
0021
0000
,  // measure 75
0130
0000
0010
0001
0000
0001
0100
0000
0010
0000
0100
0010
0100
0000
0001
0000
,  // measure 76
1000
0000
0100
0010
0000
0010
0100
0000
1000
0000
0010
0100
0010
0000
0100
0000
,  // measure 77
0010
0000
1000
0010
0000
0010
0100
0000
0001
0000
1000
0001
1000
0000
1001
0000
,  // measure 78
0001
0000
1000
0010
0000
0010
0100
0000
0020
0000
0000
0000
0230
0000
0000
0301
,  // measure 79
1000
0100
0010
0001
0010
0100
1000
0010
,  // measure 80
0000
0000
0110
0000
0000
0000
1001
0000
1001
0000
0000
1000
0001
0010
0000
0010
,  // measure 81
0001
0100
0000
0100
0010
1000
0000
1000
0100
0010
0000
0010
0001
1000
0000
0000
,  // measure 82
0020
0000
0000
0030
,  // measure 83
1000
0000
0000
0100
0000
0000
0010
0000
0001
0000
1000
0000
0001
0000
0000
0000
,  // measure 84
2200
3300
0000
0000
;
