#TITLE:spiral galaxy;
#SUBTITLE:;
#ARTIST:D.J.SETUP;
#TITLETRANSLIT:;
#SUBTITLETRANSLIT:;
#ARTISTTRANSLIT:;
#GENRE:;
#CREDIT:;
#MUSIC:spiral galaxy.ogg;
#BANNER:spiral galaxy.png;
#BACKGROUND:spiral galaxy-bg.png;
#CDTITLE:;
#SAMPLESTART:100.789;
#SAMPLELENGTH:12.484;
#SELECTABLE:YES;
#OFFSET:0.510;
#BPMS:0.000=154.000;
#STOPS:;
#BGCHANGES:;
#FGCHANGES:;

//--------------- dance-single - Pandemonium X ----------------
#NOTES:
     dance-single:
     Pandemonium X:
     Beginner:
     5:
     0,0,0,0,0:
0000
0000
0000
0000
,
0000
0000
0000
0000
,
0000
0000
0000
0000
,
0000
0000
0000
0000
,
0000
0000
0000
0000
,
0001
0000
0000
0000
,
0001
0000
0000
0000
,
0001
0000
0000
0000
,
0001
0000
0000
0000
,
1001
0000
1000
0000
,
0001
0000
1000
0000
,
0001
0000
1000
0000
,
0001
0001
0001
0000
,
0000
0100
0000
0010
,
0000
1000
0000
0100
,
0000
0010
0000
0001
,
0110
0000
0000
0000
,
0000
1000
0000
0001
,
0000
0010
0000
0100
,
0000
0010
0000
0001
,
0000
1000
0000
0100
,
0010
0100
0000
0010
,
0000
0001
0000
1000
,
0000
0010
0000
0100
,
0000
0010
0000
1000
,
0001
0000
1000
0000
,
0100
0000
0000
0000
,
0010
0000
0001
0000
,
1000
0000
0000
0000
,
0001
0000
1000
0000
,
0010
0000
0000
0000
,
0100
0000
0010
0000
,
2002
0000
0000
3003
,
0001
0001
0001
0000
,
1000
0000
0010
0000
,
0100
0100
0100
0000
,
0010
0000
1000
0000
,
1000
1000
1000
0000
,
0001
0000
0010
0000
,
0001
0001
0001
0000
,
0100
0000
0010
0000
,
2000
0000
0001
3002
,
0003
0000
0000
0000
,
0002
0000
1000
1003
,
0110
0000
0000
0000
,
0002
0000
1000
2003
,
3000
0000
0000
0000
,
2000
0000
0001
3001
,
0110
0000
0000
0000
,
1000
0000
0000
0000
,
0001
0000
0000
0000
,
0100
0100
0000
0000
0000
0000
0000
0000
,
0110
0000
0000
0000
,
0001
0000
0000
0000
,
1000
0000
0000
0000
,
0001
0001
0000
0000
0000
0000
0000
0000
,
0100
0000
0000
0000
,
0010
0000
0000
0000
,
1000
0000
0000
0000
,
0100
0100
0000
0000
0110
0000
0000
0000
,
0010
0010
0010
0000
,
0001
0000
0000
0000
,
1000
0000
0000
0000
,
0010
0010
0000
0000
0000
0000
0000
0000
,
2002
0000
0000
3003
,
0001
0000
1000
0000
,
0100
0000
1000
0000
,
0001
0000
0100
0000
,
0001
0000
1000
0000
,
0001
0000
1000
0000
,
0010
0000
1000
0000
,
0001
0000
0010
0000
,
0001
0000
1000
0000
,
0001
0001
0001
0000
,
1000
1000
1000
0000
,
0010
0010
0010
0000
,
0100
0100
0100
0000
,
0001
0100
0001
0000
,
1000
0010
1000
0000
,
1001
0000
0110
0000
,
0001
0100
0010
1000
,
1001
0000
0000
0000
;

//--------------- dance-single - Pandemonium X ----------------
#NOTES:
     dance-single:
     Pandemonium X:
     Easy:
     8:
     0,0,0,0,0:
0000
0000
0000
0000
,
0000
0000
0000
0000
,
0000
0000
0000
0000
,
0000
0000
0000
0000
,
0000
0000
0000
0000
,
0001
1000
0020
1030
,
0001
1000
0020
1030
,
0001
1000
0020
1030
,
0001
1000
0020
1030
,
0001
0100
0001
0000
1000
0000
0100
0000
,
0010
0100
0010
0000
0001
0000
0100
0000
,
0010
1000
0010
0000
0100
0000
0001
0000
,
1000
0001
1000
0000
0001
1000
0001
0000
,
1000
1100
0100
0110
,
0010
0011
0001
0101
,
0100
0110
0010
1010
,
2002
0000
0000
3003
,
0001
0000
0000
0000
1001
0000
0000
0000
0000
0000
0000
1000
0010
0000
0000
0000
,
1000
0000
0000
0000
1010
0000
0000
0000
0000
0000
0000
0001
0100
0000
0000
0000
,
0001
0000
0000
0000
0011
0000
0000
0000
0000
0000
0000
0100
1000
0000
0000
0000
,
1000
0000
0000
0000
1010
0000
0000
0000
0000
0000
0000
0100
0001
0000
0000
0000
,
1000
0000
0000
0000
0110
0000
0000
0000
0000
0000
0000
0001
1000
0000
0000
0000
,
0001
0000
0000
0000
0110
0000
0000
0000
0000
0000
0000
1000
0001
0000
0000
0000
,
0100
0000
0000
0000
1001
0000
0000
0000
0000
0000
0000
1000
0001
0000
0000
0000
,
0100
0000
0000
0000
0110
0000
0000
0000
0000
0000
0000
0010
1000
0000
0000
0000
,
0001
1000
0100
1000
,
0001
0100
0001
1000
,
0001
0010
0001
1000
,
0010
1000
0001
1000
,
0001
0100
0010
1000
,
0010
0100
0001
0010
,
0100
0010
0001
1000
,
0220
0000
0000
0330
,
0001
1000
0100
1000
,
0010
0000
0100
0000
0001
0000
0010
0100
,
0010
0100
1000
0010
,
1000
0000
0001
0000
0010
0000
0100
0010
,
0100
0010
0001
0100
,
0010
0000
1000
0000
0001
0000
0010
0100
,
0010
0100
1000
0010
,
0100
0000
0001
0000
1000
0000
0010
0100
,
0001
0000
0100
0010
1000
0000
2002
0000
,
3003
1000
0000
1000
,
0001
0000
1000
0100
0010
0000
0021
0000
,
0200
0330
0000
0000
,
1000
0000
0001
0100
0010
0000
1020
0000
,
0130
0010
0000
0010
,
0100
0000
0010
1000
0001
0000
2002
0000
,
3003
0001
0000
0001
,
2000
0000
0001
0000
,
0010
0000
0100
0000
,
3001
1001
0000
0000
1000
0000
0000
0000
,
0220
0000
0000
0330
,
0002
0000
0100
0000
,
0010
0000
1000
0000
,
0103
0101
0000
0000
0100
0000
0000
0000
,
0020
0000
0000
0030
,
0201
0000
0001
0000
,
0010
0000
0001
0000
,
0310
0110
0000
0000
2002
0000
3003
0000
,
1000
0001
0100
0001
,
1200
0000
1000
0000
,
0010
0000
1000
0000
,
0310
0110
0000
0000
0001
0000
1000
0000
,
0220
0000
0000
0330
,
1000
0000
0001
0000
1000
1000
0100
0000
,
0010
0000
0001
0000
0010
0010
0001
0000
,
0100
0000
0010
0000
1000
1000
0100
0000
,
0010
0000
0001
0000
0010
0010
0001
0000
,
0010
0000
0001
0000
0100
0100
0010
0000
,
0100
0000
0001
0000
1000
1000
0001
0000
,
0010
0000
0100
0000
0010
0010
0001
0000
,
0100
0000
0010
0000
1000
1000
0001
0000
,
1000
0000
0100
0000
0010
0100
1000
0000
,
0100
0000
0010
0000
0001
0010
0100
0000
,
0010
0000
0001
0000
0100
0001
1000
0000
,
0001
0000
1000
0000
0010
1000
0100
0000
,
0010
0000
0100
0000
1000
1000
1000
0000
,
0001
0000
0100
0000
0010
0010
0010
0000
,
0100
0000
0001
0000
1000
1000
1000
0000
,
0000
0001
0100
0010
1000
0010
0100
0001
,
0010
0000
0000
0000
;

//--------------- dance-single - Pandemonium X ----------------
#NOTES:
     dance-single:
     Pandemonium X:
     Medium:
     14:
     0,0,0,0,0:
0000
0000
0000
0000
,
0000
0000
0000
0000
,
0000
0000
0000
0000
,
0000
0000
0000
0000
,
0000
0000
0000
0000
,
0002
0000
2003
0000
3010
0100
0010
0000
,
2000
0000
3002
0000
0103
0010
0100
0000
,
0002
0000
2003
0000
3100
0010
0100
0000
,
2000
0000
3002
0000
0103
0010
0100
0000
,
1001
0000
0001
0000
0100
0000
0000
0001
0000
0000
1000
0000
0100
0000
0000
0000
,
1000
0000
0001
0000
0010
0000
0000
0001
0000
0000
1000
0000
0010
0000
0000
0000
,
1000
0000
0001
0000
1000
0000
0000
1000
0000
0000
0001
0000
1000
0000
0000
0000
,
0001
0000
1000
0000
0001
0000
0000
0001
0000
0000
1000
0000
0001
0000
0000
0000
,
1000
0100
1100
0000
0001
0100
0101
0000
,
1000
0010
1010
0000
0001
0010
0011
0000
,
0001
1000
0110
0000
1000
0001
0110
0000
,
2002
0000
0000
3003
,
0001
0000
0000
0000
1010
0000
0000
0000
0010
0000
0000
1000
0100
0000
0000
0000
,
0010
0000
0000
0000
1100
0000
0000
0000
1000
0000
0000
0001
0010
0000
0010
0000
,
0001
0000
0000
0000
1100
0000
0000
0000
0010
0000
0000
0100
0001
0000
0000
0000
,
1000
0000
0000
0000
0011
0000
0000
0000
0001
0000
0000
0100
0010
0000
1000
0000
,
0001
0010
0001
0010
0001
0010
0001
0010
,
0100
1000
0100
1000
0100
1000
0100
0010
,
0001
1000
0001
1000
0001
1000
0001
0100
,
0010
0100
0010
0100
0010
0100
0001
1000
,
0100
0010
0100
1000
0000
0100
0010
0001
,
0100
0000
0001
0000
0100
0001
0000
1000
0000
0000
0001
0000
0000
1000
0000
0001
,
0010
0000
0100
0000
0010
0000
0001
0000
0000
0000
0000
0010
0000
0100
0000
1000
,
0010
0000
0100
0000
0001
0010
0000
0001
0000
0000
1000
0001
0000
0010
0000
0001
,
0100
0000
0001
0000
0011
0000
0000
0000
0010
0000
0000
0100
1000
0000
0000
0000
,
1000
0000
0010
0000
0110
0000
0000
0000
0100
0000
0000
0001
1000
0000
0000
0000
,
0100
0000
0010
0000
0011
0000
0000
0000
0010
0000
0000
0100
1000
0000
0010
0000
,
2002
0000
0000
3003
,
1000
0000
0010
0000
1000
0000
0010
0000
1000
0000
0000
0001
0000
0000
0100
0000
,
0000
0000
0001
0000
0000
0000
0010
0100
0000
0100
0000
0010
0000
0100
0000
1000
,
0001
0000
0010
0000
0001
0000
0010
0000
0001
0000
1000
0010
0000
1000
0000
0001
,
0000
0000
0100
0000
0000
0010
0000
0000
1000
0000
0000
0001
0000
0010
0000
0001
,
1000
0000
0100
0000
1000
0000
0100
0000
1000
0000
0000
0001
0000
0000
0100
0000
,
0000
0000
0010
0000
0000
0000
0100
0001
0000
0001
0000
0010
0000
0001
0000
1000
,
0010
0000
0100
0000
0010
0000
0100
0000
0010
0000
0000
0100
0001
0000
1000
0000
,
0100
0000
0010
0000
0000
0100
0000
0000
1000
0000
0000
0001
0000
0001
0000
0001
,
1000
0000
0010
0100
0001
0000
0010
0000
1200
0000
0000
0000
0001
0000
0000
0000
,
1300
0000
0100
0000
0010
0000
0000
0000
0100
0000
1000
0001
1000
0000
0000
0000
,
0001
0000
0100
0010
1000
0000
0100
0000
0021
0000
0000
0000
1000
0000
0000
0000
,
0031
0000
0000
1100
0000
0000
0000
0000
0001
0000
0000
0000
1000
0000
0000
0000
,
0001
0000
0100
0010
1000
0000
0100
0000
0021
0000
0000
0000
1000
0000
0000
0000
,
0031
0000
0010
0000
0100
0000
0000
0000
0010
0000
0001
1000
0001
0000
0000
0000
,
1000
0000
0010
0100
0001
0000
0010
0000
1200
0000
0000
0000
0001
0000
0000
0000
,
1300
0000
0001
0000
0100
0100
0100
0100
,
0001
1000
0200
0000
1300
0001
0200
0000
,
0310
0100
2000
0000
3100
0010
1000
0001
,
0011
1100
1000
0000
0010
0100
0001
0000
,
0220
0000
0000
0330
,
1000
0001
0020
0000
0031
1000
0020
0000
,
0130
0010
0002
0000
0013
0100
0001
1000
,
1100
0011
0001
0000
0100
0010
1000
0000
,
0000
0000
0000
0000
,
0001
0000
0100
0000
0010
0000
0100
0000
0001
0000
0100
0001
0010
0000
0000
0000
,
0100
0000
0010
0000
0100
0000
1000
0000
0010
0000
0100
0010
1000
0000
0000
0000
,
0110
1001
0000
0000
1020
0000
0100
0000
,
1030
0001
0010
0000
0100
0010
0001
0000
,
1000
0000
0010
0000
0100
0000
0010
0000
1000
0000
0010
1000
0100
0000
0000
0000
,
0010
0000
0100
0000
0010
0000
0001
0000
0100
0000
0010
0100
0001
0000
0000
0000
,
0110
0000
1001
0000
0000
0000
0000
0000
1000
0000
0001
0000
1000
0001
1000
0001
,
1000
0000
0000
0000
,
0001
0000
0100
0001
0000
0001
0010
0000
0100
0000
0010
0000
0001
0020
0000
0000
,
0130
0000
1000
0100
0000
0100
1000
0000
0100
0000
1000
0000
0010
0200
0000
0000
,
0310
0000
1000
0001
0000
0001
1000
0000
0001
0000
0010
0000
0100
0020
0000
0000
,
0130
0000
0010
0001
0000
0001
0010
0000
0001
0000
1000
0000
0010
0200
0000
0000
,
0310
0000
0100
0001
0000
1000
0100
0000
0010
0000
0100
0000
1000
0200
0000
0000
,
0310
0000
0001
0010
0000
0100
0010
0000
0001
0000
0100
0000
0001
2000
0000
0000
,
3001
0000
1000
0100
0000
0100
0010
0000
0100
0000
0010
0000
0001
2000
0000
0000
,
3010
0000
0100
0001
0000
0001
1000
0000
0001
0100
0001
0100
0001
0020
0000
0000
,
0130
0000
0010
0001
0000
0010
0100
0000
0010
0000
0001
0000
0100
0010
0000
0100
,
0001
0000
1000
0100
0000
0010
0100
1000
0100
1000
0100
1000
0100
1000
0001
0000
,
1000
0000
0001
0010
0000
0001
1000
0000
0100
0000
0010
0000
0100
1000
0000
0010
,
0100
0000
0001
0010
0000
0100
1000
0000
0001
0100
0001
0100
0001
1000
0000
0000
,
0001
0000
0001
0010
0000
0001
0100
0000
0010
0100
0010
0100
0001
2000
0000
0000
,
3010
0000
0100
0001
0000
0010
0100
1000
0010
0100
0010
0100
0002
0000
0000
0000
,
1003
0000
0001
0010
1100
0000
1000
0010
,
0000
0000
0101
0000
1010
0000
0101
0000
1000
0010
1000
0001
0010
0100
0000
1000
,
0001
0000
0000
0000
;

//--------------- dance-single - Pandemonium X ----------------
#NOTES:
     dance-single:
     Pandemonium X:
     Hard:
     17:
     0,0,0,0,0:
0000
0000
0000
0000
,
0000
0000
0000
0000
,
0000
0000
0000
0000
,
0000
0000
0000
0000
,
0000
0000
0000
0000
,
0001
0000
1000
0000
0000
0100
0000
0100
1000
0000
0001
0000
1000
0000
0100
1000
,
0001
0000
1000
0000
0000
0100
0000
0100
1000
0000
0001
0000
1000
0000
0100
1000
,
0001
0000
1000
0000
0000
0100
0000
0100
1000
0000
0001
0000
1000
0000
0100
1000
,
0001
0000
1000
0000
0000
0100
0000
0100
1000
0000
0001
0000
1000
0000
0100
1000
,
0001
0000
0100
0000
0101
0000
0001
1000
0000
0100
0010
0000
0100
1000
0100
0000
,
1000
0000
0001
0000
1000
0000
0001
0010
0000
0100
0010
0000
0100
0010
0001
0010
,
0001
0000
0010
0000
0100
0000
1000
0001
0000
0100
0001
0000
0010
0100
0010
0000
,
0100
0010
0100
0000
1000
0000
0001
1000
0001
0000
1000
0000
0001
1000
0001
1000
,
0001
0000
1000
0001
0010
0000
0000
0000
0100
0000
1000
0010
0100
0000
0000
0000
,
0010
0000
0100
0001
1000
0000
0000
0000
0100
0000
0010
0100
1000
0000
0000
0000
,
0001
0000
0010
0001
0100
0000
0000
0000
0010
0000
0100
0001
1000
0000
0000
0000
,
2002
0000
0000
3003
,
0001
0000
0100
0000
0101
0000
0100
0000
1000
0000
0100
0010
1000
0000
0001
0000
,
1000
0000
0010
0000
1010
0000
0010
0000
0001
0000
0010
0100
0001
0000
1000
0000
,
0001
0000
0010
0000
0011
0000
0010
0000
1000
0000
0010
0100
1000
0000
0001
0000
,
1000
0000
0100
0000
1100
0000
0100
0000
0001
0000
0100
0010
0001
0000
1000
0000
,
0001
0000
0100
0000
0101
0000
0100
0000
1000
0000
0100
0010
1000
0000
0100
0000
,
0010
0000
0100
0000
1100
0000
0100
0000
0001
0000
0100
1000
0001
0000
1000
0000
,
0001
0100
0001
0000
0100
0010
0100
0000
0010
1000
0010
0000
1000
0100
1000
0000
,
0100
0010
0100
0000
0010
0001
0010
0000
0001
0000
0100
0000
0010
1000
0000
1000
,
0001
0010
0100
0010
0001
0100
0010
0100
,
0001
0000
1000
0000
0100
0010
0000
0100
0000
0100
1000
0000
0010
0100
0000
0001
,
1000
0100
0010
0100
1000
0010
0100
0010
,
1000
0000
0001
0000
0010
0100
0000
0010
0000
0010
0001
0100
0000
0010
0000
1000
,
0001
0000
0100
0000
0101
0000
0001
0000
1000
0000
0100
0010
0100
0000
0010
0000
,
0001
0000
1000
0000
0001
0100
0000
0100
0000
0001
1000
0000
0100
0010
0000
0100
,
1000
0000
0010
0000
0110
0000
0100
0000
0001
0000
0010
0000
0100
1000
0100
1000
,
0020
0000
0000
0000
,
0130
0001
0100
0001
0100
0001
0100
0001
1000
0100
0000
0010
0100
0000
0010
0001
,
1000
0001
0100
0000
0000
0010
1000
0001
0000
1000
0000
0001
0000
0001
0000
0010
,
0100
1000
0100
1000
0100
1000
0100
1000
0100
0010
0000
0100
0000
0100
0010
0100
,
1000
0100
1000
0001
0000
1000
0000
0001
1000
0100
0000
0100
0000
0010
0000
0100
,
1000
0001
1000
0001
1000
0001
1000
0001
1000
0100
0000
0010
0000
0100
0010
0001
,
1000
0001
0100
0000
0010
0100
0001
0100
0000
0100
0000
0010
0000
0010
0000
1000
,
0100
0010
0100
0010
0100
0010
0100
0010
0100
1000
0000
0001
0100
0001
1000
0001
,
1000
0100
1000
0000
0100
0010
0000
0100
1000
0010
0000
0010
0000
0100
0000
0100
,
0001
0000
1000
0100
0010
0000
0001
0000
0012
0000
0000
1003
0020
0000
0000
0000
,
0130
0001
1000
0000
0001
1000
0000
0001
0000
0010
0000
0010
0000
0100
0000
0100
,
0010
0000
0100
1000
0001
0000
0100
0000
0102
0000
0000
1003
0200
0000
0000
0000
,
0310
0001
1000
0000
0001
0010
0000
0100
0000
0100
0000
0010
0000
0001
0000
0010
,
0001
0000
0100
0010
0100
0000
0001
0000
1002
0000
0000
0013
0200
0000
0000
0000
,
0310
0001
0010
0000
0001
0000
1000
0100
0000
0100
0000
0010
0000
0010
0000
0001
,
2000
0000
0000
0000
3010
0000
0100
0000
0102
0000
0000
1003
0200
0000
0000
0000
,
0310
0001
0100
0010
1010
1010
0101
0101
,
0001
0000
0010
0000
0100
0010
0000
0001
0000
0100
0010
0100
0010
0000
0000
0000
,
1000
0000
0100
0000
0010
0100
0000
1000
0000
0010
0100
0010
0100
0000
0000
0000
,
0101
0000
1001
0000
1000
0100
0000
1000
0000
0001
1000
0001
1000
0000
0001
0100
,
0020
1000
0100
1030
,
1000
0000
0100
0000
0010
0100
0000
1000
0000
0010
0100
0010
0100
0000
0000
0000
,
0010
0000
0001
0000
0010
0100
0000
0100
0000
0010
0100
0010
0100
0000
0000
0000
,
1010
0000
1001
0000
0001
0010
0000
0001
0000
1000
0001
1000
0001
0000
1000
0001
,
0200
0000
0000
0000
0000
0000
0000
0000
0000
0000
0001
0000
0301
1000
0000
1000
,
0100
0000
0010
0000
0100
1000
0000
0010
0000
0100
0010
0100
0001
0000
1000
0000
,
0001
0000
0010
0000
0100
0010
0000
0100
0000
0010
0100
0010
0001
0000
1000
0000
,
1100
0000
1001
0000
0001
0010
0000
0100
2000
0000
0000
0000
0001
0000
0000
0000
,
3100
0000
1000
0000
1000
0100
0000
0010
0000
0100
0010
0000
0001
0000
1000
0000
,
0001
0000
0010
0000
0100
0010
0000
0001
0000
0100
0010
0100
0001
0000
1000
0000
,
0001
0000
1000
0000
0100
0010
0000
0100
0000
0010
0100
1000
0001
0000
0010
0000
,
0011
0000
1001
0000
1000
0001
0000
0100
0000
0010
1000
0001
1000
0001
1000
0002
,
2000
0000
0000
3003
,
0001
0100
0001
0100
0000
0001
0100
0001
0100
0000
0100
0000
0100
0010
0000
0010
,
1000
0100
1000
0100
0000
1000
0100
1000
0100
0000
0100
0000
0100
0010
0000
0010
,
0001
1000
0001
1000
0000
0001
1000
0001
1000
0000
1000
0000
1000
0010
0000
0010
,
0100
0001
0100
0001
0000
0100
0001
0100
0001
0010
0100
1000
0100
1000
0000
1000
,
0100
0010
0100
0010
0000
0100
1000
0100
1000
0000
0100
0000
0010
0001
0000
0100
,
0010
1000
0010
1000
0000
0010
0100
0010
0100
0000
0100
0000
0010
0100
0000
0001
,
0010
0100
0010
0100
0000
0010
0001
0010
0001
0000
0001
0000
1000
0001
0000
0010
,
0100
1000
0100
1000
0000
0100
0010
0100
0010
0001
0100
0001
1000
0001
1000
0001
,
0100
0010
1000
0100
0000
0010
0001
0100
0010
0000
0100
0000
0001
1000
0000
1000
,
0100
0010
0100
1000
0000
0001
0100
0001
0010
0100
0010
0100
0010
0100
0010
0001
,
1000
0100
0010
0100
0000
0010
0100
0010
0001
0000
1000
0000
0010
1000
0000
0001
,
0010
0100
0010
0001
0000
0010
0100
0010
0001
1000
0001
1000
0001
1000
0000
1000
,
0010
0100
0001
0010
0000
0100
0010
0100
1000
0000
0001
0000
1000
0100
0000
0100
,
0010
0100
1000
0001
0000
0100
0001
0010
0100
0000
0010
0000
0001
0100
0000
0100
,
0001
1000
0100
0010
0000
0100
1000
0010
0100
0000
0001
0000
1000
0001
0000
0001
,
0010
0100
0010
0001
0000
0010
0100
1000
0001
0100
0010
1000
0001
1000
0000
1000
,
0100
0000
0000
0000
;
