#TITLE:spiral galaxy -L.E.D. STYLE SPREADING PARTICLE BEAM MIX-;
#SUBTITLE:;
#ARTIST:Remixed by L.E.D.;
#TITLETRANSLIT:;
#SUBTITLETRANSLIT:;
#ARTISTTRANSLIT:;
#GENRE:;
#CREDIT:;
#MUSIC:spiral galaxy -L.E.D. STYLE SPREADING PARTICLE BEAM MIX-.ogg;
#BANNER:spiral galaxy -L.E.D. STYLE SPREADING PARTICLE BEAM MIX-.png;
#BACKGROUND:spiral galaxy -L.E.D. STYLE SPREADING PARTICLE BEAM MIX--bg.png;
#CDTITLE:;
#SAMPLESTART:50.240;
#SAMPLELENGTH:12.480;
#SELECTABLE:YES;
#OFFSET:1.189;
#BPMS:0.000=154.000000;
#STOPS:228.000=2.727;
#BGCHANGES:;
#FGCHANGES:;

//--------------- dance-single - Pandemonium X ----------------
#NOTES:
     dance-single:
     Pandemonium X:
     Beginner:
     5:
     0,0,0,0,0:
0000
0000
0000
0000
,
0000
0000
0000
0000
,
0000
0000
0000
0000
,
0000
0000
0000
0000
,
0000
0000
0000
0000
,
1000
0000
0000
0000
,
0001
0000
0000
0000
,
1001
0000
0000
0000
,
0110
0000
0000
0000
,
0001
0000
0000
1000
,
0100
0000
0000
0010
,
0100
0000
0000
0010
,
0001
0000
0000
0010
,
0100
0000
0000
1000
,
0001
0000
0000
0100
,
0001
0000
0000
0010
,
0100
0000
0000
1000
,
0001
0000
0001
0000
,
0001
0000
0001
0001
,
1000
0000
1000
0000
,
1000
0000
1000
1000
,
0010
0000
0010
0000
,
0010
0000
0010
0010
,
0100
0000
0100
0000
,
1001
0000
0000
0000
,
0001
1000
0100
0100
,
0000
0000
0000
0000
,
1000
0001
0100
0100
,
0000
0000
0000
0000
,
0001
1000
0010
0010
,
0000
0000
0000
0000
,
1000
0001
0010
0010
,
1001
0000
0000
0000
,
0001
0000
1000
0000
,
0100
0000
0010
0000
,
0100
0000
1000
0000
,
0010
0000
0100
0000
,
0001
0000
0010
0000
,
0100
0000
1000
0000
,
0010
0000
0100
0000
,
0001
0000
1000
0001
,
1000
0000
0010
0010
,
0100
0000
0001
0001
,
0010
0000
0100
0100
,
1000
0000
0001
0001
,
1000
0000
0001
0100
,
0001
0000
1000
0010
,
1000
0000
0001
0000
,
1000
0001
1000
0001
,
0110
0000
0000
0000
,
0000
0000
0000
0000
,
0000
0000
0000
0000
,
0000
0000
0000
0000
,
1000
0000
0001
0000
,
1000
0000
0001
0000
,
1000
0001
1000
0001
,
1000
0001
1000
0001
,
0110
1000
0000
1000
,
0000
0001
0000
0001
,
1000
0100
0000
0100
,
0000
0100
0010
0001
,
0100
0001
0000
1000
,
0000
0001
0000
1000
,
0001
0100
0000
0001
,
0000
1000
0000
0001
,
1000
0010
0000
1000
,
0000
0100
0000
0010
,
0100
1000
0000
0100
,
0000
0010
0000
0001
,
0010
0100
0000
0010
,
0000
0001
0000
1000
,
0000
0010
0000
0100
,
0000
0001
1000
0001
,
1000
0110
0000
0000
;

//--------------- dance-single - Pandemonium X ----------------
#NOTES:
     dance-single:
     Pandemonium X:
     Easy:
     8:
     0,0,0,0,0:
0000
0000
0000
0000
,
0000
0000
0000
0000
,
0000
0000
0000
0000
,
0000
0000
0000
0000
,
0000
0000
0000
0000
,
0001
0000
1000
0000
,
0001
0000
1000
0000
,
0110
0000
0001
0000
,
0110
0000
0000
0000
,
1000
0001
0100
0101
,
0001
1000
0100
1100
,
1000
0001
0010
0011
,
0001
1000
0010
1010
,
1000
0000
0010
0000
0100
0000
0001
0100
,
0010
0000
0100
0000
0010
0000
1000
0010
,
0100
0000
0010
0000
1000
0000
0001
0010
,
0100
0000
0010
0000
0100
0000
1000
0001
,
0100
0001
1000
0100
,
1000
0001
0100
0001
,
1000
0010
1000
0001
,
0010
0001
1000
0001
,
1000
0100
0001
0100
,
1000
0010
1000
0010
,
0001
0010
1000
0010
,
0220
0000
0000
0330
,
1001
0000
0001
1000
0010
0000
1010
0000
,
0000
0010
0000
0010
,
1000
0000
0010
0100
0001
0000
0101
0000
,
0000
0001
0000
0001
,
1000
0000
0100
0010
0001
0000
0011
0000
,
0000
0001
0000
0001
,
0010
0000
0100
1000
0001
0000
1010
0000
,
1001
0000
0000
0000
,
0001
0000
1000
0000
0100
0100
0010
0000
,
0100
0000
1000
0000
0001
0001
0100
0000
,
0010
0000
0100
0000
0001
0001
0010
0000
,
0100
0000
0010
0000
0100
0100
1000
0000
,
0100
0000
1000
0000
0001
0001
0100
0000
,
0001
0000
1000
0000
0010
0010
0100
0000
,
0001
0000
1000
0000
0100
0100
0010
0000
,
0100
0000
1000
0000
0001
0001
0001
0000
,
1000
0000
0001
0000
0100
0010
2000
0000
,
3100
0000
0010
0000
0100
0010
0002
0000
,
1003
0000
0001
0000
0100
0001
0020
0000
,
0130
0000
0010
0000
0100
0010
0002
0000
,
1003
0000
0010
0000
0100
1000
0200
0000
,
0301
0000
1000
0000
0100
0001
0200
0000
,
1300
0000
0010
0000
0100
0001
0020
0000
,
0130
0010
0001
0000
0010
0100
1000
0000
,
1001
0000
0000
0000
,
0000
0000
0000
0000
,
0000
0000
0000
0000
,
0000
0000
0000
0000
,
1001
0000
0110
0000
,
1001
0000
0110
0000
,
1001
1001
0110
0110
,
0001
0100
0010
1000
0001
0100
0010
1000
,
0001
1000
0100
1000
,
0010
0100
0001
0010
,
0100
0010
0001
1000
,
0010
0100
0001
0010
,
0100
0010
0001
0010
,
0001
0010
0100
1000
,
0100
0010
0100
0010
,
0100
0001
0100
1000
,
0001
0100
0001
1000
,
0100
0010
1000
0010
,
0001
1000
0010
1000
,
0001
0010
0100
0001
,
0100
1000
0001
0100
,
1000
0100
0010
0001
,
0010
1000
0100
0001
,
0100
0010
0001
1000
,
0100
1001
0000
0000
;

//--------------- dance-single - Pandemonium X ----------------
#NOTES:
     dance-single:
     Pandemonium X:
     Medium:
     12:
     0,0,0,0,0:
0000
0000
0000
0000
,
0000
0000
0000
0000
,
0000
0000
0000
0000
,
0000
0000
0000
0000
,
0000
0000
0000
0000
,
0001
1000
0010
0000
1000
0001
0010
0000
,
0001
1000
0100
0000
1000
0001
0100
0000
,
0101
0000
0001
1000
0100
0000
0010
0000
,
0012
0000
0000
0000
,
1003
0000
0101
0000
0001
0000
0011
0010
,
0100
0000
1100
0000
1000
0000
1010
1000
,
0001
0000
1000
0000
0010
0000
1010
0010
,
0100
0000
0001
0000
0010
0000
0011
0001
,
1000
0001
0100
0000
0001
1000
0100
0010
,
0001
1000
0010
0000
1000
0001
0100
0010
,
1000
0001
0100
0000
0001
1000
0100
0010
,
0001
0000
1000
0000
0010
0000
0000
0000
1000
0001
0000
1000
0001
0000
1000
0000
,
0100
1000
0001
0000
1000
0001
0100
0000
,
0001
0000
1000
0000
0100
0000
0000
0000
0010
0000
0100
1000
0000
1000
0000
0001
,
0100
0001
1000
0000
0100
0010
0001
0000
,
0010
0000
0100
0000
1000
0000
0000
0001
0000
0000
0100
0001
0000
1000
0000
0001
,
0100
0001
1000
0000
0100
0010
0001
0000
,
0010
0100
1000
0001
0100
1000
0100
0001
,
1000
0010
1000
0000
0001
0010
0100
0000
,
2200
0000
0000
3300
,
0021
0000
0130
0001
0200
0000
2300
0000
,
3100
0010
1000
0001
,
0101
0000
0001
0100
2000
0000
3200
0000
,
0301
0100
0010
1000
,
1001
0000
0001
0010
2000
0000
3020
0000
,
0031
0010
0001
1000
,
1020
0000
0130
1000
0200
0000
0302
0000
,
1003
0000
0000
0000
0000
0000
0000
0000
,
0001
0000
0000
1000
0000
0000
0001
0000
1000
0000
0100
0000
0020
0000
0000
0000
,
0130
0000
0000
1000
0000
0000
0001
0000
1000
0000
0010
0000
2000
0000
0000
0000
,
3001
0000
0000
0010
0000
0000
0001
0000
1000
0000
0001
0000
0200
0000
0000
0000
,
0301
0000
0000
1000
0000
0000
0100
0000
1000
0000
0001
0000
0100
0000
0001
0000
,
0010
0000
0000
0100
0000
0000
0010
0000
0001
0000
1000
0000
0200
0000
0000
0000
,
1300
0000
0000
0001
0000
0000
0100
0000
0001
0000
1000
0000
0100
0000
1000
0000
,
0001
0000
0000
0100
0000
0000
0001
0000
0010
0000
0100
0000
0010
0000
0000
0000
,
0010
0000
0000
0001
0000
0000
1000
0000
0100
0010
0000
0010
0001
0000
1000
0000
,
0010
0000
1000
0000
0001
0000
0010
0000
0100
0000
1000
0000
0001
0100
0000
0000
,
0001
0000
1000
0000
0010
0000
0100
0000
0001
0000
0010
0000
0100
1000
0000
0000
,
0100
0000
1000
0000
0100
0000
0010
0000
0100
0000
1000
0000
0001
0100
0000
0000
,
0001
0000
0100
0000
0010
0000
1000
0000
0001
0000
0010
0000
0100
0010
0000
0000
,
0100
0000
0010
0000
0001
0000
0100
0000
0010
0000
1000
0000
0001
0010
0000
0000
,
0100
0000
0010
0000
0001
0000
0100
0000
0010
0000
1000
0000
0100
0010
0000
0000
,
0100
1000
0010
0100
0001
0010
0100
1000
,
0001
0000
1000
0010
0000
0100
0001
0000
0010
0000
0100
0000
0100
0010
0000
0001
,
1000
0000
0000
0000
,
0000
0000
0000
0000
,
0000
0000
0000
0000
,
0000
0000
0000
0000
,
1001
0000
1010
0000
,
1001
0000
0011
0000
,
0001
0001
1000
1000
0010
0010
0100
0100
,
0001
0000
0100
0000
0010
0000
1000
0000
0001
0000
0100
0000
0001
1000
0001
1000
,
0001
0000
1000
0001
0010
0000
0100
1000
,
0010
0000
0100
0001
0010
0100
0010
0001
,
0100
0010
1000
0100
0010
0000
0100
1000
,
0001
0000
0100
0001
0010
0100
0010
0001
,
1000
0010
1000
0001
0010
0000
0001
1000
,
0010
0000
1000
0001
0010
0001
1000
0010
,
0100
0001
0010
0100
0010
0000
0100
1000
,
0010
0000
0100
1000
0100
0001
1000
0100
,
0001
0100
1000
0001
0100
0000
0001
1000
,
0010
0000
1000
0001
0010
0100
0010
0001
,
1000
0010
0100
0001
0010
0000
0100
1000
,
0010
0000
0100
1000
0100
0001
0100
0001
,
1000
0001
0010
0100
1000
0000
0100
0010
,
0001
0000
0010
0001
0100
0010
1000
0010
,
0001
0010
1000
0001
0010
0000
0100
1000
,
0001
0000
0000
0000
0010
0000
0100
0000
0010
0000
0001
1000
0000
0000
0001
0100
,
0000
0001
0000
1000
0200
0000
0000
0000
0000
0000
0000
0000
0000
0000
0000
0000
,
0300
0000
0000
0000
0000
0000
0000
0000
0000
0000
0000
0000
0000
0000
0000
0000
0000
0000
0000
0000
0000
0000
0000
0000
0000
0000
0000
0000
0000
0000
0000
0000
0000
0000
0000
0000
0000
0000
0000
0000
0000
0000
0000
0000
0000
0000
0000
0000
0000
0000
0000
0000
0000
0000
0000
0000
0000
0000
0000
0000
0000
0000
0000
0000
0000
0000
0000
0000
0000
0000
0000
0000
0000
0000
0000
0000
0000
0000
0000
0000
0000
0000
0000
0000
0000
0000
0000
0000
0000
0000
0000
0000
0000
0000
0000
0000
;

//--------------- dance-single - Pandemonium X ----------------
#NOTES:
     dance-single:
     Pandemonium X:
     Hard:
     17:
     0,0,0,0,0:
0000
0000
0000
0000
,
0000
0000
0000
0000
,
0000
0000
0000
0000
,
0000
0000
0000
0000
,
0000
0000
0000
0000
,
0001
1000
0001
0010
,
0001
1000
0001
0100
,
1001
0001
1000
0001
,
2002
0000
0000
0000
0000
0000
3003
0000
,
1000
0000
0100
0000
0110
0000
0000
0000
0010
0000
0001
0100
0001
0000
0000
0000
,
0001
0000
0100
0000
0110
0000
0000
0000
1000
0000
0100
1000
0100
0000
0000
0000
,
1000
0000
0010
0000
0110
0000
0000
0000
0010
0000
1000
0100
1000
0000
0000
0000
,
0100
0000
0010
0000
0011
0000
0000
0000
0010
0000
0001
0100
0001
0000
1000
0000
,
0001
0000
1000
0000
0010
0000
1000
0000
0001
0100
0001
0100
0010
1000
0010
1000
,
0001
0000
0100
0000
0001
0000
1000
0000
0100
1000
0100
1000
0001
0010
0001
0010
,
0001
0000
1000
0000
0010
0000
1000
0000
0001
0100
0001
0100
0010
1000
0010
1000
,
0001
0000
1000
0000
0001
0000
1000
0000
0100
0010
0000
0010
0100
0000
0100
1000
,
0001
1000
0001
0000
0010
0100
0000
0100
1000
0001
1000
0100
0000
0100
0000
0100
,
0010
0001
1000
0000
0010
1000
0000
0010
0100
0001
0000
1000
0000
1000
0000
1000
,
0001
0100
0001
0000
1000
0100
0000
0010
0100
0010
0001
1000
0000
1000
0000
1000
,
0010
1000
0100
0000
0010
0100
0000
0010
0000
0001
1000
0010
0000
0100
0001
1000
,
0001
1000
0100
0000
0010
0100
0000
1000
0001
0100
0001
1000
0001
1000
0001
1000
,
0100
0010
0100
0000
0010
0001
0000
1000
0001
1000
0001
1000
0000
0100
0000
1000
,
0001
0100
0001
0000
0100
0001
0000
1000
0001
0010
0001
0010
0000
0010
0000
0010
,
0200
0000
0000
0000
0000
0000
0300
0000
,
1000
0001
1000
0000
0001
0100
0001
0100
0002
0000
0000
1003
0100
0000
0100
0000
,
0010
0000
0100
1000
0100
0010
0200
0000
0310
0001
0100
0001
0000
0000
1000
0000
,
0001
0010
0001
0010
0001
0000
1000
0100
0010
0100
0000
0010
0001
0000
0100
0001
,
1000
0100
0010
0100
1000
0001
0100
0001
2000
0000
0000
3100
0010
0000
0010
0000
,
0100
0010
0100
1000
0001
0000
0100
0001
2000
0000
0000
3001
0200
0000
0000
0000
,
0310
1000
0010
1000
0010
0100
0010
0100
0000
0010
0100
0010
0100
0001
1000
0001
,
0010
0100
0010
0100
1000
0100
0010
0001
2000
0000
3001
0100
0020
0000
2030
0000
,
0002
0000
0000
0000
0000
0000
3003
0000
,
1000
0010
1000
0010
0000
1000
0010
1000
0010
0000
0010
0000
0010
0100
0000
0100
,
0001
0010
0001
0010
0000
0001
0010
0001
0010
0000
0010
0000
0010
0100
0000
0100
,
1000
0001
1000
0001
0000
1000
0001
1000
0001
0000
0001
0000
0001
0100
0000
0100
,
0010
1000
0010
1000
0000
0010
1000
0010
1000
0100
0010
0001
0010
0001
0000
0001
,
0010
0100
0010
0100
0000
0010
0001
0010
0001
0000
0010
0000
0100
1000
0000
0010
,
0100
0001
0100
0001
0000
0100
0010
0100
0010
0000
0010
0000
0100
0010
0000
1000
,
0100
0010
0100
0010
0000
0100
1000
0100
1000
0000
1000
0000
0001
1000
0000
0100
,
0010
0001
0010
0001
0000
0010
0100
0010
0100
1000
0010
1000
0001
1000
0001
1000
,
0010
0100
0001
0010
0000
0100
1000
0010
0100
0000
0010
0000
1000
0001
0000
0001
,
0010
0100
0010
0001
0000
1000
0010
1000
0100
0010
0100
0010
0100
0010
0100
1000
,
0001
0010
0100
0010
0000
0100
0010
0100
1000
0000
0001
0000
0100
0001
0000
1000
,
0100
0010
0100
1000
0000
0100
0010
0100
1000
0001
1000
0001
1000
0001
0000
0001
,
0100
0010
1000
0100
0000
0010
0100
0010
0001
0000
1000
0000
0001
0010
0000
0010
,
0100
0010
0001
1000
0000
0010
1000
0100
0010
0000
0100
0000
1000
0010
0000
0010
,
1000
0001
0010
0100
0000
0010
0001
0100
0010
0000
1000
0000
0001
1000
0000
1000
,
0100
0010
0100
0010
0001
1000
0001
1000
0010
0100
0001
1000
0100
0010
0001
1000
,
0010
0000
0000
0000
,
0000
0000
0000
0000
,
0000
0000
0000
0000
,
0000
0000
0000
0000
,
1001
0000
0011
0000
,
1010
0000
0011
0000
,
0001
1000
0010
1000
0001
0100
0010
1000
,
0010
0100
0010
0100
0010
0100
0010
0100
0010
0100
0010
0100
0010
0100
0010
0100
,
0010
0000
0000
0000
1000
0001
0010
0000
0001
0010
0000
0001
1000
0001
1000
0000
,
0001
1000
0000
1000
0001
1000
0010
0100
0010
1000
0001
0010
0100
0010
0001
1000
,
0000
0010
0000
0010
0100
0001
0100
0000
0001
1000
0000
0100
0010
0001
0010
0100
,
0000
0010
0000
0010
0001
1000
0001
0100
0001
0100
0000
0010
0000
0000
0100
0010
,
0000
1000
0001
1000
0100
0010
0100
0000
0010
0001
0000
0010
0100
0000
1000
0001
,
0000
0001
0000
0001
0100
0010
1000
0000
0100
0010
0100
1000
0000
1000
0000
0001
,
0000
0001
0000
0001
0100
0010
1000
0000
0100
0010
0000
0100
1000
0000
0010
0100
,
0000
0100
0000
0100
0001
1000
0001
0010
0100
0010
0100
1000
0001
0100
0010
0100
,
0010
1000
0001
0010
0100
0010
0001
0000
0001
0100
0000
0100
0010
0000
0010
1000
,
0000
1000
0000
1000
0001
1000
0100
0010
0100
1000
0100
0010
0100
0010
0001
0100
,
0000
0010
0000
0010
1000
0001
1000
0100
1000
0001
0100
0001
0010
0100
1000
0001
,
0000
1000
0000
1000
0100
0010
0100
1000
0001
0100
0010
1000
0000
0000
0001
1000
,
0000
1000
0000
1000
0001
0010
0100
0000
0010
0001
1000
0010
0100
1000
0100
0001
,
0000
1000
0000
0001
1000
0100
0010
0000
0100
1000
0010
0100
0010
0001
0010
1000
,
0100
0010
0001
1000
0001
0100
0010
0000
0110
0000
0101
0000
0001
0010
0100
0000
,
0110
0000
1100
0000
1000
0001
1000
0001
0100
0010
0100
0010
1000
0001
0100
0010
,
1000
0001
0100
0010
1000
0000
0000
0000
0000
0000
0000
0000
0000
0000
0000
0000
;
