#TITLE:smile;
#SUBTITLE:;
#ARTIST:miru_maki.gjw;
#MUSIC:smile.ogg;
#BANNER:;
#BACKGROUND:smile-bg.png;
#LYRICSPATH:;
#CDTITLE:;
#SAMPLESTART:104.525;
#SAMPLELENGTH:20.298;
#OFFSET:0.792;
#BPMS:0.000000=189.000000;
#STOPS:;
#TIMESIGNATURES:;
#BGCHANGES:4=smile.mp4=1.000000=0=0=1=====,
99999=-nosongbg-=1.000000=0=0=0=StretchNoLoop====
;
#FGCHANGES:;
#ATTACKS:;
#SPEEDS:;
#SCROLLS:;

//---------------dance-single - Pandemonium X---------------
#NOTES:
     dance-single:
     Pandemonium X:
     Beginner:
     5:
     0,0,0,0,0:
// measure 0
0000
0000
0000
0000
,  // measure 1
0000
0000
0000
0000
,  // measure 2
0000
0000
0000
0000
,  // measure 3
0000
0000
0000
0000
,  // measure 4
0000
0000
0000
0000
,  // measure 5
0000
0000
0000
0000
,  // measure 6
0001
0000
0000
0000
,  // measure 7
1000
0000
0000
0000
,  // measure 8
0020
0000
0000
0000
,  // measure 9
0130
0010
1000
0001
,  // measure 10
1000
0000
0000
0000
1000
0000
0000
1000
,  // measure 11
0000
0000
0000
0000
,  // measure 12
0001
0000
0000
0000
,  // measure 13
0000
0000
0010
0000
,  // measure 14
0100
0000
0000
0000
0100
0000
0000
0100
,  // measure 15
0000
0000
0010
0000
,  // measure 16
0001
0000
0000
1000
,  // measure 17
1000
0000
0001
0000
,  // measure 18
0100
0000
0000
0000
0100
0000
0000
0100
,  // measure 19
0000
0000
0010
0000
,  // measure 20
1000
0000
0000
0000
,  // measure 21
0000
0000
0100
0000
,  // measure 22
0010
0000
0000
0000
0010
0000
0000
0010
,  // measure 23
0000
0000
0001
0000
,  // measure 24
1000
0000
0000
0000
,  // measure 25
0001
0000
1000
0000
,  // measure 26
0010
0000
0000
0000
,  // measure 27
0000
0000
0000
0000
,  // measure 28
0100
0000
0000
0000
,  // measure 29
0000
0000
0000
0000
,  // measure 30
0001
0000
0000
0000
,  // measure 31
0000
0000
0000
0000
,  // measure 32
1000
0000
0000
0000
,  // measure 33
0001
0000
0000
0000
,  // measure 34
0100
0000
0010
0000
,  // measure 35
1000
0000
0000
0000
,  // measure 36
0001
0000
0010
0000
,  // measure 37
0100
0000
0000
0000
,  // measure 38
1000
0000
0000
0000
,  // measure 39
0001
0000
0000
0000
,  // measure 40
0100
0000
0010
0000
,  // measure 41
0100
0000
0000
0000
,  // measure 42
0001
0000
0000
0000
,  // measure 43
1000
0000
0000
0000
,  // measure 44
0100
0000
0000
0000
,  // measure 45
0010
0000
0000
0000
,  // measure 46
0100
0000
0000
0000
,  // measure 47
1000
0000
0000
0000
,  // measure 48
0001
0000
0000
0100
,  // measure 49
0100
0000
0000
0000
,  // measure 50
0010
0000
0000
0000
,  // measure 51
0100
0000
0000
0000
,  // measure 52
0001
0000
0000
0000
,  // measure 53
1000
0000
0000
0000
,  // measure 54
0100
0000
0010
0000
,  // measure 55
0001
0000
0010
0000
,  // measure 56
0100
0000
1000
0000
,  // measure 57
0001
0000
0000
0000
0000
0000
0000
1001
,  // measure 58
0000
0000
0000
0000
,  // measure 59
0100
0000
0000
0000
0000
0000
0000
1001
,  // measure 60
0000
0000
0000
0000
,  // measure 61
0010
0000
0000
0000
,  // measure 62
1001
0000
0000
0000
,  // measure 63
0001
0000
0000
0000
,  // measure 64
1000
0000
1000
0000
,  // measure 65
1000
0000
0000
0000
,  // measure 66
0010
0000
0000
0000
,  // measure 67
0100
0000
0000
0000
,  // measure 68
0001
0000
0000
0000
,  // measure 69
1000
0000
0000
0000
,  // measure 70
0100
0000
0000
0000
,  // measure 71
1000
0000
0000
0000
,  // measure 72
0001
0000
0000
0000
,  // measure 73
0010
0010
0010
0000
,  // measure 74
0100
0000
0000
0000
,  // measure 75
1000
0000
0000
0000
,  // measure 76
0010
0000
0000
0000
,  // measure 77
0100
0000
0000
0000
,  // measure 78
0001
0000
0000
0000
,  // measure 79
1000
0000
0000
0000
,  // measure 80
0001
0000
1000
0000
,  // measure 81
0001
0000
0000
0000
,  // measure 82
0000
0000
0000
0000
,  // measure 83
1000
0000
0000
0000
0010
0000
0000
0100
,  // measure 84
0000
0001
1000
0000
,  // measure 85
0001
0000
0000
0000
0010
0000
0000
0100
,  // measure 86
0000
1000
0001
0000
,  // measure 87
1000
0000
0000
0000
0100
0000
0000
1000
,  // measure 88
0000
0010
1000
0000
,  // measure 89
0010
0000
0000
0000
0100
0000
0000
0001
,  // measure 90
0000
0010
0001
0000
,  // measure 91
0010
0000
0000
0000
0100
0000
0000
1000
,  // measure 92
0000
0001
0100
0000
,  // measure 93
0001
0000
0000
0000
1000
0000
0000
0100
,  // measure 94
0000
0010
0100
0000
,  // measure 95
0010
0000
0000
0000
0001
0000
0000
1000
,  // measure 96
0000
0010
0100
0000
,  // measure 97
0010
0000
0000
0000
1000
0000
0000
0001
,  // measure 98
0000
0010
0100
0000
,  // measure 99
1000
0000
0000
0000
,  // measure 100
0001
0000
0000
0000
,  // measure 101
0100
0000
0000
0000
,  // measure 102
0010
0000
0000
0000
,  // measure 103
0100
0000
0000
0000
;

//---------------dance-single - Pandemonium X---------------
#NOTES:
     dance-single:
     Pandemonium X:
     Easy:
     9:
     0,0,0,0,0:
// measure 0
0000
0000
0000
0000
,  // measure 1
0000
0000
0000
0000
,  // measure 2
0000
0000
0000
0000
,  // measure 3
0000
0000
0000
0000
,  // measure 4
0000
0000
0000
0000
,  // measure 5
0000
0000
0000
0000
,  // measure 6
0010
0000
2000
0000
0000
0000
0000
3200
,  // measure 7
0000
0000
0000
0300
,  // measure 8
0010
0001
0010
0001
0010
0001
0010
0001
,  // measure 9
0010
0100
1000
0001
,  // measure 10
1000
0010
0000
1000
0010
0000
1000
0010
,  // measure 11
0000
0000
0000
0000
0100
0100
0100
0000
,  // measure 12
0010
0000
1000
0000
,  // measure 13
0001
0000
0000
0000
0010
0010
0010
0000
,  // measure 14
0100
1000
0000
0100
1000
0000
0100
1000
,  // measure 15
0000
0000
0000
0000
0001
0001
0001
0000
,  // measure 16
1000
0000
0001
0000
,  // measure 17
0100
0010
0100
0001
,  // measure 18
0010
0100
0000
0010
0100
0000
0010
0100
,  // measure 19
0000
0000
0000
0000
1000
1000
1000
0000
,  // measure 20
0001
0000
1000
0000
,  // measure 21
0100
0000
0000
0000
0010
0010
0010
0000
,  // measure 22
0001
0010
0000
0001
0010
0000
0001
0010
,  // measure 23
0000
0000
0000
0000
0100
0100
0100
0000
,  // measure 24
1000
0000
0001
0000
,  // measure 25
0200
0000
0000
0301
1000
0000
0000
0000
,  // measure 26
0200
0000
0000
0000
0000
0000
0010
0310
,  // measure 27
0000
0000
0100
1000
,  // measure 28
0020
0000
0000
0000
0000
0000
0100
0130
,  // measure 29
0000
0000
0100
0001
,  // measure 30
0010
0000
0000
0001
,  // measure 31
0010
0100
1000
0001
,  // measure 32
0200
0000
0000
0000
0000
0000
0010
0320
,  // measure 33
0000
0030
0000
0000
,  // measure 34
1000
0001
0010
0001
,  // measure 35
1000
0100
0001
0100
,  // measure 36
1000
0001
0100
0010
,  // measure 37
0001
0010
0100
0001
,  // measure 38
1000
0100
0001
0100
,  // measure 39
1000
0001
0100
0010
,  // measure 40
1000
0001
0010
0100
,  // measure 41
1000
0001
1000
0001
,  // measure 42
0000
0000
1000
0000
0100
0000
0010
0001
,  // measure 43
0000
0000
0010
0000
0100
0000
1000
0001
,  // measure 44
0000
0000
0100
0000
0001
0000
0010
0100
,  // measure 45
0000
0000
0010
0000
0001
0000
0100
0010
,  // measure 46
0000
0000
0100
0000
0010
0000
1000
0100
,  // measure 47
0000
0000
0010
0000
0100
0000
1000
0001
,  // measure 48
0100
0000
0000
0000
0000
0010
0100
0002
,  // measure 49
0000
0000
0000
0000
0000
1003
0100
1000
,  // measure 50
0000
0000
0100
0000
1000
0000
0010
0100
,  // measure 51
0000
0000
0010
0000
0100
0000
0001
0010
,  // measure 52
0000
0000
0100
0000
0010
0000
0001
1000
,  // measure 53
0000
0000
0001
0000
0100
0000
0010
1000
,  // measure 54
0000
0000
0001
0100
0000
0000
0001
0010
,  // measure 55
0000
0000
0100
1000
0000
0000
0100
1000
,  // measure 56
0001
0100
1000
0100
,  // measure 57
0010
0000
1000
0000
0001
0000
1000
2002
,  // measure 58
0000
0000
0000
3003
,  // measure 59
1000
0000
0100
0000
0010
0000
0001
2002
,  // measure 60
0000
0000
0000
3003
,  // measure 61
0001
1000
0010
1000
,  // measure 62
0200
0000
0000
1000
1300
0000
0000
0000
,  // measure 63
0020
0000
0000
0100
0130
0000
0000
0000
,  // measure 64
0001
0000
0100
0000
,  // measure 65
0010
0100
0001
1000
,  // measure 66
0001
0000
0100
0010
0000
0000
0000
0000
,  // measure 67
1000
0000
0100
0010
0000
0000
0000
0000
,  // measure 68
0001
0000
0100
0010
0000
0000
0000
0000
,  // measure 69
1000
0000
0100
0010
0000
0000
0100
1000
,  // measure 70
0200
0300
2000
3000
,  // measure 71
0020
0030
2000
3000
,  // measure 72
0002
0000
0003
0010
0100
0000
0000
0000
,  // measure 73
0011
1100
0011
0000
,  // measure 74
0001
0000
0100
0000
,  // measure 75
1000
0000
0100
0000
,  // measure 76
0001
0000
0010
0000
,  // measure 77
1000
0000
0010
0000
,  // measure 78
0100
0000
0000
2000
0000
0000
3000
0000
,  // measure 79
0001
0000
0000
0200
0000
0000
0310
1000
,  // measure 80
0001
1000
0100
0020
,  // measure 81
0000
0000
0000
0000
0000
0000
0001
0031
,  // measure 82
0000
0000
0000
0000
,  // measure 83
1000
0100
0000
0010
0001
0000
1000
0100
,  // measure 84
0000
0010
0001
0000
1001
0000
0000
0000
,  // measure 85
0001
0100
0000
0010
1000
0000
0001
0100
,  // measure 86
0000
0010
1000
0000
1001
0000
0000
0000
,  // measure 87
1000
0100
0000
0010
0001
0000
1000
0100
,  // measure 88
0000
0010
0001
0000
1001
0000
0000
0000
,  // measure 89
0001
0100
0000
0010
1000
0000
0001
0100
,  // measure 90
0000
0010
1000
0000
1001
0000
0000
0000
,  // measure 91
0001
0010
0000
0100
1000
0000
0001
0010
,  // measure 92
0000
0100
1000
0000
1001
0000
0000
0000
,  // measure 93
0010
0100
0000
0001
1000
0000
0010
0100
,  // measure 94
0000
0001
1000
0000
1001
0000
0000
0000
,  // measure 95
0001
0010
0000
0100
1000
0000
0001
0010
,  // measure 96
0000
0100
1000
0000
1001
0000
0000
0000
,  // measure 97
0100
0010
0000
1000
0001
0000
0100
0010
,  // measure 98
0000
1000
0001
0000
1000
1000
1000
0000
,  // measure 99
0001
0000
1000
0000
,  // measure 100
0010
0000
1000
0000
,  // measure 101
0001
0000
0010
0000
,  // measure 102
0001
0000
1000
0000
,  // measure 103
0100
0100
0000
0000
;

//---------------dance-single - Pandemonium X---------------
#NOTES:
     dance-single:
     Pandemonium X:
     Medium:
     12:
     0,0,0,0,0,0,0,0,0,0,0,0,0,0,0,0,0,0,0,0,0,0:
// measure 0
0000
0000
0000
0000
,  // measure 1
0000
0000
0000
0000
,  // measure 2
0000
0000
0000
0000
,  // measure 3
0000
0000
0000
0000
,  // measure 4
0000
0000
0000
0000
,  // measure 5
0000
0000
0000
0000
,  // measure 6
0001
0000
0020
0000
0000
0000
0000
0002
,  // measure 7
0000
0000
0000
0030
,  // measure 8
1003
0010
1000
0010
1000
0010
1000
0010
,  // measure 9
0200
1300
0200
0301
,  // measure 10
1000
0010
0000
0100
0001
0000
0010
0100
,  // measure 11
0010
0000
0001
0000
0100
0100
0100
0000
,  // measure 12
0001
1000
0010
1000
,  // measure 13
0100
0000
0010
0000
0001
0001
0001
0000
,  // measure 14
0010
0001
0000
1000
0100
0000
0010
0001
,  // measure 15
0100
0000
0001
0000
1000
1000
1000
0000
,  // measure 16
0001
0100
0010
1000
,  // measure 17
1010
0000
1001
0000
0001
0001
0001
0000
,  // measure 18
1000
0100
0000
0010
0001
0000
0100
0010
,  // measure 19
1000
0000
0100
0000
0010
0010
0010
0000
,  // measure 20
0100
0010
0001
0100
,  // measure 21
0010
0000
0100
0000
0001
0001
0001
0000
,  // measure 22
1000
0001
0000
0010
0100
0000
0010
0001
,  // measure 23
0100
0000
0001
0000
1000
1000
1000
0000
,  // measure 24
0100
0010
0001
0100
,  // measure 25
0010
0000
0010
0000
0000
0000
0100
0001
0010
0000
0000
0000
0000
0000
0000
0000
,  // measure 26
0200
0000
0000
0000
0000
0000
1000
1300
,  // measure 27
0000
0000
0100
0010
,  // measure 28
0200
0000
0000
0000
0000
0000
1000
1300
,  // measure 29
0000
0000
0100
0010
,  // measure 30
0002
0003
0000
0010
,  // measure 31
0001
1000
0100
0001
,  // measure 32
0100
0000
0000
0000
0000
0000
0010
0002
,  // measure 33
0000
0100
0100
0000
1000
0000
1003
0000
,  // measure 34
0001
0100
0001
0000
0100
0010
0100
0000
,  // measure 35
0010
1000
0010
0000
1000
0000
0001
0000
,  // measure 36
0010
0001
0010
0000
0100
0010
0100
0000
,  // measure 37
1000
0100
1000
0000
0100
0000
1000
0000
,  // measure 38
0001
0100
0010
0100
0001
0000
1001
0000
,  // measure 39
1000
0010
0100
0010
1000
0000
1001
0000
,  // measure 40
2000
0100
3001
0002
,  // measure 41
0100
0000
1003
0000
0001
1000
0001
1001
,  // measure 42
0000
1000
0100
1000
0100
1000
0100
0010
,  // measure 43
0000
0001
0100
0001
0100
0001
0100
0010
,  // measure 44
0000
1000
0001
1000
0001
1000
0001
0010
,  // measure 45
0000
0100
1000
0100
1000
0100
1000
0010
,  // measure 46
0000
0100
0001
0100
0001
0100
0001
0010
,  // measure 47
0000
0100
0010
0100
0010
0100
0010
0001
,  // measure 48
0200
0000
0000
0000
0000
0310
1000
0002
,  // measure 49
0000
0000
0000
0000
0003
1000
0001
1001
,  // measure 50
0000
0001
0100
0010
1000
0001
0010
0100
,  // measure 51
0000
0010
0001
0100
0010
1000
0100
0010
,  // measure 52
0000
0100
1000
0010
0100
0001
0010
0100
,  // measure 53
0000
0010
0001
0100
0000
0010
1000
0100
,  // measure 54
0000
0010
0001
0100
0000
0010
1000
0001
,  // measure 55
0000
0010
0100
1000
0000
0100
0010
0001
,  // measure 56
2000
3100
2000
3010
,  // measure 57
0200
0000
0302
0000
2003
0000
3010
2002
,  // measure 58
0000
0000
0000
3003
,  // measure 59
0001
0100
0010
1000
0100
0010
0100
2002
,  // measure 60
0000
0000
0000
3003
,  // measure 61
0001
0100
0010
0100
0000
0001
1000
0000
,  // measure 62
1200
0000
0000
0010
0310
0000
0000
0000
,  // measure 63
0021
0000
0000
0100
0130
0000
0000
0000
,  // measure 64
2001
0000
0000
3002
0000
0013
0100
1000
,  // measure 65
0200
0010
1300
0110
,  // measure 66
0002
0000
1003
1010
0000
0000
0000
0000
,  // measure 67
2000
0000
3001
0011
0000
0000
0000
0000
,  // measure 68
0002
0000
1003
1100
0000
0000
0000
0000
,  // measure 69
2000
0000
3001
0101
0000
0000
0001
0100
,  // measure 70
0020
1030
0020
0130
,  // measure 71
0002
0013
0200
1300
,  // measure 72
0002
0000
0000
1000
1003
0000
0000
0000
,  // measure 73
0001
0100
0010
1000
0100
0010
0000
0000
,  // measure 74
0001
0000
1000
0000
,  // measure 75
0200
0000
1300
0000
,  // measure 76
0001
0000
1000
0000
,  // measure 77
0020
0000
0130
0000
,  // measure 78
0001
0100
0001
0020
0000
0000
0030
0000
,  // measure 79
0100
1000
0010
0200
0000
0000
0310
1000
,  // measure 80
0100
2000
3200
0320
,  // measure 81
0000
0000
0000
0000
0000
0000
0000
0200
,  // measure 82
0000
0000
0030
1300
,  // measure 83
0001
0010
0000
0100
1000
0000
0001
0010
,  // measure 84
0000
0100
1000
0000
1100
0000
0000
0000
,  // measure 85
1000
0100
0000
0010
0001
0000
1000
0100
,  // measure 86
0000
0010
0001
0000
1001
0000
0000
0000
,  // measure 87
0001
0100
0000
0010
1000
0000
0001
0100
,  // measure 88
0000
0010
1000
0000
0101
0000
0000
0000
,  // measure 89
1000
0100
0000
0010
0001
0000
1000
0100
,  // measure 90
0000
0010
0001
0000
1001
0000
0000
0000
,  // measure 91
0001
0001
0000
0100
0100
0000
0010
0010
,  // measure 92
0000
1000
1000
0000
1100
0000
0000
0000
,  // measure 93
0100
0100
0000
0010
0010
0000
0001
0001
,  // measure 94
0000
1000
1000
0000
1001
0000
0000
0000
,  // measure 95
0001
0001
0000
0100
0100
0000
0010
0010
,  // measure 96
0000
1000
1000
0000
1010
0000
0000
0000
,  // measure 97
0010
0010
0000
0100
0100
0000
0001
0001
,  // measure 98
0000
1000
1000
0000
1001
0000
0000
0000
,  // measure 99
0002
0000
0003
0000
,  // measure 100
0200
0000
0300
0000
,  // measure 101
0020
0000
0030
0000
,  // measure 102
2000
0000
0000
0000
,  // measure 103
0002
0000
0000
0000
,  // measure 104
0000
0000
0000
0000
,  // measure 105
3003
0000
0000
0000
;

//---------------dance-single - Pandemonium X---------------
#NOTES:
     dance-single:
     Pandemonium X:
     Hard:
     13:
     0.570848,0.73406,0.198693,0.360591,0.033116,543,516,27,49,0,0,0.570848,0.73406,0.198693,0.360591,0.033116,543,516,27,49,0,0:
// measure 0
0000
0000
0000
0000
,  // measure 1
0000
0000
0000
0000
,  // measure 2
0000
0000
0000
0000
,  // measure 3
0000
0000
0000
0000
,  // measure 4
0000
0000
0000
0000
,  // measure 5
0000
0000
0000
0000
,  // measure 6
1000
0000
0002
0000
0000
0000
0000
0200
,  // measure 7
0000
0000
0000
0303
,  // measure 8
0001
0100
0010
1000
0001
0100
0010
1000
,  // measure 9
1010
0101
0011
1100
,  // measure 10
0001
0100
0000
0001
1000
0000
0001
0010
,  // measure 11
0100
0000
1000
0000
0100
0100
0100
0000
,  // measure 12
1000
0001
0100
0001
,  // measure 13
1000
0000
0100
0000
0010
0010
0010
0000
,  // measure 14
0100
0001
0000
0100
0010
0000
0100
1000
,  // measure 15
0010
0000
0100
0000
0001
0001
0001
0000
,  // measure 16
1000
0001
0100
0001
,  // measure 17
0010
0100
1000
0000
0001
0100
0010
1000
,  // measure 18
1000
0010
0000
1000
0001
0000
1000
0100
,  // measure 19
0010
0000
0001
0000
0100
0100
0100
0000
,  // measure 20
0001
1000
0010
1000
,  // measure 21
0010
0000
0100
0000
0001
0001
0001
0000
,  // measure 22
0100
1000
0000
0100
0001
0000
0100
0010
,  // measure 23
1000
0000
0100
0000
0010
0010
0010
0000
,  // measure 24
0100
1000
0001
0100
,  // measure 25
0020
0000
1000
0000
0000
0000
0130
0001
1000
0000
0000
0000
0000
0000
0000
0000
,  // measure 26
0200
0000
0000
0000
0000
0000
1300
0001
,  // measure 27
0000
0000
0100
0001
,  // measure 28
0020
0000
0000
0000
0000
0000
0031
1000
,  // measure 29
0000
0000
0010
1000
,  // measure 30
0002
0003
0000
1000
,  // measure 31
0100
0010
0100
1000
,  // measure 32
0002
0000
0000
0000
0000
0000
1000
1003
,  // measure 33
0010
0100
0001
0000
1000
0100
0100
0100
,  // measure 34
1000
0001
0010
0001
1000
0100
0010
0001
,  // measure 35
1000
0001
0010
0001
1000
0100
1000
0000
,  // measure 36
0001
1000
0100
1000
0001
0010
0100
1000
,  // measure 37
0001
1000
0100
1000
0001
0010
0001
1000
,  // measure 38
0100
0000
0001
0100
1000
0000
1010
0000
,  // measure 39
0010
0000
0001
0010
1000
0000
1100
0000
,  // measure 40
1002
0000
1000
0000
0013
0001
0010
0200
,  // measure 41
0000
0000
0000
0000
0000
0310
0001
1000
,  // measure 42
0000
0001
0100
1000
0100
0010
1000
0001
,  // measure 43
0000
1000
0100
0001
0100
0010
0001
1000
,  // measure 44
0000
0010
0001
0010
0100
0001
1000
0100
,  // measure 45
0000
0010
1000
0010
0100
1000
0001
0100
,  // measure 46
0000
0010
0001
0010
1000
0100
0010
0001
,  // measure 47
0000
0001
0010
1000
0010
0001
0010
0100
,  // measure 48
2000
0000
0100
0000
3010
0100
0001
0020
,  // measure 49
0100
0000
0001
0000
0130
1000
0001
0100
,  // measure 50
0000
0001
1000
1000
0001
0010
0100
1100
,  // measure 51
0000
1000
0001
0001
0100
0001
0010
0011
,  // measure 52
0000
0001
0010
0010
0100
0010
0001
1001
,  // measure 53
0000
1000
0010
1010
0000
0001
1000
1100
,  // measure 54
0000
0100
0010
0110
0000
1000
0001
0101
,  // measure 55
0000
0001
1000
1010
0000
0010
1000
0001
,  // measure 56
0200
0301
0020
0130
,  // measure 57
2000
0000
3200
0000
0320
0000
0031
2001
,  // measure 58
0000
0000
0000
0000
3100
0000
0010
0000
0001
0000
0100
0001
0100
0000
0010
1000
,  // measure 59
0010
0100
0001
0010
0100
1000
0001
2001
,  // measure 60
0000
0000
0000
0000
3001
0000
0100
0000
0010
0000
1000
0010
1000
0000
0001
0100
,  // measure 61
0001
1000
0100
0010
0000
0100
1000
0001
,  // measure 62
0200
0000
0000
0310
1010
0000
0001
0000
,  // measure 63
2000
0000
0000
3001
0011
0000
1000
0000
,  // measure 64
0002
0000
0013
0000
0002
0000
1003
0100
,  // measure 65
1000
0100
0010
0001
0010
0001
0100
0001
,  // measure 66
2000
0000
3010
1010
0000
0000
0000
0000
,  // measure 67
0002
0000
0013
0011
0000
0000
0000
0000
,  // measure 68
0200
0000
1300
1100
0000
0000
0000
0000
,  // measure 69
0002
0000
1003
1001
0000
0000
1000
0001
,  // measure 70
0200
0000
0310
1000
0200
0000
0310
0001
,  // measure 71
0020
0000
0031
1000
0020
0000
0130
0000
,  // measure 72
0002
0000
0013
0100
2000
0000
3001
0000
,  // measure 73
1000
0010
1000
0000
0001
0000
0010
0001
0010
0100
0010
0001
1000
0000
0000
0000
,  // measure 74
0001
0000
0100
0000
,  // measure 75
0020
0000
0130
0000
,  // measure 76
0001
0000
1000
0000
,  // measure 77
0200
0000
1300
0000
,  // measure 78
0001
0010
0100
0020
0000
0000
0000
0000
,  // measure 79
0031
1000
0001
0200
0000
0000
0310
1000
,  // measure 80
0002
0103
0020
2030
,  // measure 81
0000
0000
0000
0000
0000
0000
0000
0002
,  // measure 82
0000
0000
0000
0000
3000
0000
1003
0100
,  // measure 83
0010
0010
0001
0100
0100
0010
1000
1000
,  // measure 84
0001
0010
0010
0000
1100
1000
1000
0000
,  // measure 85
0010
0010
1000
0001
0001
0010
0100
0100
,  // measure 86
1000
0010
0010
0000
1001
0001
0001
0000
,  // measure 87
0100
0100
0001
1000
1000
0100
0010
0010
,  // measure 88
0001
0100
0100
0000
1010
1000
1000
0000
,  // measure 89
0100
0100
0010
0001
0001
1000
0010
0010
,  // measure 90
1000
0001
0001
0000
0101
0001
0001
0000
,  // measure 91
1000
0100
0001
0100
1000
0100
0001
0100
,  // measure 92
1000
0100
0001
0000
1100
1000
1000
0000
,  // measure 93
0001
0100
1000
0100
0001
0100
1000
0100
,  // measure 94
0001
0100
1000
0000
0101
0001
0001
0000
,  // measure 95
0001
0010
1000
0010
0001
0010
1000
0010
,  // measure 96
0001
0010
1000
0000
0011
0001
0001
0000
,  // measure 97
0001
0010
1000
0010
0001
0010
1000
0010
,  // measure 98
0001
0010
1000
0000
0011
0001
0001
0000
,  // measure 99
2000
0000
3200
0000
,  // measure 100
0320
0000
0032
0000
,  // measure 101
0023
0000
0032
0000
,  // measure 102
2003
0000
3020
0000
,  // measure 103
2000
0000
0000
0000
,  // measure 104
0000
0000
0000
0000
,  // measure 105
3030
0000
0000
0000
;

//---------------dance-single - Pandemonium X---------------
#NOTES:
     dance-single:
     Pandemonium X:
     Challenge:
     16:
     0,0,0,0,0:
// measure 0
0000
0000
0000
0000
,  // measure 1
0000
0000
0000
0000
,  // measure 2
0000
0000
0000
0000
,  // measure 3
0000
0000
0000
0000
,  // measure 4
0000
0000
0000
0000
,  // measure 5
0000
0000
0000
0000
,  // measure 6
1001
0000
2000
0000
0000
0000
0000
0020
,  // measure 7
0000
0000
0000
3000
,  // measure 8
1030
0001
1000
0001
1000
0001
1000
0001
1000
0001
1000
0001
1000
0001
1000
0001
,  // measure 9
2000
3200
0320
0032
,  // measure 10
1003
1000
0100
0010
0010
0001
0100
0100
,  // measure 11
0010
1000
0001
0010
0110
0110
0110
0000
,  // measure 12
0100
0010
0001
0000
0010
0100
1000
0000
,  // measure 13
0100
0010
0001
0100
0110
0110
0110
0000
,  // measure 14
1000
1000
0001
0010
0010
0001
0100
0100
,  // measure 15
0010
1000
0100
0010
0011
0011
0011
0000
,  // measure 16
0010
0001
0100
0000
0010
1000
0100
0000
,  // measure 17
0010
0000
0100
0000
1000
0000
0001
0000
1000
0010
1000
0000
0001
0100
0001
0000
,  // measure 18
0010
0010
0100
1000
1000
0001
0100
0100
,  // measure 19
0010
1000
0001
0010
0110
0110
0110
0000
,  // measure 20
0100
1000
0010
0000
0100
0001
0010
0000
,  // measure 21
0100
0010
0001
0100
0101
0101
0101
0000
,  // measure 22
0001
0001
0100
0010
0010
1000
0001
0001
,  // measure 23
0010
0100
1000
0100
0110
0110
0110
0000
,  // measure 24
0100
1000
0010
0000
0100
0010
1000
0000
,  // measure 25
0001
0000
1000
0000
0000
0000
0100
0010
0001
0000
0000
0000
0000
0000
0000
0000
,  // measure 26
1000
1000
0000
0001
0001
0000
1000
1000
,  // measure 27
0000
0000
0000
0000
,  // measure 28
0001
0001
0000
1000
1000
0000
0001
0001
,  // measure 29
0000
0000
0000
0000
,  // measure 30
0100
0100
0000
0010
0010
0000
0100
0100
,  // measure 31
0000
0000
0000
0000
,  // measure 32
0010
0100
0001
1000
,  // measure 33
0001
0010
0001
0000
1000
0010
0010
0010
,  // measure 34
1000
0001
0010
0001
1000
0100
0010
0001
,  // measure 35
1000
0001
0010
0001
1000
0100
1000
0001
,  // measure 36
1000
0001
0010
0001
1000
0100
0010
0001
,  // measure 37
1000
0001
0010
0001
1000
0100
1000
0001
,  // measure 38
0100
0000
0001
0020
0000
0000
1030
0000
,  // measure 39
0010
0000
0001
0200
0000
0000
1300
0000
,  // measure 40
0102
0000
0100
0000
1003
0001
0010
0200
,  // measure 41
0000
0000
0000
0000
0000
0310
0001
MMMM
,  // measure 42
0000
0001
0100
0010
1000
0001
0010
MMMM
,  // measure 43
0000
1000
0100
1000
0001
1000
0100
MMMM
,  // measure 44
0000
0100
0010
0001
0100
0010
1000
MMMM
,  // measure 45
0000
1000
0010
1000
0001
0010
0001
MMMM
,  // measure 46
0000
0001
0100
0010
1000
0100
0010
MMMM
,  // measure 47
0000
0010
0001
0100
0010
1000
0001
0010
,  // measure 48
0002
0000
1000
0000
1003
0001
0100
1000
,  // measure 49
0200
0010
0010
0000
0301
1000
0001
MMMM
,  // measure 50
0000
0001
1000
0100
0010
0100
1000
MMMM
,  // measure 51
0000
0100
0010
1000
0001
0010
0100
MMMM
,  // measure 52
0000
0001
0100
0010
1000
0001
1000
MMMM
,  // measure 53
0000
1000
0001
MMMM
0000
0001
1000
MMMM
,  // measure 54
0000
1000
0001
MMMM
0000
0001
1000
MMMM
,  // measure 55
0000
1000
0001
MMMM
0000
0001
0010
0100
,  // measure 56
1000
0010
1000
0010
0100
0001
0100
0001
,  // measure 57
1001
0000
0011
0000
0101
0000
1000
2001
,  // measure 58
0000
0000
0000
0000
3001
0100
0001
1000
0100
0000
0010
0100
1000
0000
0100
0010
,  // measure 59
0001
0100
0001
1000
0100
0010
0011
1200
,  // measure 60
0000
0000
0000
0000
0310
0000
0100
1000
0001
0000
0010
0100
1000
0000
0100
0010
,  // measure 61
0001
0000
0100
0000
0010
0000
1000
0000
0100
0000
1000
0100
1000
0000
0000
0000
,  // measure 62
2100
0000
0000
3001
0010
0000
0100
0000
1000
0000
0001
0000
0101
0000
0000
0000
,  // measure 63
0012
0000
0000
1003
0010
0000
0100
0000
0001
0000
0010
0000
0110
0000
0000
0000
,  // measure 64
1002
0000
0000
1003
0100
0000
0010
0000
0100
0000
1000
0000
0001
0000
0100
0000
,  // measure 65
0010
1000
0010
0000
0100
0000
0001
0100
0001
0000
1000
0000
0001
0000
0000
0000
,  // measure 66
1000
0100
1000
0100
1000
0000
0001
0100
0001
0100
0001
0000
1000
0100
1000
0000
,  // measure 67
0001
0010
0001
0010
0001
0000
1000
0010
1000
0010
1000
0000
0001
0010
0001
0000
,  // measure 68
1000
0100
1000
0100
1000
0000
0001
0010
0001
0010
0001
0000
1000
0100
1000
0000
,  // measure 69
0001
0100
0001
0100
0001
0000
1000
0010
1000
0010
1000
0000
0001
0100
0001
0000
,  // measure 70
2000
0000
3100
1000
0020
0000
0130
1000
,  // measure 71
0200
0000
0310
1000
0200
0000
1300
0001
,  // measure 72
0200
0000
0310
1000
0200
0000
0310
0000
,  // measure 73
0001
0010
0100
1000
0100
0010
0100
1000
0001
0100
0010
1000
0100
0010
0100
1000
,  // measure 74
0002
0000
0200
0003
,  // measure 75
2000
0300
0020
3000
,  // measure 76
0002
0030
0200
0003
,  // measure 77
2000
0300
0020
3000
,  // measure 78
0031
0001
1000
0020
0000
0000
0000
0000
,  // measure 79
1030
1000
0001
0020
0000
0000
0031
1000
,  // measure 80
0020
0230
0302
2000
,  // measure 81
0000
0000
0000
0000
0000
0003
0001
0002
,  // measure 82
0000
0000
0000
0000
3000
1003
0100
0010
,  // measure 83
0001
0001
0010
0100
0100
1000
0010
0010
,  // measure 84
0100
0001
0001
1000
1001
0101
1001
0000
,  // measure 85
1000
1000
0100
1000
1000
0010
0100
0100
,  // measure 86
0010
1000
1000
0100
1100
1010
1100
0000
,  // measure 87
1000
1000
0001
0010
0010
0100
0010
0010
,  // measure 88
0001
0100
0100
0010
1010
0110
0101
0000
,  // measure 89
1000
1000
0001
0010
0010
0100
1000
1000
,  // measure 90
0100
0010
0010
0001
0011
1100
0011
0001
,  // measure 91
0020
0030
0000
0000
0020
0030
0000
0000
1000
0000
0000
0000
0020
0030
0000
0000
0020
0030
0000
0000
0001
0000
0000
0000
0020
0030
0000
0000
0020
0030
0000
0000
,  // measure 92
1000
0000
0000
0000
0020
0030
0000
0000
0020
0030
0000
0000
0001
0000
0000
0000
1001
0000
0000
0000
1001
0000
0000
0000
1001
0000
0000
0000
1000
0000
0000
0000
,  // measure 93
0020
0030
0000
0000
0020
0030
0000
0000
0001
0000
0000
0000
0020
0030
0000
0000
0020
0030
0000
0000
1000
0000
0000
0000
0020
0030
0000
0000
0020
0030
0000
0000
,  // measure 94
0001
0000
0000
0000
0020
0030
0000
0000
0020
0030
0000
0000
1000
0000
0000
0000
1001
0000
0000
0000
1001
0000
0000
0000
1001
0000
0000
0000
1000
0000
0000
0000
,  // measure 95
0200
0300
0000
0000
0200
0300
0000
0000
0001
0000
0000
0000
0200
0300
0000
0000
0200
0300
0000
0000
1000
0000
0000
0000
0200
0300
0000
0000
0200
0300
0000
0000
,  // measure 96
0001
0000
0000
0000
0200
0300
0000
0000
0200
0300
0000
0000
1000
0000
0000
0000
1001
0000
0000
0000
1001
0000
0000
0000
1001
0000
0000
0000
0001
0000
0000
0000
,  // measure 97
0200
0300
0000
0000
0200
0300
0000
0000
1000
0000
0000
0000
0200
0300
0000
0000
0200
0300
0000
0000
0001
0000
0000
0000
0200
0300
0000
0000
0200
0300
0000
0000
,  // measure 98
1000
0000
0000
0000
0200
0300
0000
0000
0200
0300
0000
0000
0001
0000
0000
0000
1001
0000
0000
0000
1001
0000
0000
0000
0001
0000
1000
0000
0001
0000
1000
0000
,  // measure 99
0002
0000
0203
0000
,  // measure 100
2300
0000
3020
0000
,  // measure 101
0032
0000
0203
0000
,  // measure 102
2300
0000
3020
0000
,  // measure 103
0001
0031
0000
0000
;
