#TITLE:n'pa pa BBQ;
#SUBTITLE:;
#ARTIST:YUC'e;
#MUSIC:n'pa pa BBQ.ogg;
#BANNER:;
#BACKGROUND:n'pa pa BBQ-bg.png;
#LYRICSPATH:;
#CDTITLE:;
#SAMPLESTART:37.498;
#SAMPLELENGTH:14.904;
#OFFSET:0.902;
#BPMS:0.000000=150.000000,
100.000000=300.000000,
228.000000=150.000000,
292.000000=300.000000
;
#STOPS:;
#TIMESIGNATURES:;
#BGCHANGES:;
#FGCHANGES:;
#ATTACKS:;
#SPEEDS:;
#SCROLLS:;

//---------------dance-single - P.X. Masterpiece---------------
#NOTES:
     dance-single:
     P.X. Masterpiece:
     Beginner:
     6:
     0,0,0,0,0:
// measure 0
0000
0000
0000
0000
,  // measure 1
0000
0000
0000
0000
,  // measure 2
0000
0000
0000
0000
,  // measure 3
0000
0000
0000
0000
,  // measure 4
0000
0000
0000
0000
,  // measure 5
0001
0001
0001
0000
,  // measure 6
1000
1000
1000
0000
,  // measure 7
0001
0001
0001
0000
,  // measure 8
1000
0000
0001
0000
,  // measure 9
0110
0000
0001
0000
,  // measure 10
1000
1000
1000
0000
,  // measure 11
0001
0000
0010
0000
,  // measure 12
0100
0000
2000
0000
,  // measure 13
3010
0000
0010
0000
,  // measure 14
0100
0100
0100
0000
,  // measure 15
0001
0001
0001
0000
,  // measure 16
1001
0110
1001
0110
,  // measure 17
0001
0001
0001
0000
,  // measure 18
1000
1000
1000
0000
,  // measure 19
0010
0010
0010
0010
,  // measure 20
0010
0010
0010
0000
,  // measure 21
0100
0100
0100
0000
,  // measure 22
0001
0001
0001
0000
,  // measure 23
1000
1000
2000
0000
,  // measure 24
3000
0000
0000
0000
,  // measure 25
0001
0000
0001
0000
,  // measure 26
0001
0000
0000
0000
,  // measure 27
1000
0000
1000
0000
,  // measure 28
1000
0000
0000
0000
,  // measure 29
0010
0000
0010
0000
,  // measure 30
0100
0000
0000
0000
,  // measure 31
0010
0000
0100
0000
,  // measure 32
1001
0000
0000
0000
,  // measure 33
0001
0000
0001
0000
,  // measure 34
1000
0000
0000
0000
,  // measure 35
0100
0000
0100
0000
,  // measure 36
0010
0000
0000
0000
,  // measure 37
0001
0000
0001
0000
,  // measure 38
0010
0000
0000
0000
,  // measure 39
0100
0000
0010
0000
,  // measure 40
0001
0000
0000
0000
,  // measure 41
1000
0000
0000
0000
,  // measure 42
1001
0000
0000
0000
,  // measure 43
0001
0000
1000
0000
,  // measure 44
0010
0000
0000
0000
,  // measure 45
1000
0000
0001
0000
,  // measure 46
0010
0000
0000
0000
,  // measure 47
0100
0000
0100
0000
,  // measure 48
2000
0000
3000
0000
,  // measure 49
0001
0000
0001
0000
,  // measure 50
0001
0000
0000
0000
,  // measure 51
1000
0000
1000
0000
,  // measure 52
1000
0000
0000
0000
,  // measure 53
0100
0000
0100
0000
,  // measure 54
0100
0000
0000
0000
,  // measure 55
0110
0000
1001
0000
,  // measure 56
0110
0000
1001
0000
,  // measure 57
0001
0000
0001
0000
,  // measure 58
1000
0001
1000
0000
,  // measure 59
0010
0000
0100
0000
,  // measure 60
0010
0100
0010
0000
,  // measure 61
1000
0000
0100
0000
,  // measure 62
0010
0001
0010
0000
,  // measure 63
0001
0000
0100
0000
,  // measure 64
0010
0010
0100
0100
,  // measure 65
0001
0001
0001
0000
,  // measure 66
1000
1000
1000
0000
,  // measure 67
0010
0010
0010
0010
,  // measure 68
0010
0010
0010
0000
,  // measure 69
0100
0100
0100
0000
,  // measure 70
0010
0010
0010
0000
,  // measure 71
1000
1000
2000
0000
,  // measure 72
3000
0000
0000
0000
,  // measure 73
0001
0000
0001
0000
,  // measure 74
0001
0000
0000
0000
,  // measure 75
1000
0000
1000
0000
,  // measure 76
1000
0000
0000
0000
,  // measure 77
0010
0000
0010
0000
,  // measure 78
0100
0000
0000
0000
,  // measure 79
0001
0000
1000
0000
,  // measure 80
0020
0000
0030
0000
,  // measure 81
0100
0000
0100
0000
,  // measure 82
0100
0000
0000
0000
,  // measure 83
0010
0000
0010
0000
,  // measure 84
0010
0000
0000
0000
,  // measure 85
1000
0000
1000
0000
,  // measure 86
1000
0000
0000
0000
,  // measure 87
1001
0000
0110
0000
,  // measure 88
1001
0000
0000
0000
,  // measure 89
0000
0000
0000
0000
,  // measure 90
1001
0000
0000
0000
,  // measure 91
0001
0000
0010
0000
,  // measure 92
0100
0000
0000
0000
,  // measure 93
1000
0000
0100
0000
,  // measure 94
0010
0000
0000
0000
,  // measure 95
0100
0000
1000
0000
,  // measure 96
0002
0000
0003
0000
,  // measure 97
0100
0000
0100
0000
,  // measure 98
0100
0000
0000
0000
,  // measure 99
0010
0000
0010
0000
,  // measure 100
0010
0000
0000
0000
,  // measure 101
1000
0000
1000
0000
,  // measure 102
1000
0000
0000
0000
,  // measure 103
1000
0000
0100
0000
,  // measure 104
0010
0000
0011
0000
,  // measure 105
1001
0000
0000
0000
;

//---------------dance-single - P.X. Masterpiece---------------
#NOTES:
     dance-single:
     P.X. Masterpiece:
     Easy:
     8:
     0,0,0,0,0:
// measure 0
0000
0000
0000
0000
,  // measure 1
0000
0000
0000
0000
,  // measure 2
0000
0000
0000
0000
,  // measure 3
0000
0000
0000
0000
,  // measure 4
0000
0000
0000
0000
,  // measure 5
0002
0100
0010
0013
,  // measure 6
0001
0100
0010
0010
,  // measure 7
1000
0100
0010
0010
,  // measure 8
0100
1000
0001
0100
,  // measure 9
0001
0000
1000
0000
,  // measure 10
0001
1000
0001
0000
,  // measure 11
0100
0100
0010
1000
,  // measure 12
0100
1000
0020
1000
,  // measure 13
0130
0010
1000
0001
,  // measure 14
0010
0001
1000
0100
,  // measure 15
0010
0010
0100
0100
,  // measure 16
1100
0101
1100
1001
,  // measure 17
0001
0001
0001
0000
,  // measure 18
1000
1000
1000
0000
,  // measure 19
0010
0010
0010
0010
,  // measure 20
0010
0010
0010
1001
,  // measure 21
0100
0100
0100
0000
,  // measure 22
0001
0001
0001
0000
,  // measure 23
1000
0000
1000
0000
2000
0000
0000
3000
,  // measure 24
0000
0000
0000
0000
,  // measure 25
0101
0000
0101
0000
,  // measure 26
1000
0000
0100
0000
,  // measure 27
0011
0000
0011
0000
,  // measure 28
0010
0000
0100
0000
,  // measure 29
1001
0000
1001
0000
,  // measure 30
1000
0000
0001
0000
,  // measure 31
0100
0000
0001
0000
,  // measure 32
0020
0000
0130
0000
,  // measure 33
1100
0000
1100
0000
,  // measure 34
0010
0000
0001
0000
,  // measure 35
0101
0000
0101
0000
,  // measure 36
1000
0000
0010
0000
,  // measure 37
1001
0000
1001
0000
,  // measure 38
1000
0000
0100
0000
,  // measure 39
1100
0000
0101
0000
,  // measure 40
2002
0000
3003
0000
,  // measure 41
0000
0000
0000
0000
,  // measure 42
0002
0000
0003
0000
,  // measure 43
0110
0000
0110
0000
,  // measure 44
0010
0000
0100
0000
,  // measure 45
0101
0000
0101
0000
,  // measure 46
0001
0000
1000
0000
,  // measure 47
0100
0000
0010
0000
,  // measure 48
0200
0000
1300
0000
,  // measure 49
0100
0000
0100
0000
,  // measure 50
0010
0000
0010
0000
,  // measure 51
0001
0000
0001
0000
,  // measure 52
1000
0000
1000
0000
,  // measure 53
0001
0000
0100
0000
,  // measure 54
0010
0000
1000
0000
,  // measure 55
1001
0000
0101
0000
,  // measure 56
1001
0000
1100
0000
,  // measure 57
0011
0000
0010
0000
,  // measure 58
0100
0100
0100
0000
,  // measure 59
1000
0001
1000
0000
,  // measure 60
0001
0000
0100
0000
0001
0000
0020
0030
,  // measure 61
0100
0000
0100
0000
,  // measure 62
1000
1000
1000
0001
,  // measure 63
1000
0100
1000
0010
,  // measure 64
1010
0011
1010
1001
,  // measure 65
0001
0001
0001
0000
,  // measure 66
1000
1000
1000
0000
,  // measure 67
0010
0010
0010
0010
,  // measure 68
0010
0010
0010
1001
,  // measure 69
0100
0100
0100
0000
,  // measure 70
0010
0010
0010
0000
,  // measure 71
1000
1000
1000
1000
,  // measure 72
0000
0000
0000
0000
,  // measure 73
0001
0000
1000
0000
,  // measure 74
0100
0000
0000
0000
,  // measure 75
1000
0000
0001
0000
,  // measure 76
0100
0000
0000
0000
,  // measure 77
0101
0000
0101
0000
,  // measure 78
0001
0000
1000
0000
,  // measure 79
0100
0000
1000
0000
,  // measure 80
0020
0000
0130
0000
,  // measure 81
0101
0000
0110
0000
,  // measure 82
0100
0000
0010
0000
,  // measure 83
1010
0000
0110
0000
,  // measure 84
0010
0000
0100
0000
,  // measure 85
0101
0000
0011
0000
,  // measure 86
0010
0000
0100
0000
,  // measure 87
1100
0000
0101
0000
,  // measure 88
2002
0000
3003
0000
,  // measure 89
0000
0000
0000
0000
,  // measure 90
1010
0000
0000
0000
,  // measure 91
1100
0000
0011
0000
,  // measure 92
0001
0000
0100
0000
,  // measure 93
0101
0000
1010
0000
,  // measure 94
1000
0000
0001
0000
,  // measure 95
1000
0000
0100
0000
,  // measure 96
2000
0000
3001
0000
,  // measure 97
1010
0000
0101
0000
,  // measure 98
0001
0000
0010
0000
,  // measure 99
0110
0000
1100
0000
,  // measure 100
0100
0000
1000
0000
,  // measure 101
0101
0000
0101
0000
,  // measure 102
0011
0000
1100
0000
,  // measure 103
2000
0000
3200
0000
,  // measure 104
0320
0000
0032
0000
,  // measure 105
0103
0000
0000
0000
;

//---------------dance-single - P.X. Masterpiece---------------
#NOTES:
     dance-single:
     P.X. Masterpiece:
     Medium:
     13:
     0,0,0,0,0:
// measure 0
0000
0000
0000
0000
,  // measure 1
0000
0000
0000
0000
,  // measure 2
0000
0000
0000
0000
,  // measure 3
0000
0000
0000
0000
,  // measure 4
0000
0000
0000
0000
,  // measure 5
0000
0000
0001
0000
0010
0000
0001
0000
1000
0000
0000
1000
0000
0000
1000
0000
,  // measure 6
0000
0000
0100
0000
1000
0000
0010
0000
0100
0000
0000
0100
0000
0000
0100
0000
,  // measure 7
0000
0000
0001
0000
0010
0000
0100
0000
0010
0000
0000
0010
0000
0000
0010
0000
,  // measure 8
0001
0000
0000
0000
0010
0000
0001
0000
1000
0000
0000
1000
0000
0000
1000
0000
,  // measure 9
0100
1000
0010
0100
,  // measure 10
1000
0100
0001
0010
,  // measure 11
0100
0010
0001
0010
,  // measure 12
1000
0000
0010
0000
0001
0010
0100
1000
,  // measure 13
0001
0100
1000
0100
,  // measure 14
0010
0001
0010
0100
,  // measure 15
0001
0010
1000
0010
,  // measure 16
0001
0000
0000
0001
1000
0000
0000
1000
0001
0000
0000
0001
1000
0000
0000
0000
,  // measure 17
1100
0000
1100
0000
1100
0000
0000
0110
,  // measure 18
0000
0110
0110
0000
,  // measure 19
0011
0011
0011
0011
,  // measure 20
0011
0011
1100
0000
,  // measure 21
0101
0101
0101
0000
,  // measure 22
1010
1010
1010
0000
,  // measure 23
1001
0000
1001
0000
0001
0100
0010
1000
,  // measure 24
0000
0000
0001
0000
0010
0000
1000
0000
0010
0000
0000
0001
0000
0000
0100
0000
,  // measure 25
0110
0000
0110
0000
,  // measure 26
0100
0000
0000
0001
0000
0000
1000
0000
,  // measure 27
1100
0000
1100
0000
,  // measure 28
1000
0000
0000
0100
0000
0000
1000
0000
,  // measure 29
1001
0000
1001
0000
,  // measure 30
0001
0000
0000
0100
0000
0000
0001
0000
,  // measure 31
1000
0010
0100
0001
,  // measure 32
0020
0000
0130
0000
,  // measure 33
0011
0000
0011
0000
,  // measure 34
0001
0000
0000
0100
0000
0000
0010
0000
,  // measure 35
1010
0000
1010
0000
,  // measure 36
1000
0000
0000
0010
0000
0000
0100
0000
,  // measure 37
0101
0000
0101
0000
,  // measure 38
0100
0000
0000
0010
0000
0000
1000
0000
,  // measure 39
2001
0000
3200
0000
,  // measure 40
2300
0000
0002
0000
,  // measure 41
3003
0000
0000
0000
,  // measure 42
0001
1000
0001
1000
0000
0000
0001
0000
,  // measure 43
0101
0000
0101
0000
,  // measure 44
0001
0000
0000
1000
0000
0000
0100
0000
,  // measure 45
0110
0000
0110
0000
,  // measure 46
0010
0000
0000
0100
0000
0000
1000
0000
,  // measure 47
0001
0100
1000
0100
,  // measure 48
0002
0000
0013
0000
,  // measure 49
0100
1000
0100
1000
,  // measure 50
0100
0000
0000
0100
0000
0000
0100
0000
,  // measure 51
0010
0001
0010
0001
,  // measure 52
0010
0000
0000
0010
0000
0000
0010
0000
,  // measure 53
0001
0010
0100
1000
,  // measure 54
0001
0100
0010
1000
,  // measure 55
0001
0000
0100
0000
0001
0000
0100
0000
0010
0000
1000
0000
,  // measure 56
0010
0000
1000
0000
0100
0000
0010
0000
0000
0000
0000
0000
,  // measure 57
0100
1000
0010
0100
,  // measure 58
1000
0100
0001
0010
,  // measure 59
1000
0010
0001
0100
,  // measure 60
0001
0000
1000
0000
0100
0000
0020
0230
,  // measure 61
1300
0100
1000
0010
,  // measure 62
0001
0010
0100
0010
,  // measure 63
0001
0010
0100
0001
,  // measure 64
1000
0000
0000
1000
0100
0000
0000
0100
0010
0000
0000
0010
0001
0000
0000
0000
,  // measure 65
1010
1010
1010
0000
,  // measure 66
0101
0101
0101
0000
,  // measure 67
0011
0011
0011
0011
,  // measure 68
0011
0011
0011
0000
,  // measure 69
1100
1100
1100
0000
,  // measure 70
1010
1010
1010
0000
,  // measure 71
1001
0000
1001
0000
1000
0100
0010
0001
,  // measure 72
0000
0000
0100
0000
0010
0000
1000
0000
1001
0000
0000
1001
0000
0000
1001
0000
,  // measure 73
0101
0000
0101
0000
,  // measure 74
0011
0000
0000
0110
0000
0000
1100
0000
,  // measure 75
1001
0000
1001
0000
,  // measure 76
0101
0000
0000
0012
0000
0000
0000
0000
,  // measure 77
0103
0000
0001
0000
,  // measure 78
0010
0000
0000
0100
0000
0000
0010
0000
,  // measure 79
0001
0100
0010
1000
,  // measure 80
0200
0000
1300
0000
,  // measure 81
0001
1000
0100
1000
,  // measure 82
0001
0000
0000
0001
0000
0000
0001
0000
,  // measure 83
0100
0010
1000
0100
,  // measure 84
0010
0000
0000
0010
0000
0000
0010
0000
,  // measure 85
0100
1000
0001
0100
,  // measure 86
0001
0000
0000
0001
0000
0000
0001
0000
,  // measure 87
2000
0000
3200
0000
,  // measure 88
0320
0000
0002
0000
,  // measure 89
0033
0000
0000
0000
,  // measure 90
0001
1000
0001
1000
0000
0000
0001
0000
,  // measure 91
1001
0000
0101
0000
,  // measure 92
0001
0000
0000
0100
0000
0000
0010
0000
,  // measure 93
1010
0000
0101
0000
,  // measure 94
0001
0000
0000
0010
0000
0000
0100
0000
,  // measure 95
0010
0001
0010
0100
,  // measure 96
2000
0000
3001
0000
,  // measure 97
0100
0001
0010
0001
,  // measure 98
0100
0000
0000
0100
0000
0000
0100
0000
,  // measure 99
0010
1000
0100
0010
,  // measure 100
0001
0000
0000
0001
0000
0000
0001
0000
,  // measure 101
0010
0001
0100
0010
,  // measure 102
1000
0001
0010
0100
,  // measure 103
1000
0100
1000
0100
0010
0100
0010
0100
,  // measure 104
0010
0001
0010
0001
0010
0000
0000
0000
,  // measure 105
1001
0000
0000
0000
;

//---------------dance-single - P.X. Masterpiece---------------
#NOTES:
     dance-single:
     P.X. Masterpiece:
     Hard:
     16:
     0,0,0,0,0:
// measure 0
0000
0000
0000
0000
,  // measure 1
0000
0000
0000
0000
,  // measure 2
0000
0000
0000
0000
,  // measure 3
0000
0000
0000
0000
,  // measure 4
0000
0000
0000
0000
,  // measure 5
1001
0000
0001
0000
0001
0000
0001
0000
0010
0000
0010
0100
0000
0100
1000
0000
,  // measure 6
1010
0000
1000
0000
1000
0000
1000
0000
0010
0000
0010
0100
0000
0100
0010
0000
,  // measure 7
0110
0000
0010
0000
0010
0000
0010
0000
0100
0000
0100
0001
0000
0010
0100
0000
,  // measure 8
0210
0000
1000
0000
0310
0001
0010
0100
1000
0000
1000
0100
0000
0010
0001
0000
,  // measure 9
1000
0000
0010
0000
1000
0000
0010
0100
0000
0100
0001
0000
0010
0000
0001
0000
,  // measure 10
1000
0000
0100
0000
1000
0000
0100
0010
0000
0010
0100
0000
1000
0000
0001
0000
,  // measure 11
0100
0010
0100
0010
1000
0010
1000
0010
,  // measure 12
1000
0000
0100
0000
0010
0000
0100
0000
1000
0100
0010
0001
2000
0000
0000
0000
,  // measure 13
3001
0000
1000
0000
0010
0000
1000
0001
0000
0001
0010
0000
0001
0000
1000
0000
,  // measure 14
0001
0000
0100
0000
0001
0000
1000
0100
0000
0100
0010
0000
0100
0000
1000
0000
,  // measure 15
0010
0000
0100
0010
0100
0000
0100
0010
0100
0000
0200
0000
0300
0000
0002
0000
,  // measure 16
4003
0000
3100
0010
0400
0000
1300
0010
0400
0000
0301
1000
0100
0010
0100
0010
,  // measure 17
0001
0001
0001
0001
0001
1001
0000
0010
,  // measure 18
0000
0010
0010
0010
0110
0000
0000
0000
,  // measure 19
0100
0100
0100
0100
0100
0000
0100
0100
,  // measure 20
0000
0100
0100
0100
0110
0000
1001
0000
,  // measure 21
0001
0001
0001
0001
0001
1001
0000
1000
,  // measure 22
0000
1000
1000
1000
1100
0000
0000
0000
,  // measure 23
0100
0000
0100
0000
0100
0000
0100
0000
0100
0010
0100
0010
0100
0010
0100
0000
,  // measure 24
0000
0000
0010
0000
0100
0000
0010
0000
1001
0000
0000
1001
0000
0000
1001
0000
,  // measure 25
1100
1000
1100
0100
,  // measure 26
1000
0100
0010
0100
0000
0100
0010
0000
,  // measure 27
0011
0010
0011
0001
,  // measure 28
0001
0100
0001
0010
0000
0010
0100
0000
,  // measure 29
1100
0100
1100
1000
,  // measure 30
1000
0010
0100
0010
0000
0010
0100
0000
,  // measure 31
0001
1000
0001
1000
0010
0100
0010
0100
,  // measure 32
0004
0000
1003
0000
,  // measure 33
1100
1000
1010
0010
,  // measure 34
0100
0001
0010
0100
0000
0100
0010
0000
,  // measure 35
0011
0001
1001
1000
,  // measure 36
0010
1000
0001
0010
0000
0010
0100
0000
,  // measure 37
0110
0100
1100
1000
,  // measure 38
0010
1000
0001
1000
0000
1000
0100
0000
,  // measure 39
0020
0000
0230
0000
,  // measure 40
2300
0000
0004
0000
,  // measure 41
3003
0000
0000
0000
,  // measure 42
1000
0001
0010
0100
0000
0000
0011
0000
,  // measure 43
1100
0100
0110
0010
,  // measure 44
0001
0100
0001
1000
0000
1000
0100
0000
,  // measure 45
0110
0010
0011
0001
,  // measure 46
0001
0100
0010
1000
0000
1000
0100
0000
,  // measure 47
0010
0100
0010
0100
1000
0001
1000
0001
,  // measure 48
0400
0000
0310
0000
,  // measure 49
1000
0010
0100
0001
,  // measure 50
0010
0100
0010
0100
0000
0100
1000
0000
,  // measure 51
0001
1000
0001
0010
,  // measure 52
0100
0010
0100
0010
0000
0010
0001
0000
,  // measure 53
1000
0010
1000
0001
,  // measure 54
0010
0100
0010
0100
0000
0010
0001
0000
,  // measure 55
2000
0000
3200
0000
0320
0000
0032
0000
2003
0000
3200
0000
,  // measure 56
0320
0000
0032
0000
2003
0000
3001
0000
0000
0000
0000
0000
,  // measure 57
1000
0000
0000
1000
0000
0000
0010
0000
0100
0000
0000
0100
0000
0000
0010
0000
,  // measure 58
0100
0000
0001
0010
0000
0010
0100
0000
0000
0000
0010
0000
0001
0000
0010
0000
,  // measure 59
0100
0010
0001
1000
0010
0100
0000
0100
,  // measure 60
0001
0000
1000
0000
0100
0000
1000
0000
0001
0000
0000
0000
4000
3000
0004
0003
,  // measure 61
1000
0000
0000
1000
0000
0000
0001
0000
0010
0000
0000
0010
0000
0000
0001
0000
,  // measure 62
0010
0000
0010
0100
0000
0100
1000
0000
0000
0000
0100
0000
1000
0000
0010
0000
,  // measure 63
0100
0100
0001
1000
0100
0100
0000
1000
,  // measure 64
0001
0100
0001
0100
0000
0000
0010
1000
0010
1000
0000
0000
0001
1000
0001
1000
0000
0000
0100
0000
0000
0000
0000
0000
,  // measure 65
1001
0000
0001
1000
0001
0000
1000
0000
0001
1000
0001
0000
1000
0000
0010
0000
,  // measure 66
0100
0000
0010
0100
0010
0000
0100
0000
0010
0100
0010
0000
0100
0000
0010
0000
,  // measure 67
1000
0000
0001
1000
0001
0000
1000
0000
0001
1000
0001
0000
1000
0000
0001
0000
,  // measure 68
1000
0100
1000
0100
0010
0100
0010
0001
0010
0001
0100
0001
1001
0000
0000
0000
,  // measure 69
1000
0000
0000
0000
0000
0000
0001
0000
0010
0000
0001
0000
0010
0000
0000
0001
0000
0000
0010
0000
0000
0000
0000
0000
0100
0000
0000
0000
0000
0000
1000
0000
0000
0001
0000
0000
0000
0000
0000
1000
0000
0000
0001
0000
0000
0000
0000
0000
,  // measure 70
0100
0000
0000
0000
0000
0000
0010
0000
1000
0000
0010
0000
1000
0000
0000
0010
0000
0000
1000
0000
0000
0000
0000
0000
0001
0000
0000
0000
0000
0000
1000
0000
0000
0001
0000
0000
0000
0000
0000
1000
0000
0000
0001
0000
0000
0000
0000
0000
,  // measure 71
0100
0000
0100
0000
0100
0000
0100
0000
0100
0010
0100
0010
0100
0010
0100
0010
,  // measure 72
0000
0000
0000
0000
,  // measure 73
1001
0000
1000
0001
1000
0000
1000
0001
,  // measure 74
1000
0000
0000
1010
0000
0000
0101
0000
,  // measure 75
1001
0000
0000
0001
1000
0001
1000
0000
0000
0001
1000
0001
,  // measure 76
1000
0100
1000
0400
0000
0000
0310
0000
,  // measure 77
0011
0000
0010
0001
0200
0000
0310
1000
,  // measure 78
0001
0010
0001
0010
0000
0010
0100
0000
,  // measure 79
1000
0100
1000
0100
0010
0001
0010
0001
,  // measure 80
4000
0000
3001
0000
,  // measure 81
1000
0010
1000
0001
0100
0010
1000
0001
,  // measure 82
1000
0100
0010
0200
0000
0000
1300
0000
,  // measure 83
0001
0010
0100
1000
0001
0010
0100
1000
,  // measure 84
0001
0100
0001
0020
0000
0000
0130
1000
,  // measure 85
0001
0100
0010
1000
0001
0100
0010
1000
,  // measure 86
0001
0010
0100
1000
0100
0010
0001
1000
,  // measure 87
0020
0000
0230
0000
,  // measure 88
0302
0000
4000
0000
,  // measure 89
3003
0000
0000
0000
,  // measure 90
0010
0100
0010
0100
0000
0000
0010
0000
,  // measure 91
2001
3100
1002
0103
,  // measure 92
0010
1000
0001
0010
0000
0010
0100
0000
,  // measure 93
1200
0310
0021
0130
,  // measure 94
0010
0001
0100
0010
0000
0010
1000
0000
,  // measure 95
0001
0010
0001
0010
0100
1000
0100
1000
,  // measure 96
0040
0000
0130
0001
2000
0000
0000
0000
,  // measure 97
3100
0010
0001
0100
,  // measure 98
0010
0100
0001
0010
0100
0000
0010
0000
,  // measure 99
0001
1000
0001
0010
,  // measure 100
0100
1000
0010
0100
0010
0000
1001
0000
,  // measure 101
1000
0100
1000
0100
0010
0001
0010
0001
,  // measure 102
0100
0010
1000
0001
1000
0100
0010
0100
,  // measure 103
2000
3200
0320
0032
2003
3200
0320
0032
,  // measure 104
2003
3200
0320
0032
2000
0000
3003
0000
,  // measure 105
0220
0000
0330
0000
;
